osu file format v9

[General]
AudioFilename: Ververg.ogg
AudioLeadIn: 0
PreviewTime: 80552
Countdown: 0
SampleSet: Soft
StackLeniency: 0.7
Mode: 0
LetterboxInBreaks: 0

[Editor]
DistanceSpacing: 1.1
BeatDivisor: 4
GridSize: 4

[Metadata]
Title:Ververg (feat. B)
Artist:Ani
Creator:Niva
Version:Normal
Source:Cytus
Tags:nivalis rayark onoken

[Difficulty]
HPDrainRate:3
CircleSize:4
OverallDifficulty:3
ApproachRate:5
SliderMultiplier:1.2
SliderTickRate:1

[Events]
//Background and Video events
0,0,"bg.jpg"
//Break Periods
2,80803,82245
//Storyboard Layer 0 (Background)
//Storyboard Layer 1 (Fail)
//Storyboard Layer 2 (Pass)
//Storyboard Layer 3 (Foreground)
//Storyboard Sound Samples
//Background Colour Transformations
3,100,163,162,255

[TimingPoints]
1024.31937172775,315.789473684211,3,2,1,70,1,0
8998,-100,3,2,0,70,0,0
9550,-100,3,2,1,70,0,0
9629,-100,3,2,0,70,0,0
9945,-100,3,2,1,70,0,0
10892,-100,3,2,0,70,0,0
11445,-100,3,2,1,70,0,0
11603,-100,3,2,0,70,0,0
12313,-100,3,2,1,70,0,0
12471,-100,3,2,0,70,0,0
13261,-100,3,2,1,70,0,0
13419,-100,3,2,0,70,0,0
13971,-100,3,2,1,70,0,0
14366,-100,3,2,0,70,0,0
15155,-100,3,2,1,70,0,0
15787,-100,3,2,0,70,0,0
16182,-100,3,2,1,70,0,0
20445,-100,3,2,0,70,0,0
21787,-100,3,2,1,70,0,0
21945,-100,3,2,0,70,0,0
23682,-100,3,2,1,70,0,0
23840,-100,3,2,0,70,0,0
25576,-100,3,2,1,70,0,0
25734,-100,3,2,0,70,0,0
26919,-100,3,2,1,70,0,0
26998,-100,3,2,0,70,0,0
27471,-100,3,2,1,70,0,0
27629,-100,3,2,0,70,0,0
29366,-100,3,2,1,70,0,0
29524,-100,3,2,0,70,0,0
31024,-100,3,2,1,70,0,0
31419,-100,3,2,0,70,0,0
33155,-100,3,2,1,70,0,0
33392,-100,3,2,0,70,0,0
33708,-100,3,2,1,70,0,0
33866,-100,3,2,0,70,0,0
34655,-100,3,2,1,70,0,0
36629,-100,3,2,0,70,0,0
36945,-100,3,2,1,70,0,0
37734,-100,3,2,0,70,0,0
37892,-100,3,2,1,70,0,0
40576,-100,3,2,0,70,0,0
40734,-100,3,2,1,70,0,0
41524,-100,3,2,0,70,0,0
41682,-100,3,2,1,70,0,0
44287,-100,3,2,0,70,0,0
44524,-100,3,2,1,70,0,0
45471,-100,3,2,1,70,0,0
49734,-100,3,2,0,70,0,0
50208,-100,3,2,1,70,0,0
50682,-100,3,2,0,70,0,0
51234,-100,3,2,1,70,0,0
51313,-100,3,2,0,70,0,0
51787,-100,3,2,1,70,0,0
52576,-100,3,2,0,70,0,0
53129,-100,3,2,1,70,0,0
53208,-100,3,2,0,70,0,0
53998,-100,3,2,1,70,0,0
54550,-100,3,2,0,70,0,0
54945,-100,3,2,1,70,0,0
55103,-100,3,2,0,70,0,0
55655,-100,3,2,1,70,0,0
56208,-100,3,2,0,70,0,0
57787,-100,3,2,1,70,0,0
58261,-100,3,2,0,70,0,0
58813,-100,3,2,1,70,0,0
58892,-100,3,2,0,70,0,0
59366,-100,3,2,1,70,0,0
60155,-100,3,2,0,70,0,0
60708,-100,3,2,1,70,0,0
60866,-100,3,2,0,70,0,0
61498,-100,3,2,1,70,0,0
61813,-100,3,2,0,70,0,0
62524,-100,3,2,1,70,0,0
62682,-100,3,2,0,70,0,0
63234,-100,3,2,1,70,0,0
67103,-100,3,2,0,70,0,0
67261,-100,3,2,1,70,0,0
68050,-100,3,2,0,70,0,0
68208,-100,3,2,1,70,0,0
70892,-100,3,2,0,70,0,0
71050,-100,3,2,1,70,0,0
71761,-100,3,2,0,70,0,0
71998,-100,3,2,1,70,0,0
74682,-100,3,2,0,70,0,0
74840,-100,3,2,1,70,0,0
75629,-100,3,2,0,70,0,0
75787,-100,3,2,1,70,0,0
78471,-100,3,2,0,70,0,0
78629,-100,3,2,1,70,0,0
78787,-100,3,2,0,70,0,0
80603,-100,3,2,0,35,0,0
83445,-100,3,2,0,10,0,0
83603,-100,3,2,0,20,0,0
83761,-100,3,2,0,30,0,0
83919,-100,3,2,0,40,0,0
84076,-100,3,2,0,50,0,0
84234,-100,3,2,0,60,0,0
84392,-100,3,2,1,70,0,1
84787,-100,3,2,0,70,0,1
85340,-100,3,2,1,70,0,1
85419,-100,3,2,0,70,0,1
85892,-100,3,2,1,70,0,1
86682,-100,3,2,0,70,0,1
87234,-100,3,2,1,70,0,1
87313,-100,3,2,0,70,0,1
88103,-100,3,2,1,70,0,1
88261,-100,3,2,0,70,0,1
89129,-100,3,2,1,70,0,1
89208,-100,3,2,0,70,0,1
89761,-100,3,2,1,70,0,1
90234,-100,3,2,0,70,0,1
91813,-100,3,2,1,70,0,1
92366,-100,3,2,0,70,0,1
92919,-100,3,2,1,70,0,1
92998,-100,3,2,0,70,0,1
93471,-100,3,2,1,70,0,1
94261,-100,3,2,0,70,0,1
94813,-100,3,2,1,70,0,1
95050,-100,3,2,0,70,0,1
95682,-100,3,2,1,70,0,1
95840,-100,3,2,0,70,0,1
96629,-100,3,2,1,70,0,1
96787,-100,3,2,0,70,0,1
97261,-100,3,2,1,70,0,1
98524,-100,3,2,0,70,0,1
99155,-100,3,2,1,70,0,1
99550,-100,3,2,1,70,0,0
101998,-100,3,2,0,25,0,0

[Colours]
Combo1 : 220,156,254
Combo2 : 255,125,162
SliderBorder : 255,189,219
SliderTrackOverride : 241,26,117

[HitObjects]
479,323,8603,2,0,B|435:274|368:295,1,120,4|2
308,321,9076,1,8
247,347,9234,2,0,B|186:373|136:319,1,120,2|2
18,377,9866,1,8
32,245,10182,1,2
14,114,10498,6,0,B|44:109|72:124|72:124|98:139|132:135,1,120,0|2
195,122,10971,1,8
255,147,11129,2,0,B|320:173|367:125,1,120,2|2
436,238,11761,1,2
405,366,12076,1,8
274,344,12392,6,0,B|231:330|185:359|185:359|142:387|97:373,1,180,0|8
58,250,13182,1,0
58,250,13340,2,0,B|36:188|79:130,2,120,2|8|0
184,211,14287,5,2
309,251,14603,2,0,B|375:274|421:225,1,120,8|2
349,338,15234,2,0,B|288:343|238:304|238:304|176:303,1,180,0|0
142,359,15866,2,0,B|185:304|141:249,1,120,10|4
256,192,16340,12,4,19971
454,272,20603,5,2
340,339,20919,2,0,B|293:388|219:379|188:316,1,180,8|0
129,345,21550,1,2
74,224,21866,6,0,B|47:162|47:162|90:126|88:56,1,180,0|0
135,15,22498,1,2
259,57,22813,2,0,B|321:82|373:40,1,120,8|2
448,148,23445,1,0
408,273,23761,6,0,B|402:319|425:357|425:357|378:347|328:363,1,180,2|0
271,379,24392,1,2
161,305,24708,1,8
186,175,25024,1,2
317,167,25340,1,2
370,287,25655,6,0,B|413:287|413:287|458:309|494:289,2,120,0|2|0
252,347,26603,2,0,B|190:374|138:323,1,120,10|0
91,369,27076,2,0,B|144:325|122:259,1,120,10|0
109,196,27550,1,2
109,196,28182,5,2
235,157,28498,2,0,B|278:144|321:171|321:171|362:199|409:188,1,180,8|0
471,173,29129,1,2
449,299,29445,6,0,B|444:348|465:386|465:386|420:360|377:372,1,180
312,380,30076,1,2
188,334,30392,1,8
243,214,30708,2,0,B|262:150|211:98,1,120,10|0
336,49,31340,5,2
466,66,31655,1,2
443,196,31971,1,0
312,178,32287,2,0,B|248:164|197:200|197:200|144:239|83:223,1,240,10|0
53,351,33234,5,2
181,383,33550,2,0,B|220:387|243:370,1,60,0|2
367,335,34024,2,0,B|401:333|432:346,1,60,0|10
512,240,34498,5,2
426,139,34813,1,0
426,139,35129,5,4
285,281,35603,2,0,B|313:233|390:215|441:268,2,180,2|0|2
182,363,36866,1,2
182,363,37024,2,0,B|140:386|96:361|96:361|52:337|7:363,1,180,0|2
27,230,37813,1,2
27,230,37971,5,0
155,259,38287,1,2
275,204,38603,1,2
404,228,38919,6,0,B|416:166|374:116|374:116|374:52,2,180,0|2|0
283,384,40340,1,2
160,336,40655,1,2
160,336,40813,2,0,B|111:288|35:307|14:368,1,180,0|2
32,237,41603,1,2
32,237,41761,5,0
10,107,42076,1,2
136,143,42392,1,2
261,100,42708,6,0,B|310:96|346:72|346:72|383:96|430:103,2,180,0|2|0
321,288,44129,1,2
199,340,44445,1,2
199,340,44603,2,0,B|161:392|75:384|48:317,1,180,0|2
99,199,45392,1,2
99,199,45550,5,0
48,76,45866,1,2
178,95,46182,2,0,B|241:116|290:74,1,120,2|0
256,192,46655,12,4,48392
256,254,49340,5,4
65,301,49813,1,10
65,301,50287,6,0,B|40:180,1,120,4|2
25,118,50761,1,8
88,135,50919,2,0,B|119:142|147:128|147:128|173:114|204:121,1,120,2|2
329,164,51550,1,8
454,121,51866,1,2
387,235,52182,6,0,B|352:265|304:262|272:236,1,120,0|2
237,292,52655,1,8
198,345,52813,2,0,B|155:345|155:345|122:363|80:344,1,120,2|2
1,238,53445,1,2
38,111,53761,1,8
164,146,54076,6,0,B|228:167|294:122|274:52,1,180,2|10
401,16,54866,1,0
401,16,55024,2,0,B|428:27|460:16|460:16|488:7|518:16,2,120,2|8|0
433,144,55971,5,2
367,258,56287,1,8
241,217,56603,2,0,B|204:164|120:164|63:219|75:284,1,240,2|2
0,171,57550,1,10
106,93,57866,6,0,B|165:72|225:92,1,120,4|2
290,90,58340,1,8
345,125,58498,2,0,B|405:149|464:119,1,120,2|2
492,248,59129,1,8
437,368,59445,1,2
314,319,59761,6,0,B|250:297|202:341,1,120,0|2
166,285,60234,1,8
131,228,60392,2,0,B|104:186|104:186|127:155|123:113,1,120,2|2
251,155,61024,1,2
362,84,61340,1,8
478,146,61655,6,0,B|536:187|506:282|437:278,1,180,0|10
313,248,62445,1,0
313,248,62603,2,0,B|280:239|253:249|253:249|224:260|195:249,2,120,2|8|2
352,373,63550,1,2
256,192,63708,12,4,65445
501,207,66392,6,0,B|502:276|424:309|371:264,1,180,0|2
262,188,67182,1,2
262,188,67340,2,0,B|216:167|173:188|173:188|128:211|82:188,1,180,0|2
44,315,68129,1,2
44,315,68287,5,0
157,383,68603,1,2
285,351,68919,1,2
205,245,69234,6,0,B|176:220|167:172|200:132|200:132|200:69,2,180,0|2|0
381,154,70655,1,2
349,282,70971,1,2
349,282,71129,2,0,B|343:326|370:367|370:367|323:357|280:372,1,180,0|2
152,337,71919,1,2
152,337,72076,5,0
25,374,72392,1,2
50,244,72708,1,2
152,337,73024,6,0,B|190:354|236:330|236:330|282:306|327:323,2,180,0|2|0
210,147,74445,1,2
328,206,74761,1,2
328,206,74919,2,0,B|389:232|458:182|444:116,1,180,0|2
344,26,75708,1,2
344,26,75866,5,0
215,57,76182,1,2
86,25,76498,1,2
35,146,76813,6,0,B|22:190|53:230|53:230|84:268|70:315,2,180,0|2|0
221,212,78234,1,2
347,174,78550,1,2
347,174,78708,1,4
256,192,78866,12,2,80603
256,192,83445,12,4,84392
454,215,85024,6,0,B|392:248|343:195,1,120,2|2
288,316,85655,1,8
161,279,85971,1,2
36,321,86287,6,0,B|14:263|50:204,1,120,0|2
95,158,86761,1,8
160,146,86919,2,0,B|224:146|267:194,1,120,2|2
359,99,87550,1,2
485,136,87866,1,8
400,237,88182,6,0,B|369:296|421:370|483:355,1,180,2|8
354,381,88971,1,0
354,381,89129,2,0,B|335:358|324:329|324:329|292:338|256:328,2,120,2|8|0
483,355,90076,5,2
510,225,90392,1,8
399,153,90708,2,0,B|335:168|291:116|291:116|243:63|180:75,1,240,2|2
101,178,91655,1,10
154,298,91971,6,0,B|216:327|266:287,1,120,4|2
273,220,92445,1,8
326,258,92603,2,0,B|388:238|435:286,1,120,2|2
508,176,93234,1,8
474,48,93550,1,2
352,99,93866,6,0,B|285:116|241:64,1,120,0|2
206,121,94340,1,8
169,176,94498,2,0,B|149:210|149:210|104:225|101:273,1,120,2|2
195,361,95129,1,2
323,330,95445,1,8
451,359,95761,6,0,B|466:292|419:240|419:240|419:179,1,180,2|8
293,227,96550,1,0
293,227,96708,2,0,B|229:251|183:203,1,120,2|8
105,310,97340,1,0
218,376,97655,6,0,B|256:395|299:367|299:367|343:339|390:356,1,180,6|0
480,259,98445,1,0
480,259,98603,2,0,B|437:208|468:150|468:150|452:77,1,180,8|8
497,38,99234,2,0,B|455:92|384:68,1,120,2|6
256,192,99708,12,2,101998
