osu file format v9

[General]
AudioFilename: Keyboardfly.mp3
AudioLeadIn: 1489
PreviewTime: 106308
Countdown: 0
SampleSet: Normal
StackLeniency: 0.2
Mode: 0
LetterboxInBreaks: 1
EpilepsyWarning: 1

[Editor]
DistanceSpacing: 0.8
BeatDivisor: 2
GridSize: 8

[Metadata]
Title:Keyboardfly
Artist:Angry Germany Player
Creator:liuchen9586
Version:JUMP
Source:bilibili
Tags:MAD

[Difficulty]
HPDrainRate:7
CircleSize:6
OverallDifficulty:7
ApproachRate:8
SliderMultiplier:2.19999990463257
SliderTickRate:2

[Events]
//Background and Video events
0,0,"20101128133434.jpg"
Video,0,"Keyboardfly.avi"
//Break Periods
2,49929,55553
2,98269,99253
2,101750,102347
2,149510,153008
//Storyboard Layer 0 (Background)
//Storyboard Layer 1 (Fail)
//Storyboard Layer 2 (Pass)
//Storyboard Layer 3 (Foreground)
//Storyboard Sound Samples
//Background Colour Transformations
3,100,163,162,255

[TimingPoints]
5643,386.722526587174,4,1,0,45,1,0
7189,-100,4,1,0,45,0,1
11830,-100,4,1,0,45,0,0
38127,-100,4,1,0,45,0,1
49729,-100,4,1,0,45,0,0
69065,-100,4,1,0,45,0,1
93042,-100,4,1,0,45,0,0
106190,-100,4,1,0,45,0,1
111604,-100,4,1,0,45,0,0
112765,-100,4,1,0,45,0,1
118491,-100,4,1,0,45,0,0
118701,-100,4,1,0,45,0,1
124366,-100,4,1,0,45,0,0
125526,-100,4,1,0,45,0,1
142542,-100,4,1,0,45,0,0

[Colours]
Combo1 : 128,255,255
Combo2 : 5,240,5
Combo3 : 5,5,240
Combo4 : 240,5,5
Combo5 : 255,150,0

[HitObjects]
72,64,5643,1,8
72,136,6029,1,8
72,216,6416,1,8
72,280,6803,1,8
32,40,7190,5,0
56,40,7286,1,0
80,40,7383,1,0
104,40,7480,1,0
128,40,7576,5,0
152,40,7673,1,0
176,40,7770,1,0
200,40,7866,1,0
224,40,7963,5,0
248,40,8060,1,0
272,40,8156,1,0
296,40,8253,1,0
328,40,8350,5,0
352,40,8447,1,0
376,40,8543,1,0
400,40,8640,1,0
432,40,8737,5,0
456,40,8833,1,0
480,40,8930,1,0
504,40,9027,1,0
504,72,9123,5,0
504,96,9220,1,0
504,120,9317,1,0
504,144,9413,1,0
504,168,9510,5,0
504,192,9607,1,0
504,216,9703,1,0
504,240,9800,1,0
504,264,9897,5,0
504,288,9993,1,0
504,312,10090,1,0
504,336,10187,1,0
480,336,10283,5,0
456,336,10380,1,0
432,336,10477,1,0
408,336,10573,1,0
384,336,10670,5,0
360,336,10767,1,0
336,336,10864,1,0
312,336,10960,1,0
288,336,11057,5,0
264,336,11154,1,0
240,336,11250,1,0
216,336,11347,1,0
216,312,11444,5,0
216,288,11540,1,0
248,288,11637,1,0
272,288,11734,1,0
304,240,11830,5,8
304,144,12024,5,0
208,144,12217,5,8
208,240,12410,5,0
256,192,12604,5,6
256,192,12797,12,0,13184
256,96,13571,5,0
184,152,13764,1,0
184,240,13957,1,2
256,288,14151,1,0
328,240,14344,1,0
328,152,14537,1,2
216,120,15117,5,0
160,192,15311,1,0
216,272,15504,1,2
296,272,15698,1,0
352,192,15891,1,0
296,120,16084,1,2
256,96,16664,5,0
184,152,16857,1,0
184,240,17050,1,2
256,288,17244,1,0
328,240,17437,1,0
328,152,17630,1,2
312,192,18018,5,0
200,192,18211,5,2
312,192,18405,5,0
200,192,18598,5,2
312,192,18791,5,0
256,192,18985,5,0
256,192,19033,5,0
256,192,19081,5,0
256,192,19130,5,0
256,192,19178,5,0
256,192,19226,5,0
256,192,19275,5,0
256,120,19565,5,0
184,192,19758,1,0
256,264,19952,1,0
328,192,20145,1,0
184,192,20338,5,0
328,192,20532,5,0
184,192,20725,5,0
328,192,20918,5,0
168,232,21112,5,0
192,232,21208,1,0
264,232,21498,1,0
288,232,21595,1,0
352,232,21885,1,0
376,232,21982,1,0
376,160,22272,1,0
352,160,22369,1,0
240,112,22659,5,8
168,112,22852,1,0
168,192,23045,1,8
240,192,23239,1,0
240,264,23432,5,0
224,264,23529,1,0
192,264,23722,1,0
192,248,23819,1,0
192,208,24012,1,0
256,192,24205,12,0,25172
344,128,25366,6,0,B|264:128|264:128|264:176,1,109.999995231628,8|0
264,224,25752,1,8
200,224,25946,1,0
136,224,26139,1,8
72,224,26332,1,0
72,160,26526,2,0,B|0:152|40:112|72:88,1,109.999995231628,8|0
136,120,26913,5,8
136,120,27009,1,0
136,120,27106,1,0
208,96,27299,5,8
208,96,27396,1,0
208,96,27493,1,0
272,96,27686,2,0,B|344:192,1,109.999995231628,0|0
368,232,28073,2,0,B|392:288|296:320,1,109.999995231628,8|0
272,256,28459,5,8
272,256,28556,1,0
272,256,28653,1,0
208,272,28846,5,8
208,272,28943,1,0
208,272,29039,1,0
128,288,29233,2,0,B|72:176,1,109.999995231628,0|8
112,112,29620,1,0
112,112,29716,1,0
112,112,29813,1,0
192,112,30006,2,8,B|304:112,1,109.999995231628,0|8
208,192,30393,5,8
304,192,30586,5,0
208,192,30780,5,8
304,192,30973,5,0
208,192,31166,2,0,B|216:288|320:248,1,109.999995231628,8|0
360,232,31553,6,0,B|384:200|312:144,1,109.999995231628
248,96,31940,1,0
248,96,32037,1,0
248,96,32133,1,8
328,96,32327,1,0
400,136,32520,1,8
432,208,32713,1,2
344,208,32907,6,0,B|96:208,1,219.999990463257,8|0
64,208,33487,5,8
64,208,33583,1,0
64,208,33680,1,0
64,280,33874,5,8
136,256,34067,1,0
200,280,34260,2,0,B|224:240|224:240|248:288|248:288|288:256,1,109.999995231628,8|10
320,280,34647,5,8
320,280,34744,1,0
320,280,34840,1,8
408,280,35034,5,8
408,280,35130,1,0
408,280,35227,1,0
416,192,35420,1,0
352,144,35614,1,8
280,104,35807,5,0
280,104,35904,1,0
280,104,36000,1,0
200,64,36194,6,0,B|80:56|208:112,1,109.999995231628
256,128,36581,5,0
184,192,36774,5,2
256,256,36967,5,0
328,192,37161,5,2
408,232,37354,2,0,B|480:168|416:144,1,109.999995231628
352,96,37741,6,0,B|352:8|344:48|352:104,1,109.999995231628
288,104,38127,5,0
288,104,38224,1,0
288,104,38321,1,8
224,104,38514,5,8
224,104,38611,1,0
224,104,38708,1,0
160,104,38901,5,8
160,104,38998,1,0
160,104,39094,1,0
88,144,39288,5,0
88,144,39384,1,0
88,144,39481,1,0
136,200,39674,1,0
216,200,39868,1,8
296,200,40061,1,0
376,200,40254,1,8
376,280,40448,2,0,B|216:280,1,109.999995231628,0|10
224,208,40835,5,0
224,208,40931,1,8
224,208,41028,1,0
152,256,41221,5,0
152,256,41318,1,8
152,256,41415,1,0
96,192,41608,2,0,B|56:160|56:160|104:128,1,109.999995231628,0|8
192,104,41995,1,0
192,104,42091,1,8
192,104,42188,1,0
280,104,42381,2,2,B|256:224,1,109.999995231628,0|2
328,192,42768,5,0
192,192,42962,5,2
328,192,43155,5,0
192,192,43348,5,2
328,192,43542,5,0
256,128,43735,2,0,B|256:248,2,109.999995231628,8|0|8
176,88,44315,5,8
176,88,44412,1,0
176,88,44508,1,0
264,88,44702,5,8
264,88,44798,1,0
264,88,44895,1,0
352,88,45088,5,8
352,88,45185,1,0
352,88,45282,1,0
400,168,45475,5,0
400,256,45669,1,8
312,256,45862,1,0
312,168,46055,1,8
400,168,46249,1,0
400,256,46442,1,0
312,256,46635,2,0,B|144:256,1,109.999995231628,0|8
112,256,47022,5,0
112,256,47119,1,0
112,256,47215,1,8
112,168,47409,5,8
112,168,47505,1,0
112,168,47602,1,0
216,168,47796,2,0,B|360:168,1,109.999995231628,0|8
424,168,48182,1,0
424,168,48279,1,0
424,168,48376,1,8
392,248,48569,6,0,B|240:248,1,109.999995231628,0|8
208,192,48956,5,0
304,192,49149,5,10
208,192,49342,5,0
304,192,49536,5,10
208,192,49729,5,0
272,176,56303,6,0,B|152:176,2,109.999995231628,8|0|8
360,176,56884,1,0
360,176,56980,1,0
360,176,57077,1,8
360,264,57270,2,0,B|88:264,1,219.999990463257,0|10
48,264,57850,5,0
48,264,57947,1,0
48,264,58044,1,8
48,176,58237,2,0,B|160:176,1,109.999995231628,0|8
248,176,58624,1,0
248,176,58720,1,0
248,176,58817,1,8
336,176,59010,6,0,B|448:176,3,109.999995231628,0|8|0|8
448,264,59784,5,0
448,264,59881,1,0
448,264,59977,1,8
360,264,60171,1,0
272,264,60364,1,8
184,264,60557,5,0
184,264,60654,1,0
184,264,60751,1,8
96,264,60944,2,2,B|48:184|48:184|96:168,1,109.999995231628,2|8
168,192,61331,5,0
256,96,61524,5,8
344,192,61718,5,0
256,288,61911,5,8
256,192,62104,6,0,B|280:184|280:184|240:168|240:168|224:200|224:200|272:208,1,109.999995231628,0|8
168,264,62491,5,8
168,264,62588,1,0
168,264,62684,1,0
224,176,62878,5,0
264,256,63071,1,8
320,184,63264,1,0
360,264,63458,1,8
416,192,63651,2,0,B|440:152|440:152|480:200,1,109.999995231628,0|8
456,288,64038,5,0
456,288,64135,1,0
456,288,64231,1,8
368,304,64425,5,2
280,312,64618,1,8
256,232,64811,1,2
168,240,65005,1,8
152,152,65198,2,2,B|80:128|104:112|104:112|144:96,1,109.999995231628,2|10
224,88,65585,5,0
224,88,65681,1,0
224,88,65778,1,8
312,112,65971,5,0
392,144,66165,1,8
360,224,66358,1,0
272,200,66552,1,8
224,272,66745,2,0,B|56:216|0:184|232:144,1,329.999985694885,0|8
328,192,67518,5,0
184,192,67712,5,8
328,192,67905,5,0
184,192,68098,5,8
328,192,68292,5,0
256,192,68485,5,0
256,192,68582,1,0
256,192,68679,1,0
256,192,68775,1,0
256,192,68872,1,0
448,192,69065,6,0,B|448:328,1,109.999995231628,0|8
368,192,69452,6,0,B|368:48,1,109.999995231628,0|8
288,192,69839,6,0,B|288:304,1,109.999995231628,0|8
200,304,70225,5,0
200,216,70419,1,8
200,128,70612,1,0
136,72,70806,1,8
72,128,70999,1,0
144,192,71192,5,10
144,280,71386,5,0
144,280,71482,1,0
144,280,71579,1,8
232,280,71772,5,0
232,280,71869,1,0
232,280,71966,1,8
320,280,72159,5,0
320,280,72256,1,0
320,280,72352,1,8
408,280,72546,2,0,B|488:256|392:208,1,109.999995231628,0|8
328,160,72932,1,0
328,160,73029,1,0
328,160,73126,1,8
240,160,73319,2,0,B|120:208|320:240|328:248,1,109.999995231628,0|8
312,192,73706,5,0
192,192,73899,5,8
312,192,74093,5,0
192,192,74286,5,8
312,192,74479,5,0
232,280,74673,5,0
232,280,74770,1,0
232,280,74867,1,0
232,280,74962,5,0
232,280,75059,1,0
232,280,75156,1,0
232,280,75253,6,0,B|376:280,5,109.999995231628,2|8|2|8|2|8
432,272,76413,5,0
432,272,76510,1,0
432,272,76607,1,8
416,184,76800,2,0,B|448:136|424:96|296:104,1,109.999995231628,0|8
288,112,77186,5,0
288,112,77283,1,0
288,112,77380,1,8
200,112,77573,6,0,B|200:224,1,109.999995231628,0|10
200,312,77959,5,0
200,312,78056,1,0
200,312,78153,1,8
128,264,78347,5,0
128,264,78444,1,0
128,264,78541,1,8
72,200,78733,2,0,B|32:136|88:88,1,109.999995231628,0|8
160,72,79120,1,0
160,72,79217,1,0
160,72,79314,1,8
232,120,79507,5,0
232,120,79604,1,0
232,120,79701,1,8
232,208,79894,5,0
232,208,79991,1,0
232,208,80087,1,0
232,208,80183,1,0
232,208,80280,1,0
232,208,80377,1,0
232,208,80474,1,0
232,208,80571,1,0
232,208,80667,1,0
320,208,80860,5,0
320,208,80957,1,0
320,208,81053,1,0
320,208,81149,1,0
320,208,81247,1,0
320,208,81344,1,0
320,208,81440,1,0
320,208,81536,1,0
320,208,81633,1,0
336,288,81827,6,2,B|120:280|120:288|120:288|96:56,1,439.999980926514
112,80,82697,1,0
112,80,82794,1,0
112,80,82891,1,0
112,80,82987,1,0
112,80,83084,1,0
112,80,83181,6,2,B|384:88|416:64|416:64|400:336,1,549.999976158142
423,326,84244,1,0
423,326,84341,1,0
423,326,84437,1,0
423,326,84534,1,0
423,326,84631,1,0
423,326,84728,6,2,B|72:320|72:320|56:80,1,549.999976158142
72,129,85791,1,0
72,129,85888,1,0
72,129,85984,1,0
72,129,86081,6,2,B|456:128|440:344|32:336|32:328|32:328|40:304,1,549.999976158142
104,288,87144,5,0
104,288,87241,1,0
104,288,87338,1,0
104,288,87434,1,0
104,288,87531,1,0
104,288,87628,1,0
192,304,87821,6,2,B|368:288|208:160|88:208|32:144|72:56|72:56|152:72,1,439.999980926514
112,80,88691,1,0
112,80,88788,1,0
112,80,88885,1,0
112,80,88981,1,0
112,80,89078,1,0
112,80,89175,6,2,B|384:88|416:72|416:72|416:336,1,549.999976158142
423,326,90238,1,0
423,326,90335,1,0
423,326,90431,1,0
423,326,90528,1,0
423,326,90625,1,0
424,328,90722,6,2,B|80:328|80:328|56:72,1,549.999976158142
72,129,91785,1,0
72,129,91882,1,0
72,129,91978,1,0
72,129,92075,6,2,B|456:128|440:344|32:336|32:328|32:328|40:304,1,549.999976158142
256,192,93235,12,0,95749
256,192,96909,12,0,98069
256,192,100003,12,0,101550
256,192,103097,12,0,105804
384,272,106190,5,8
384,272,106287,1,0
384,272,106384,1,0
384,184,106577,2,0,B|336:136|256:136,1,109.999995231628,8|2
208,176,106964,5,8
208,176,107061,1,0
208,176,107158,1,8
128,216,107351,2,0,B|80:312|288:256,1,109.999995231628,0|10
272,312,107738,5,0
272,312,107835,1,0
272,312,107932,1,8
352,296,108125,5,0
328,208,108318,1,8
256,248,108511,1,0
264,167,108704,1,8
304,80,108898,2,2,B|168:120,1,109.999995231628,2|8
128,48,109284,5,0
88,128,109478,1,8
88,216,109671,1,0
136,288,109864,1,10
192,216,110058,1,0
240,288,110251,5,8
240,288,110348,1,0
240,288,110445,1,0
328,288,110638,1,8
384,216,110831,6,0,B|384:72,1,109.999995231628,0|8
296,104,111218,2,0,B|160:104,1,109.999995231628,0|8
96,104,111605,1,8
256,192,111798,12,0,112185
210,255,112378,5,8
295,255,112572,1,8
384,256,112765,1,8
408,256,112862,1,8
432,256,112958,1,8
464,256,113055,1,8
448,224,113152,1,8
448,136,113345,1,8
360,136,113538,1,8
360,48,113732,1,8
272,48,113925,5,8
184,48,114119,1,8
184,136,114312,1,8
184,152,114409,1,8
184,168,114505,1,8
184,184,114602,1,8
184,200,114699,1,8
184,288,114892,1,8
272,288,115085,1,8
272,200,115279,1,8
256,192,115472,12,0,116826
256,192,117019,12,0,118179
136,112,118566,5,0
224,112,118759,1,8
136,112,118952,1,0
224,112,119146,1,8
312,112,119339,5,0
352,112,119436,1,0
312,112,119533,1,0
352,112,119629,1,0
312,112,119726,1,0
352,112,119823,1,0
312,240,120113,5,0
400,240,120306,1,8
312,240,120499,1,0
400,240,120693,1,8
400,152,120886,5,0
440,152,120983,1,0
400,152,121080,1,0
440,152,121176,1,0
400,152,121273,1,0
440,152,121370,1,0
312,152,121660,5,0
224,152,121853,1,8
312,152,122046,1,0
224,152,122240,1,8
224,240,122433,5,0
264,240,122530,1,0
224,240,122627,1,0
264,240,122723,1,0
224,240,122820,1,0
264,240,122917,1,0
224,112,123207,5,0
136,112,123400,1,8
224,112,123593,1,0
136,112,123787,1,8
136,200,123980,6,0,B|200:200,4,54.9999976158142
312,200,124753,5,0
400,200,124947,1,0
400,200,125043,1,0
400,152,125140,1,8
400,64,125333,1,0
312,64,125527,1,8
224,64,125720,1,0
224,152,125913,1,8
136,152,126107,1,0
136,240,126300,1,8
224,240,126494,1,0
312,240,126687,1,8
400,240,126880,5,0
400,152,127074,1,8
312,152,127267,1,0
312,64,127460,1,8
224,64,127654,1,0
136,64,127847,5,8
136,152,128040,1,0
136,152,128137,1,0
136,200,128234,1,8
136,288,128427,1,0
224,288,128621,1,8
312,288,128814,1,0
400,288,129007,1,8
400,200,129201,1,0
312,200,129394,1,8
312,112,129587,5,0
224,112,129781,1,8
312,112,129974,1,0
400,112,130167,1,8
400,200,130361,1,0
312,200,130554,1,8
224,200,130748,1,0
64,344,130941,6,0,B|64:224,1,109.999995231628
64,144,131327,2,0,B|176:144,1,109.999995231628
264,144,131714,1,0
272,144,131811,1,0
280,144,131907,1,0
368,144,132101,1,0
376,144,132198,1,0
384,144,132294,1,0
472,144,132487,6,0,B|472:264,1,109.999995231628
384,254,132873,2,0,B|256:254,1,109.999995231628
184,256,133260,1,0
176,256,133357,1,0
168,256,133453,1,0
80,256,133647,1,0
80,248,133744,1,0
80,240,133840,1,0
80,151,134034,6,0,B|80:-1,1,109.999995231628
167,41,134420,2,0,B|335:41,1,109.999995231628
365,41,134807,1,0
373,41,134904,1,0
381,41,135000,1,0
469,41,135194,1,0
469,49,135291,1,0
469,57,135387,1,0
256,192,135581,12,0,136935
472,144,137128,6,0,B|472:264,1,109.999995231628
384,254,137514,2,0,B|384:136,1,109.999995231628
295,144,137901,1,0
295,152,137998,1,0
295,160,138094,1,0
295,248,138288,1,0
295,256,138385,1,0
295,264,138481,1,0
383,264,138675,6,0,B|383:96,1,109.999995231628
384,64,139061,2,0,B|256:64,1,109.999995231628
185,64,139448,1,0
177,64,139545,1,0
169,64,139641,1,0
169,152,139835,1,0
168,160,139932,1,0
168,168,140028,1,0
256,168,140222,6,0,B|392:168,1,109.999995231628
453,168,140608,2,0,B|453:288,1,109.999995231628
364,278,140995,1,0
356,278,141092,1,0
348,278,141188,1,0
259,278,141382,1,0
251,278,141479,1,0
243,278,141575,1,0
152,280,141769,6,0,B|40:280,4,109.999995231628
256,192,143316,12,0,149310
256,192,153758,12,0,155692
