osu file format v9

[General]
AudioFilename: Keyboardfly.mp3
AudioLeadIn: 1489
PreviewTime: 106158
Countdown: 0
SampleSet: Normal
StackLeniency: 0.2
Mode: 0
LetterboxInBreaks: 1
EpilepsyWarning: 1

[Editor]
DistanceSpacing: 0.8
BeatDivisor: 2
GridSize: 16

[Metadata]
Title:Keyboardfly
Artist:Angry Germany Player
Creator:liuchen9586
Version:Hard
Source:bilibili
Tags:MAD

[Difficulty]
HPDrainRate:3
CircleSize:5
OverallDifficulty:4
ApproachRate:6
SliderMultiplier:1.59999990463257
SliderTickRate:2

[Events]
//Background and Video events
0,0,"20101128133434.jpg"
Video,0,"Keyboardfly.avi"
//Break Periods
2,50316,55253
2,93241,105140
//Storyboard Layer 0 (Background)
//Storyboard Layer 1 (Fail)
//Storyboard Layer 2 (Pass)
//Storyboard Layer 3 (Foreground)
//Storyboard Sound Samples
//Background Colour Transformations
3,100,163,162,255

[TimingPoints]
5643,386.722526587174,4,1,0,50,1,0
7189,-100,4,1,0,50,0,1
9896,-100,4,1,0,50,0,1
11830,-100,4,1,0,50,0,0
13474,-100,4,1,0,50,0,0
18888,-100,4,1,0,50,0,0
19661,-100,4,1,0,50,0,0
25655,-100,4,1,0,50,0,0
56206,-100,4,1,0,50,0,0
69065,-100,4,1,0,50,0,1
69355,-100,4,1,0,50,0,1
69548,-100,4,1,0,50,0,1
93042,-100,4,1,0,50,0,0
106190,-100,4,1,0,50,0,1
111604,-100,4,1,0,50,0,0
118491,-100,4,1,0,50,0,0
118701,-100,4,1,0,50,0,1
124366,-100,4,1,0,50,0,0
125526,-100,4,1,0,50,0,1
142542,-100,4,1,0,50,0,0

[Colours]
Combo1 : 128,255,255
Combo2 : 5,240,5
Combo3 : 5,5,240
Combo4 : 240,5,5
Combo5 : 255,150,0

[HitObjects]
64,48,5643,1,8
64,128,6030,1,8
64,208,6417,1,8
64,288,6803,1,8
160,64,7189,6,0,B|216:64,15,39.9999976158142
232,64,8736,6,0,B|288:64,15,39.9999976158142
304,64,10283,6,0,B|360:64,15,39.9999976158142
256,192,12023,12,0,13184
88,184,13570,5,0
88,248,13763,1,0
152,248,13956,1,8
216,248,14150,1,0
280,248,14343,1,0
344,248,14537,1,8
344,56,15117,5,0
280,56,15310,1,0
216,56,15503,1,8
216,120,15697,1,0
280,120,15890,1,0
344,120,16084,1,8
352,312,16664,5,0
288,312,16857,1,0
224,312,17050,1,8
160,312,17244,1,0
160,248,17437,1,0
224,248,17631,1,8
224,120,18018,6,0,B|312:120,4,79.9999952316285,8|0|8|0|8
224,184,18984,2,0,B|256:184,8,19.9999988079071
224,248,19565,6,0,B|408:248|408:248|408:32|408:32|240:32,1,559.999966621399,0|8
184,32,21111,2,0,B|88:32,1,79.9999952316285
40,32,21498,2,0,B|40:144,1,79.9999952316285,8|0
40,176,21885,2,0,B|40:272,1,79.9999952316285,0|8
104,256,22272,2,0,B|192:256,1,79.9999952316285
248,256,22658,6,0,B|328:256,7,79.9999952316285,8|0|8|0|8|0|8|0
256,192,24205,12,0,25172
72,272,25365,6,0,B|176:272,1,79.9999952316285,8|0
216,272,25752,2,0,B|480:272|480:272|480:24|480:24,1,479.999971389771,8|0
416,56,27106,1,0
352,56,27299,2,8,B|96:56|96:56|96:304,1,479.999971389771
160,280,28652,1,8
224,280,28846,2,0,B|480:280|480:280|480:16,1,479.999971389771
416,56,30199,1,8
352,56,30393,6,0,B|248:56,5,79.9999952316285,0|8|0|8|0|8
208,56,31553,2,0,B|208:144,1,79.9999952316285,0|8
208,200,31940,6,0,B|128:200,1,79.9999952316285
128,264,32326,1,8
192,264,32520,2,0,B|272:264,1,79.9999952316285
272,200,32906,2,0,B|272:96|272:96,2,79.9999952316285,8|0|8
336,200,33487,6,0,B|456:200,4,79.9999952316285,0|8|0|8|0
272,200,34453,1,0
208,200,34647,1,8
144,200,34840,1,0
80,200,35033,6,8,B|80:32,1,159.999990463257,8|0
144,40,35613,1,8
208,40,35807,2,0,B|208:208,1,159.999990463257,0|8
208,264,36387,1,0
208,328,36580,2,0,B|344:328,4,79.9999952316285,8|0|8|0|8
208,200,37740,1,0
200,72,38127,6,0,B|472:72|472:72|472:184,1,319.999980926514,8|8
472,184,39094,1,0
472,248,39287,2,0,B|392:248,6,79.9999952316285,8|0|8|0|8|0|8
392,352,40834,1,0
264,352,41221,6,0,B|80:352|80:352|80:248,1,239.999985694885,8|8
80,232,41994,2,0,B|80:152,3,79.9999952316285,0|8|0|8
144,152,42768,2,0,B|224:152,4,79.9999952316285,0|8|0|8|0
144,280,43928,1,0
272,280,44315,6,0,B|272:192,1,79.9999952316285,8|0
272,280,44701,2,0,B|352:200,1,79.9999952316285,8|0
272,280,45088,2,0,B|360:280,1,79.9999952316285,8|0
424,280,45475,1,8
496,280,45668,1,0
496,208,45862,1,8
424,208,46055,1,0
424,136,46248,1,8
496,136,46442,1,0
496,64,46635,1,8
368,64,47022,1,8
240,64,47409,6,0,B|112:64,1,79.9999952316285,0|8
96,64,47795,2,0,B|96:168,1,79.9999952316285,0|8
141,189,48182,2,0,B|317:189,1,159.999990463257,0|8
368,192,48762,1,0
432,192,48955,2,0,B|432:112,4,79.9999952316285,8|0|8|0|8
432,336,50116,1,8
72,72,56303,6,0,B|72:152,1,79.9999952316285,8|0
72,216,56690,2,0,B|176:216,4,79.9999952316285,8|0|8|0|8
72,336,57850,1,8
200,336,58237,6,0,B|336:336,1,79.9999952316285,8|0
344,336,58623,2,0,B|344:208,1,79.9999952316285,8|0
344,192,59010,1,8
344,64,59397,1,8
216,64,59784,5,8
152,64,59977,1,0
152,128,60170,2,0,B|152:232,1,79.9999952316285,8|0
216,208,60557,2,0,B|392:208,1,159.999990463257,8|8
400,336,61331,2,0,B|296:336,4,79.9999952316285,0|8|0|8|0
400,208,62491,6,0,B|256:208,1,79.9999952316285,0|8
256,208,62877,2,0,B|152:208,4,79.9999952316285,0|8|0|8|0
256,80,64038,1,12
384,80,64424,6,0,B|384:184,1,79.9999952316285,8|0
384,224,64811,2,0,B|296:224,1,79.9999952316285,8|0
240,224,65198,1,8
112,224,65584,1,8
112,96,65971,6,0,B|272:96,1,159.999990463257,8|8
336,96,66551,1,0
400,96,66745,2,0,B|456:96|456:96|456:200,1,159.999990463257,8|8
327,199,67518,6,0,B|247:199,4,79.9999952316285,8|0|8|0|8
128,88,69065,6,0,B|128:168,1,79.9999952316285,0|8
128,88,69452,2,0,B|192:152,1,79.9999952316285,0|8
128,88,69838,2,0,B|224:88,1,79.9999952316285,0|8
280,88,70225,1,0
352,88,70419,1,8
424,88,70612,1,0
424,160,70806,1,8
352,160,70999,1,0
280,160,71192,1,8
280,232,71385,1,0
151,232,71772,5,8
152,344,72159,2,0,B|240:344,1,79.9999952316285,8|0
296,344,72545,1,8
360,344,72739,2,0,B|456:344,3,79.9999952316285,0|8|0|8
440,215,73706,2,0,B|352:215,4,79.9999952316285,8|0|8|0|8
311,215,74866,1,8
328,88,75253,6,0,B|240:88,1,79.9999952316285,0|8
328,88,75639,2,0,B|264:152,1,79.9999952316285,0|8
328,88,76026,2,0,B|328:176,1,79.9999952316285,0|8
328,232,76413,2,0,B|237:230,6,79.9999952316285,0|8|0|8|0|8|0
456,232,77960,1,8
200,104,78346,6,0,B|296:104,1,79.9999952316285,8|0
344,104,78733,1,8
407,104,78926,2,0,B|406:196,1,79.9999952316285,0|8
268,186,79507,1,8
268,313,79893,2,0,B|356:313,4,79.9999952316285,8|0|8|0|8
288,264,81633,6,0,B|128:264,1,159.999990463257,8|8
128,200,82214,2,0,B|128:112,2,79.9999952316285,0|8|0
304,120,83180,6,0,B|504:120,1,159.999990463257,8|8
464,184,83761,2,0,B|464:280,2,79.9999952316285,0|8|0
272,184,84727,6,8,B|112:184,1,159.999990463257
112,120,85308,2,0,B|112:32,2,79.9999952316285,0|8|0
240,120,86081,6,0,B|336:120,4,79.9999952316285,8|0|8|0|8
440,288,87821,6,8,B|280:288,1,159.999990463257
280,224,88402,2,0,B|280:136,2,79.9999952316285,0|8|0
272,32,89368,6,8,B|112:32,1,159.999990463257
112,96,89949,2,0,B|112:184,2,79.9999952316285,0|8|0
112,288,90915,6,8,B|272:288,1,159.999990463257
272,224,91496,2,0,B|272:136,2,79.9999952316285,0|8|0
400,224,92268,6,0,B|488:224,4,79.9999952316285,8|0|8|0|8
448,48,106190,6,8,B|448:224,1,159.999990463257
384,208,106770,1,0
320,208,106964,2,8,B|160:208,1,159.999990463257
160,144,107544,1,0
160,80,107737,6,0,B|304:80,1,79.9999952316285,8|0
304,80,108124,1,8
368,80,108317,1,0
432,80,108511,2,0,B|432:160,2,79.9999952316285,8|0|8
432,208,109284,5,8
368,208,109477,1,0
304,208,109671,1,8
240,208,109864,1,0
176,208,110058,1,8
112,208,110251,1,8
112,208,110348,1,0
112,208,110444,1,0
112,144,110638,1,0
112,80,110831,1,8
176,80,111024,1,0
112,80,111218,1,8
176,80,111411,1,0
112,80,111604,1,8
112,336,112378,5,8
176,336,112571,1,8
240,336,112765,1,8
272,336,112861,1,8
304,336,112958,1,8
336,336,113055,1,8
368,336,113151,1,8
432,336,113345,1,8
432,272,113538,1,8
368,272,113731,1,8
304,272,113925,5,8
240,272,114118,1,8
240,208,114312,1,8
272,208,114408,1,8
304,208,114505,1,8
336,208,114602,1,8
368,208,114698,1,8
432,208,114892,1,8
432,144,115085,1,8
368,144,115278,1,8
304,144,115472,5,8
240,144,115665,1,8
240,80,115859,1,8
272,80,115955,1,8
304,80,116052,1,8
336,80,116149,1,8
368,80,116245,1,8
432,80,116439,1,8
432,144,116632,1,8
432,208,116825,1,8
368,208,117019,5,8
304,208,117212,1,8
240,208,117406,1,8
208,208,117502,1,8
176,208,117599,1,8
144,208,117696,1,8
112,208,117792,1,8
112,144,117986,1,8
176,144,118179,1,8
304,144,118565,6,0,B|384:144,3,79.9999952316285,0|8|0|8
384,208,119339,2,0,B|344:208,6,39.9999976158142
384,272,120112,6,0,B|464:272,3,79.9999952316285,8|0|8|0
464,208,120886,2,0,B|424:208,6,39.9999976158142
464,144,121659,6,0,B|360:144,3,79.9999952316285,8|0|8|0
320,144,122433,2,0,B|280:144,6,39.9999976158142
320,208,123206,6,0,B|216:208,3,79.9999952316285,8|0|8|0
240,272,123980,2,0,B|200:272,3,39.9999976158142
256,192,124753,12,0,130747
256,192,130941,6,0,B|336:192,3,79.9999952316285,8|0|8|0
288,160,131714,2,0,B|288:80,3,79.9999952316285,8|0|8|0
256,128,132487,2,0,B|168:128,3,79.9999952316285,8|0|8|0
224,160,133261,2,0,B|224:240,3,79.9999952316285,8|0|8|0
272,192,134034,6,0,B|352:192,3,79.9999952316285,8|0|8|0
288,160,134807,2,0,B|288:80,3,79.9999952316285,8|0|8|0
256,192,135581,12,0,136935
256,192,137128,6,0,B|336:192,3,79.9999952316285,8|0|8|0
272,160,137901,2,0,B|272:80,3,79.9999952316285,8|0|8|0
240,144,138674,2,0,B|152:144,3,79.9999952316285,8|0|8|0
224,176,139448,2,0,B|224:256,3,79.9999952316285,8|0|8|0
256,192,140222,6,0,B|336:192,3,79.9999952316285,8|0|8|0
272,160,140995,2,0,B|272:80,3,79.9999952316285,8|0|8|0
240,192,141769,2,8,B|160:192|160:192|160:272|160:272|336:272|336:272|336:240,1,319.999980926514
256,192,143316,12,0,149503
256,192,154144,12,0,155691
