osu file format v6

[General]
AudioFilename: Diverse-Unknown album_10_Track.mp3
AudioLeadIn: 0
PreviewTime: -1
Countdown: 1
SampleSet: Soft
StackLeniency: 0.7
Mode: 0
LetterboxInBreaks: 1

[Editor]
Bookmarks: 6169,7287,37098,38961,119835,156729
DistanceSpacing: 0.800000011920929
BeatDivisor: 4
GridSize: 16

[Metadata]
Title:Catch Me If You Can
Artist:Angela Via
Creator:Mifune24
Version:Normal
Source:
Tags:

[Difficulty]
HPDrainRate:5
CircleSize:4
OverallDifficulty:5
SliderMultiplier:1.3
SliderTickRate:1

[Events]
//Background and Video events
0,0,"buizel.jpg"
//Break Periods
2,107733,118631
2,149472,155525
//Storyboard Layer 0 (Background)
//Storyboard Layer 1 (Fail)
//Storyboard Layer 2 (Pass)
//Storyboard Layer 3 (Foreground)
//Storyboard Sound Samples
//Background Colour Transformations
3,100,163,162,255

[TimingPoints]
204,372.670807453416,4,2,0,100,1,0

[HitObjects]
176,304,6166,6,0,B|240:352|320:288,3,130
352,288,7471,2,2,B|432:256|448:176|368:112,1,195
320,64,8402,1,2
256,144,8775,1,2
192,64,9148,6,0,B|128:112|48:48,3,130
32,96,10452,2,2,B|-16:176|16:224|80:272,1,195
144,336,11384,1,2
208,256,11756,1,2
272,336,12129,6,0,B|368:336|384:256,3,130
400,224,13433,2,0,B|304:224|240:144|240:112,1,195
208,32,14365,1,0
320,32,14738,1,0
416,32,15110,6,0,B|496:32|512:128|416:160,1,195
320,144,16042,2,0,B|224:144|224:256|304:288,1,195
480,352,17346,1,2
368,352,17719,1,2
256,352,18092,1,4
256,256,18464,5,0
256,256,18837,1,0
144,256,19210,1,0
144,256,19396,2,0,B|64:256|32:192|80:128|144:128,1,195
224,128,20328,1,0
320,128,20700,1,0
480,256,21446,5,0
480,256,21818,1,0
480,144,22191,1,0
480,144,22377,2,0,B|480:48|336:32,1,195
240,32,23309,1,0
176,112,23682,1,0
48,272,24427,5,2
48,272,24800,1,2
144,272,25172,1,2
144,272,25359,2,2,B|256:272|256:352|352:336,1,195
432,336,26290,1,2
496,256,26663,1,2
432,64,27408,5,0
384,160,27781,1,0
336,64,28154,1,0
288,160,28526,2,0,B|144:160,1,130
176,256,29272,2,0,B|320:256,1,130
416,256,30017,5,2
416,256,30203,1,2
416,256,30390,2,2,B|496:256|512:160|464:112|416:112,1,195
352,80,31322,2,2,B|288:144|224:16|160:96,1,195
80,128,32253,1,2
80,288,32812,5,0
80,288,32999,1,0
176,320,33371,2,0,B|240:368|288:288,1,130
304,192,34117,2,0,B|352:112|448:112|496:224|480:256,1,260
128,336,36166,5,0
128,336,36353,1,0
64,256,36725,1,0
27,158,37098,2,0,B|3:110|1:44|48:2|130:19|193:105|215:197|327:184|357:66|386:2|493:22|507:97|478:170,1,650
464,208,39148,5,2
464,208,39334,1,2
416,304,39707,1,2
320,304,40079,1,2
320,304,40266,2,2,B|256:336|160:320|128:304,1,195
48,240,41197,1,2
48,128,41570,1,4
176,80,41943,6,0,B|240:32|320:96,3,130
352,96,43248,2,0,B|432:128|448:208|368:272,1,195
320,320,44179,1,0
256,240,44552,1,0
192,320,44925,6,0,B|128:272|48:336,3,130
32,288,46229,2,0,B|-16:208|16:160|80:112,1,195
144,48,47161,1,0
208,128,47533,1,0
272,48,47906,6,2,B|368:48|384:128,3,130
400,160,49210,2,2,B|304:160|240:240|240:272,1,195
208,352,50142,1,2
320,352,50515,1,2
416,352,50887,6,0,B|496:352|512:256|416:224,1,195
320,240,51819,2,0,B|224:240|224:128|304:96,1,195
480,32,53123,1,2
368,32,53496,1,4
272,32,53868,6,0,B|192:32,1,65
208,80,54241,2,0,B|288:80,1,65
272,128,54613,1,0
272,240,54986,1,0
160,240,55359,6,0,B|160:160,1,65
112,176,55731,2,0,B|112:256,1,65
112,288,56104,1,0
224,288,56477,6,2,B|272:208,1,65
304,240,56849,2,2,B|352:304,1,65
400,288,57222,2,2,B|432:224,1,65
448,176,57595,1,2
384,96,57967,1,2
272,96,58340,6,2,B|272:16,1,65
224,32,58713,2,2,B|224:112,1,65
224,144,59085,1,2
160,224,59458,1,2
80,144,59831,1,4
16,224,60203,5,0
16,224,60576,1,0
16,336,60949,1,0
16,336,61135,2,0,B|112:384|224:336,1,195
304,320,62067,1,0
400,304,62440,1,0
464,112,63185,5,2
464,112,63558,1,2
368,64,63930,1,2
368,64,64117,2,2,B|256:64|240:160|176:144,1,195
96,160,65048,1,2
0,208,65421,1,2
160,336,66166,5,0
256,304,66539,1,0
352,272,66912,1,0
352,272,67098,2,0,B|368:336|464:352|480:240,1,195
496,144,68030,1,0
400,96,68402,1,0
224,208,69148,5,0
144,272,69520,1,0
64,336,69893,1,0
64,336,70079,2,0,B|0:240|48:144,1,195
112,64,71011,1,2
112,64,71384,1,4
160,64,71570,5,0
160,64,71756,1,0
160,64,71943,2,0,B|256:64|288:144,1,130
288,224,72688,2,0,B|352:288|432:272|496:192|480:144,1,260
480,96,73620,1,0
480,96,73992,1,0
336,48,74551,5,0
336,48,74738,1,0
240,48,75110,2,0,B|224:128|144:128,1,130
48,144,75856,2,0,B|48:304|160:304|224:304,1,260
384,336,77905,5,0
384,336,78092,1,0
448,256,78464,1,0
480,160,78837,2,0,B|504:112|506:46|459:4|377:21|314:107|292:199|180:186|150:68|121:4|14:24|0:99|29:172,1,650
48,208,80887,5,2
48,208,81073,1,2
96,304,81446,1,2
192,304,81818,1,2
192,304,82005,2,2,B|256:336|352:320|384:304,1,195
464,240,82936,1,2
464,128,83309,1,4
336,80,83682,6,0,B|272:32|192:96,3,130
160,96,84987,2,0,B|80:128|64:208|144:272,1,195
192,320,85918,1,0
256,240,86291,1,0
320,320,86664,6,0,B|384:272|464:336,3,130
480,288,87968,2,0,B|528:208|496:160|432:112,1,195
368,48,88900,1,2
304,128,89272,1,2
240,48,89645,6,0,B|144:48|128:128,3,130
112,160,90949,2,0,B|208:160|272:240|272:272,1,195
304,352,91881,1,0
192,352,92254,1,0
96,352,92626,6,0,B|16:352|0:256|96:224,1,195
192,240,93558,2,0,B|288:240|288:128|208:96,1,195
32,32,94862,1,2
144,32,95235,1,2
256,32,95607,6,0,B|384:32|448:112|432:224|304:256|240:224,1,390
208,224,96912,2,0,B|112:208|80:288|128:336|176:352,1,195
256,336,97843,1,0
352,336,98216,1,0
448,336,98589,6,0,B|512:224|480:112|352:64|256:96,1,390
224,112,99893,2,0,B|192:144|112:160|80:96|144:48,1,195
240,32,100825,1,2
336,32,101197,1,2
448,32,101570,6,0,B|496:160|432:256|288:256|224:144,1,390
192,128,102874,2,0,B|112:80|48:160|80:224,1,195
112,320,103806,1,2
208,352,104179,1,2
304,352,104551,6,0,B|432:352|432:224,1,195
432,128,105483,2,0,B|304:128|288:240,1,195
112,352,106787,1,2
112,240,107160,1,2
112,128,107533,1,4
336,64,119831,5,0
336,64,120203,1,0
432,192,120763,2,0,B|352:288|256:96|112:240,1,325
32,256,122067,5,2
32,256,122253,1,2
160,336,122812,1,2
160,336,122999,1,2
304,272,123558,1,2
304,272,123744,1,2
448,320,124303,1,2
448,320,124489,2,2,B|480:208|400:80|240:128,1,325
32,192,126166,5,0
112,256,126539,1,0
192,192,126912,1,0
272,256,127284,1,0
352,192,127657,1,0
432,256,128030,1,0
432,256,128216,2,0,B|512:160|400:80,1,195
256,32,129520,5,0
256,32,129707,1,0
256,192,130266,1,0
256,192,130452,2,0,B|256:336,1,130
416,320,131384,6,0,B|496:320,1,65
480,272,131756,2,0,B|400:272,1,65
416,224,132129,1,0
416,112,132502,1,0
320,112,132874,6,0,B|320:32,1,65
272,48,133247,2,0,B|272:128,1,65
272,160,133620,1,0
272,256,133992,6,0,B|240:336,1,65
192,320,134365,2,0,B|160:256,1,65
112,256,134738,2,0,B|64:320,1,65
32,352,135110,1,0
32,240,135483,1,0
32,128,135856,6,2,B|32:64|96:96,1,65
96,128,136228,2,2,B|96:176|144:176,1,65
176,176,136601,1,2
224,176,136787,1,2
272,176,136974,1,2
368,176,137346,6,2,B|368:224|432:224,1,65
464,224,137719,2,2,B|464:288|400:272,1,65
384,272,138092,1,2
336,272,138278,1,2
288,272,138464,1,2
176,272,138837,6,2,B|112:224,1,65
96,192,139210,2,2,B|160:128,1,65
176,112,139582,1,2
240,32,139955,6,2,B|320:64,1,65
352,80,140328,2,2,B|304:144,1,65
288,176,140700,2,2,B|368:224,1,65
384,240,141073,1,2
432,272,141259,1,2
480,304,141446,1,2
384,240,141818,6,2,B|336:288,1,65
304,320,142191,2,2,B|240:256,1,65
208,240,142564,1,2
160,208,142750,1,2
160,256,142936,1,2
256,208,143309,6,2,B|288:176|240:128,1,65
208,128,143682,2,2,B|192:96|240:48,1,65
256,32,144054,1,2
208,32,144241,1,2
160,32,144427,1,2
80,112,144800,6,2,B|32:192,1,65
32,208,145172,2,2,B|80:288,1,65
96,304,145545,1,2
256,192,145918,12,0,149272
176,304,156725,6,0,B|240:352|320:288,3,130
352,288,158030,2,0,B|432:256|448:176|368:112,1,195
320,64,158961,1,2
256,144,159334,1,2
192,64,159707,6,2,B|128:112|48:48,3,130
32,96,161011,2,2,B|-16:176|16:224|80:272,1,195
144,336,161943,1,2
208,256,162315,1,2
272,336,162688,6,0,B|368:336|384:256,3,130
400,224,163992,2,0,B|304:224|240:144|240:112,1,195
208,32,164924,1,0
320,32,165297,1,0
416,32,165669,6,0,B|496:32|512:128|416:160,1,195
320,144,166601,2,0,B|224:144|224:256|304:288,1,195
480,352,167905,1,2
368,352,168278,1,4
256,352,168651,6,0,B|96:352|64:224|144:112|272:144,1,390
304,144,169955,2,0,B|384:208|480:128|480:96,1,195
400,32,170887,1,2
352,48,171073,1,2
304,64,171259,1,2
208,32,171632,6,0,B|80:32|48:144|96:256|144:288|224:288,1,390
256,288,172936,2,0,B|320:288|384:240|368:144,1,195
352,48,173868,1,2
400,80,174054,1,2
448,112,174241,1,2
448,208,174613,6,2,B|448:288|368:304,3,130
320,304,175918,1,2
160,304,176477,1,2
80,240,176849,1,2
160,176,177222,1,2
256,176,177595,6,0,B|336:208|416:128|464:192,1,195
464,272,178526,2,0,B|368:320|320:240|272:288,1,195
64,288,179831,1,2
112,192,180203,1,2
160,96,180576,6,2,B|160:16|272:32,3,130
304,32,181881,1,2
304,192,182440,1,2
368,272,182812,1,2
432,192,183185,1,4
304,192,183558,6,0,B|208:192|224:304,3,130
224,320,184862,1,0
64,320,185421,1,0
32,224,185794,1,2
32,176,185980,1,2
32,128,186166,1,2
144,128,186539,6,0,B|144:272|304:320|400:208|368:112,1,390
352,80,187843,2,0,B|256:0|160:96,1,195
256,160,188775,1,2
256,272,189148,1,2
256,160,189520,6,4,B|256:16,3,130
256,30,191011,2,4,B|256:192,3,130
256,192,192502,12,4,195110
