osu file format v6

[General]
AudioFilename: Diverse-Unknown album_10_Track.mp3
AudioLeadIn: 0
PreviewTime: -1
Countdown: 1
SampleSet: Soft
StackLeniency: 0.7
Mode: 0
LetterboxInBreaks: 1

[Editor]
Bookmarks: 6169,7287,119835,156729
DistanceSpacing: 0.800000011920929
BeatDivisor: 4
GridSize: 16

[Metadata]
Title:Catch Me If You Can
Artist:Angela Via
Creator:Mifune24
Version:Insane
Source:
Tags:

[Difficulty]
HPDrainRate:7
CircleSize:5
OverallDifficulty:8
SliderMultiplier:1.8
SliderTickRate:1

[Events]
//Background and Video events
0,0,"buizel.jpg"
//Break Periods
2,107732,119081
2,147981,155975
//Storyboard Layer 0 (Background)
//Storyboard Layer 1 (Fail)
//Storyboard Layer 2 (Pass)
//Storyboard Layer 3 (Foreground)
//Storyboard Sound Samples
//Background Colour Transformations
3,100,163,162,255

[TimingPoints]
204,372.670807453416,4,2,0,100,1,0

[HitObjects]
192,352,6166,2,0,B|0:352|-48:176|0:48|128:32|208:48,1,540
272,48,7471,2,0,B|384:48|400:160,1,180
400,224,8030,1,2
352,272,8216,1,2
288,304,8402,1,2
224,288,8589,2,0,B|160:272|160:224,2,90
288,304,9148,6,0,B|496:352|544:128|480:64|368:16|240:64,1,540
176,80,10452,2,0,B|64:112|80:224,1,180
142,229,11011,1,2
206,262,11197,1,2
275,284,11384,1,2
275,212,11570,5,8
275,212,11756,1,8
275,212,11943,1,8
275,284,12129,6,0,B|272:352|448:352|499:268|483:124|435:60|261:31|259:156,1,540
208,208,13433,2,0,B|128:272|32:192,1,180
32,128,13992,1,0
64,64,14179,1,0
132,43,14365,2,0,B|219:13|316:46,1,180
380,57,14924,1,0
450,74,15110,6,0,B|546:74|530:186|434:170,1,180
378,171,15669,1,0
306,171,15856,1,0
240,176,16042,2,0,B|144:176|112:256|144:336|256:336,1,270
304,320,16787,1,2
368,288,16974,1,2
432,256,17160,1,2
368,224,17346,1,2
432,192,17533,1,2
368,160,17719,1,6
432,128,17905,1,4
368,96,18092,1,4
112,112,18464,5,0
112,256,18837,1,0
240,320,19210,1,0
240,320,19396,2,0,B|336:352|400:256,1,180
435,202,19955,1,0
472,140,20141,1,0
472,68,20328,1,0
400,96,20514,1,0
352,32,20700,1,0
320,96,20887,1,0
59,67,21446,5,0
59,210,21818,1,0
203,210,22191,1,0
203,210,22377,2,0,B|212:277|304:295|341:238,1,180
392,189,22936,1,0
443,138,23123,1,0
392,87,23309,2,0,B|305:12|208:186|43:77,1,360
50,226,24427,5,2
152,328,24800,1,2
296,328,25172,1,2
296,328,25359,2,2,B|382:324|410:222|397:187,1,180
400,131,25918,1,2
350,80,26104,1,2
299,131,26290,1,2
248,182,26477,1,2
197,131,26663,1,2
146,81,26849,1,2
95,132,27036,5,0
197,30,27408,1,0
299,132,27781,2,0,B|416:134|413:256,1,180
413,314,28340,1,0
350,349,28526,1,0
288,312,28713,1,0
225,347,28899,1,0
163,309,29085,1,0
100,344,29272,2,2,B|45:339|20:279,1,90
28,224,29644,2,2,B|69:197|119:254,1,90
148,177,30017,5,0
198,126,30203,1,0
250,177,30390,1,0
304,128,30576,2,0,B|400:128|448:208|448:256,1,180
464,288,31135,1,0
402,330,31322,2,0,B|308:382|202:323,1,180
165,304,31881,1,0
28,259,32253,1,0
80,208,32440,5,2
144,192,32626,1,2
233,192,32812,5,0
233,192,32999,1,0
377,192,33371,1,2
428,243,33558,1,2
479,192,33744,1,2
479,336,34117,1,2
479,336,34303,2,2,B|344:387|200:331,1,270
352,176,35235,5,2
304,224,35421,1,2
256,176,35607,1,2
208,224,35794,1,2
160,176,35980,1,2
112,224,36166,5,0
112,224,36353,1,0
32,112,36725,2,0,B|48:16|208:16|240:112,1,270
256,256,37657,1,0
320,288,37843,1,0
384,304,38030,1,0
448,288,38216,2,0,B|496:208|480:96|384:32|288:32,1,360
224,32,39148,5,2
224,32,39334,2,2,B|128:32|80:128,1,180
48,192,39893,1,0
16,256,40079,1,2
16,256,40266,2,2,B|128:320|176:208,1,180
192,160,40825,1,2
240,112,41011,1,2
304,112,41197,1,0
352,160,41384,1,0
368,224,41570,1,4
336,288,41756,1,4
320,352,41943,6,0,B|512:352|560:176|512:48|384:32|304:48,1,540
240,48,43247,2,0,B|128:48|112:160,1,180
112,224,43806,1,0
160,272,43992,1,0
224,304,44179,2,2,B|272:320|336:288,3,90
224,304,44924,6,0,B|16:352|-31:128|32:64|144:16|272:64,1,540
303,66,46228,2,0,B|399:98|399:194|399:210,1,180
412,276,46787,1,2
361,326,46974,1,2
310,275,47160,1,2
259,225,47346,5,8
259,225,47533,1,8
259,225,47719,1,8
237,284,47905,6,0,B|240:352|64:352|13:268|29:124|77:60|251:31|253:156,1,540
304,208,49210,2,0,B|384:272|480:192,1,180
480,128,49769,1,0
448,64,49955,1,0
384,32,50141,2,0,B|304:16|240:96|240:128,1,180
176,96,50700,1,0
112,64,50887,6,0,B|16:64|32:176|128:160,1,180
176,160,51446,1,0
240,160,51632,1,0
304,160,51818,2,0,B|448:152|448:313|256:288,1,270
240,272,52564,1,0
170,256,52750,1,0
101,237,52936,1,0
52,181,53123,2,2,B|20:133|68:69,1,90
113,60,53495,2,2,B|153:34|214:52,1,90
270,66,53868,6,0,B|356:111,1,90
320,173,54241,2,0,B|229:126,1,90
169,118,54613,1,0
118,169,54800,1,0
169,220,54986,1,0
240,240,55172,1,0
298,285,55359,6,0,B|389:340,1,90
426,281,55731,2,0,B|313:211,1,90
285,199,56104,1,0
224,160,56290,1,0
158,131,56477,6,2,B|104:46,1,90
38,55,56849,2,2,B|8:148,1,90
0,208,57222,1,2
48,272,57408,1,2
96,208,57595,1,2
144,272,57781,1,2
192,208,57967,1,2
144,144,58154,1,0
192,208,58340,6,0,B|256:288,1,90
320,304,58713,2,2,B|386:212,1,90
416,176,59085,1,4
368,112,59272,1,4
416,48,59458,2,4,B|192:48,1,180
32,256,60204,5,0
144,352,60576,1,0
288,352,60949,1,0
288,352,61135,2,0,B|368:352|432:240,1,180
448,176,61694,1,0
416,112,61881,1,0
384,176,62067,2,0,B|304:112|240:320|32:160,1,360
144,48,63185,5,2
256,144,63558,1,2
368,48,63930,1,2
368,48,64117,2,2,B|496:48|464:208,1,180
464,240,64676,1,2
432,304,64862,1,2
368,336,65048,2,2,B|288:272|224:400|16:288,1,360
16,224,65980,5,0
48,160,66166,1,0
176,208,66539,2,0,B|240:288|352:304|416:176,1,270
448,144,67284,1,0
480,80,67471,1,0
432,32,67657,1,0
368,32,67843,1,0
320,80,68030,2,0,B|256:176|176:32|32:128|16:208,1,360
80,336,69148,5,2
192,240,69520,1,2
288,336,69893,1,2
288,336,70079,2,2,B|400:336|400:192,1,180
416,144,70638,1,2
368,96,70825,1,2
320,144,71011,1,2
272,96,71197,1,2
224,144,71384,1,2
176,96,71570,1,2
224,48,71756,5,0
288,32,71943,1,0
352,32,72129,1,0
416,48,72315,2,0,B|512:80|496:192,1,180
480,256,72874,1,0
464,320,73061,2,0,B|368:368|272:320,1,180
224,288,73620,1,4
80,240,73992,1,4
48,176,74179,5,2
16,112,74365,1,2
80,80,74551,5,0
112,144,74738,1,0
224,240,75110,1,0
240,176,75297,1,0
256,112,75483,1,0
384,64,75856,1,0
384,64,76042,2,0,B|448:176|384:304|288:304,1,270
160,192,76974,5,2
208,144,77160,1,2
256,192,77346,1,2
304,144,77533,1,2
352,192,77719,1,2
400,144,77905,5,0
400,144,78092,1,0
400,288,78464,2,0,B|482:283|513:167|491:102|428:59,1,270
320,32,79396,1,0
258,69,79582,1,0
319,108,79769,1,0
257,145,79955,2,0,B|185:114|70:146|53:260|96:333|170:349,1,360
231,346,80887,5,2
231,346,81073,2,2,B|217:251|367:250,1,180
416,253,81632,1,2
480,256,81818,1,2
480,256,82005,2,2,B|481:138|370:138,1,180
303,138,82564,1,2
231,138,82750,1,2
161,155,82936,1,2
142,225,83123,1,2
205,259,83309,1,2
256,310,83495,1,4
192,352,83682,6,0,B|0:352|-48:176|0:48|128:32|208:48,1,540
272,48,84986,2,0,B|384:48|400:160,1,180
400,224,85545,1,2
352,272,85731,1,2
288,304,85918,1,2
288,304,86104,1,2
288,304,86290,1,2
288,304,86477,1,2
288,304,86663,6,0,B|496:352|544:128|480:64|368:16|240:64,1,540
208,65,87967,2,0,B|115:69|83:153|134:197,1,180
144,252,88526,1,2
205,290,88713,1,2
277,283,88899,1,2
275,212,89085,5,8
275,212,89272,1,8
275,212,89458,1,8
275,284,89644,6,0,B|272:352|448:352|499:268|483:124|435:60|261:31|259:156,1,540
208,208,90949,2,0,B|128:272|32:192,1,180
32,128,91508,1,0
64,64,91694,1,0
128,48,91881,2,0,B|224:16|336:48,1,180
384,48,92440,1,0
448,48,92626,6,0,B|544:48|528:160|432:144,1,180
376,145,93185,1,0
304,145,93371,1,0
232,145,93558,2,0,B|104:145|104:305|264:305,1,270
306,303,94303,1,2
378,303,94489,1,2
429,252,94676,1,2
448,192,94862,2,2,B|480:144|432:80,1,90
384,96,95235,2,2,B|413:157|369:199,1,90
308,158,95607,6,0,B|334:112|277:26|149:9|45:64|14:185|35:295|180:299,1,540
205,246,96912,2,0,B|258:194|353:215|364:297,1,180
408,321,97471,1,0
459,372,97657,1,0
475,301,97843,2,0,B|520:236|495:160|432:140,1,180
380,174,98402,1,0
382,244,98589,6,0,B|318:319|215:320|136:257|92:134|183:37|282:36|358:64,1,540
408,83,99893,2,0,B|468:109|484:196|432:263,1,180
411,301,100452,1,2
360,352,100638,1,2
290,367,100825,1,2
309,298,101011,5,8
309,298,101197,1,8
309,298,101384,1,8
290,367,101570,6,0,B|178:370|100:306|81:208|84:105|167:52|251:49|298:39,1,540
368,32,102874,2,0,B|448:32|496:112|464:192,1,180
448,224,103433,1,0
416,288,103620,1,0
368,336,103806,2,0,B|240:304|240:192,1,180
242,150,104365,1,0
242,78,104551,6,2,B|144:77|91:170,1,180
94,236,105110,1,2
196,338,105483,2,2,B|305:367|414:329|447:275,1,270
476,212,106228,1,2
454,143,106415,1,2
415,83,106601,2,4,B|377:49|326:42,1,90
284,94,106974,2,4,B|344:101|381:156,1,90
333,199,107346,2,4,B|309:158|252:164,1,90
197,340,119831,5,0
53,340,120203,1,0
53,123,120763,2,0,B|127:239|266:120|271:58|374:62|462:203,1,450
406,37,122067,5,0
406,37,122253,1,2
253,190,122812,1,2
253,190,122999,1,2
100,37,123558,1,2
100,37,123744,1,2
100,253,124303,1,2
100,253,124489,2,2,B|103:347|285:389|451:345|465:237,1,450
464,64,125980,5,0
416,128,126166,1,0
368,64,126353,1,0
320,128,126539,2,0,B|96:128,1,180
32,224,127284,1,0
144,320,127657,1,0
240,224,128030,1,0
240,224,128216,2,0,B|336:160|448:176|496:240,1,270
400,352,129520,5,0
400,352,129707,1,0
192,352,130266,1,0
192,352,130452,2,0,B|80:352|0:256|16:176,1,270
144,112,131384,6,0,B|192:32,1,90
256,32,131756,2,0,B|320:128,1,90
352,160,132129,1,0
400,224,132315,1,0
448,160,132502,1,0
496,224,132688,1,0
448,288,132874,6,0,B|368:368,1,90
320,352,133247,2,0,B|208:352,1,90
160,352,133620,1,0
128,288,133806,1,0
192,288,133992,6,2,B|288:288,1,90
288,208,134365,2,2,B|176:208,1,90
128,208,134738,1,2
64,160,134924,1,2
128,112,135110,1,2
192,160,135297,1,2
256,112,135483,1,2
192,64,135669,1,0
256,112,135856,6,2,B|256:48|352:48,1,90
384,48,136228,2,0,B|384:112|464:112,1,90
512,112,136601,1,2
464,176,136787,1,2
512,240,136974,1,2
464,304,137160,1,0
512,240,137346,6,2,B|400:240,1,90
352,240,137719,2,2,B|304:160,1,90
272,96,138092,1,2
208,48,138278,1,2
144,96,138464,1,2
80,48,138651,1,2
144,96,138837,6,0,B|96:208,1,90
96,256,139210,2,0,B|192:240,1,90
256,224,139582,1,2
208,160,139769,1,2
272,112,139955,6,2,B|320:64|384:112,1,90
336,160,140328,2,2,B|384:192|432:144,1,90
480,112,140700,1,2
480,192,140887,1,2
432,256,141073,1,2
384,320,141259,1,2
336,256,141446,1,2
384,192,141632,1,2
336,256,141818,6,2,B|256:336,1,90
224,256,142191,2,2,B|160:160,1,90
128,128,142564,1,2
80,192,142750,1,2
32,128,142936,1,2
80,64,143123,1,2
128,128,143309,6,0,B|176:176|240:176,1,90
272,160,143682,2,2,B|240:112|304:80,1,90
352,48,144054,1,2
416,80,144241,1,2
352,128,144427,1,2
416,160,144613,1,0
368,208,144800,6,0,B|320:224|288:288,1,90
272,336,145172,2,0,B|208:336|176:272,1,90
144,256,145545,1,2
256,192,145918,12,0,147781
192,352,156725,6,2,B|0:352|-48:176|0:48|128:32|208:48,1,540
272,48,158030,2,2,B|384:48|384:176,1,180
368,240,158589,1,2
320,288,158775,1,2
256,320,158961,1,2
224,256,159148,1,2
240,192,159334,1,2
304,224,159520,1,2
368,240,159707,6,2,B|432:144|320:16|144:16|64:96|32:144|48:224,1,540
48,288,161011,2,2,B|80:336|176:352|224:336,1,180
288,336,161570,1,2
352,304,161756,1,2
352,240,161943,1,2
288,240,162129,5,8
288,240,162315,1,8
288,240,162502,1,8
352,240,162688,6,0,B|457:219|498:112|412:16|289:-1|187:52|156:149|251:242,1,540
242,285,163992,2,0,B|162:301|98:237|114:173,1,180
112,128,164551,1,0
160,80,164738,1,0
224,48,164924,2,0,B|320:16|400:80,1,180
428,133,165483,1,0
428,204,165669,6,0,B|431:265|347:310|286:303,1,180
224,304,166228,1,0
160,272,166415,1,0
112,224,166601,2,0,B|112:144|160:96|240:64|304:80,1,270
368,80,167346,1,0
432,112,167533,1,0
464,176,167719,2,2,B|496:224|480:272,1,90
416,288,168092,2,2,B|432:240|384:192,1,90
336,160,168464,1,2
336,224,168651,6,0,B|320:288|224:320|176:272,3,180
144,224,169955,2,0,B|144:176|64:128|16:176|0:208,1,180
16,272,170514,1,0
16,272,170700,1,0
16,272,170887,2,0,B|16:336|144:352|176:288,1,180
224,256,171446,1,0
256,192,171632,2,0,B|256:128|368:96|400:144,3,180
448,192,172936,2,0,B|480:240|432:304|384:320|336:288,1,180
288,272,173495,1,2
224,240,173682,1,2
192,176,173868,1,2
256,176,174054,6,4,B|304:128|240:80,2,90
192,176,174613,2,0,B|144:128|64:160|48:224,3,180
32,288,175918,2,0,B|16:336|96:368|144:352|160:288,1,180
192,240,176477,1,0
240,192,176663,1,0
288,240,176849,2,0,B|384:288|448:176,1,180
464,128,177408,1,0
416,64,177595,2,0,B|336:16|240:48,1,180
176,64,178154,2,0,B|96:96|32:208|96:320|224:368|320:304,1,450
368,288,179272,1,0
416,240,179458,1,0
352,208,179644,2,0,B|288:240|192:224|176:128|304:64,1,270
337,43,180390,1,0
400,80,180576,6,2,B|496:128|464:256,3,180
432,288,181881,1,0
368,320,182067,2,0,B|272:368,1,90
240,304,182440,2,0,B|352:240,1,90
384,240,182812,1,0
416,176,182999,1,0
384,112,183185,1,0
320,64,183371,1,0
256,64,183558,6,2,B|144:48|96:160,3,180
160,192,184862,1,0
224,160,185048,2,2,B|272:160|304:208,1,90
288,272,185421,2,2,B|256:224|208:224,1,90
160,192,185794,1,4
96,208,185980,1,4
144,256,186166,1,4
192,304,186353,1,4
256,336,186539,6,0,B|352:336|400:240,3,180
399,172,187843,1,0
384,96,188030,2,0,B|304:32,1,90
240,48,188402,2,0,B|144:112,1,90
112,144,188775,1,0
48,192,188961,1,0
112,240,189148,1,0
176,192,189334,1,0
240,240,189520,2,0,B|320:288,1,90
384,320,189893,2,0,B|464:240,1,90
480,192,190266,2,0,B|432:112,1,90
384,64,190638,2,0,B|288:64,1,90
256,128,191011,5,2
192,160,191197,1,2
160,224,191384,1,4
192,288,191570,1,4
256,320,191756,1,4
320,288,191943,1,4
352,224,192129,1,4
320,160,192315,1,4
256,192,192502,12,4,195110
