osu file format v5

[General]
AudioFilename: Yu Yan(Fable).mp3
AudioLeadIn: 0
PreviewTime: -1
Countdown: 1
SampleSet: Soft
StackLeniency: 0.7
Mode: 0
LetterboxInBreaks: 1

[Metadata]
Title:Yu Yan(Fable)
Artist:Angela Chang
Creator:dipsy
Version:Easy
Source:
Tags:

[Difficulty]
HPDrainRate:3
CircleSize:3
OverallDifficulty:3
SliderMultiplier:0.7
SliderTickRate:2

[Events]
//Background and Video events
0,0,"2004068622879723410_rs.jpg"
//Break Periods
//Storyboard Layer 0 (Background)
//Storyboard Layer 1 (Failing)
//Storyboard Layer 2 (Passing)
//Storyboard Layer 3 (Foreground)
//Storyboard Sound Samples
//Background Colour Transformations
3,100,0,0,0

[TimingPoints]
24785,600,4,2,0,100,1
72783,-100,4,1,0,100,0

[Colours]
Combo1 : 0,0,128
Combo2 : 0,128,192
Combo3 : 0,255,255
Combo4 : 255,128,0

[HitObjects]
86,67,24784,2,0,B|167:68,1,70
212,65,25985,2,8,B|293:66,1,70
338,67,27185,2,0,B|419:68,1,70
427,120,28385,2,8,B|427:198,1,70
431,245,29585,2,0,B|431:323,1,70
375,322,30785,2,8,B|295:321,1,70
256,192,31985,12,0,33780
139,185,34385,5,2
167,232,34985,1,0
196,279,35585,1,0
228,324,36185,1,0
284,324,36785,5,0
314,277,37385,1,0
348,232,37985,1,0
379,184,38585,1,0
408,136,39185,6,0,B|409:56,1,70
352,62,40385,2,0,B|267:61,1,70
225,61,41585,2,0,B|145:60,1,70
98,59,42785,2,0,B|97:146,1,70
60,171,43985,5,0
84,221,44585,2,0,B|168:223,1,70
183,174,45785,1,0
211,222,46385,2,0,B|330:223,1,70
308,173,47585,1,0
342,217,48185,1,0
397,215,48785,6,0,B|478:217,3,70
425,179,51185,6,0,B|503:180,3,70
466,131,53585,5,0
440,81,54185,1,0
412,129,54785,1,0
385,79,55385,1,0
344,117,55985,2,0,B|259:116,1,70
255,169,57185,2,0,B|162:169,1,70
142,132,58385,5,0
96,164,58985,1,0
141,197,59585,1,0
98,233,60185,1,0
139,270,60785,1,0
99,309,61385,1,0
144,341,61985,1,0
99,375,62585,1,0
143,341,63185,6,0,B|210:284,1,70
248,274,64385,2,0,B|319:225,1,70
354,206,65585,2,0,B|435:151,1,70
459,136,66785,2,0,B|523:92,1,70
256,192,67985,12,0,72185
152,196,72785,5,0
183,149,73385,1,0
216,103,73985,1,0
255,62,74585,1,0
292,105,75185,1,0
328,147,75785,1,0
363,190,76385,1,0
447,263,77585,6,0,B|352:267,1,70
321,267,78785,1,0
264,267,79385,1,0
208,268,79985,1,0
152,269,80585,2,0,B|56:271,1,70
184,224,82385,6,0,B|260:223,6,70
256,192,86585,12,0,89585
