osu file format v5

[General]
AudioFilename: Aurora.mp3
AudioLeadIn: 0
PreviewTime: -1
Countdown: 1
SampleSet: Soft
StackLeniency: 0.7
Mode: 0

[Metadata]
Title:Aurora
Artist:Angela Chang
Creator:dipsy
Version:Normal

[Difficulty]
HPDrainRate:5
CircleSize:5
OverallDifficulty:5
SliderMultiplier:2.1
SliderTickRate:4

[Events]
//Background and Video events
//Break Periods
2,87262,103170
//Storyboard Layer 0 (Background)
//Storyboard Layer 1 (Failing)
//Storyboard Layer 2 (Passing)
//Storyboard Layer 3 (Foreground)
//Storyboard Sound Samples
//Background Colour Transformations
3,100,163,162,255

[TimingPoints]
2640,706.464146944543,4,2,0,100

[Colours]
Combo1 : 0,0,255
Combo2 : 255,0,0
Combo3 : 255,128,0
Combo4 : 255,255,0
Combo5 : 0,255,0

[HitObjects]
80,56,36550,5,0
160,56,36903,5,0
240,56,37256,5,0
320,56,37609,5,0
400,56,37963,5,0
400,136,38316,5,0
400,216,38669,5,4
272,320,39376,6,0,B|320:272|376:328,2,105
184,312,40435,6,0,B|120:352|40:288,1,105
104,232,41142,6,0,B|176:256|240:232,1,105
288,240,41848,5,4
368,240,42201,5,0
440,192,42555,5,0
408,112,42908,6,0,B|472:144|528:120,1,105
456,64,43614,5,0
368,56,43968,5,0
280,64,44321,6,0,B|232:160|272:296,1,210
320,328,45381,6,0,B|272:384|200:312,2,105
312,240,46440,6,0,B|264:296|192:224,3,105
136,272,47853,6,4,B|80:384|216:488|400:240,1,420
488,336,49973,6,0,B|592:256|520:128,1,210
424,88,51209,5,0
296,88,51739,6,4,B|240:88,2,52.5
208,88,52445,5,4
208,168,52798,6,4,B|248:216|208:264,2,105
376,176,54211,5,0
504,288,54918,6,0,B|552:248|512:192,2,105
336,320,56331,6,0,B|288:288,3,52.5
184,224,57390,6,4,B|120:256|184:344,3,105
192,144,59157,5,2
272,144,59510,5,2
232,216,59863,6,0,B|336:304|456:248,1,210
384,184,60923,6,0,B|437:229|501:213,1,105
456,104,61982,6,0,B|440:40|368:40,1,105
344,112,62689,6,0,B|328:48|256:48,1,105
184,48,63395,5,4
96,48,63749,5,4
96,128,64102,5,4
96,208,64455,5,4
176,208,64808,5,2
256,208,65162,5,2
336,208,65515,5,2
440,336,66221,5,4
352,336,66575,5,4
264,336,66928,5,4
96,336,67634,6,0,B|56:280|104:232,1,105
264,224,68694,5,0
344,224,69047,6,0,B|304:168|352:120,1,105
264,160,69754,6,0,B|224:104|272:56,1,105
184,40,70460,5,2
184,120,70813,5,2
264,96,71167,6,2,B|384:96|416:232,1,210
296,336,72579,6,0,B|152:328|88:208,1,210
80,168,73639,6,0,B|128:120|184:128,1,105
200,208,74346,6,0,B|267:170|347:186,1,105
368,136,75052,5,0
376,48,75405,5,0
288,48,75759,5,0
200,48,76112,5,2
112,48,76465,5,2
56,112,76818,5,2
64,280,77525,5,4
144,280,77878,5,4
224,280,78231,5,4
392,272,78938,6,0,B|296:240|328:192,1,105
240,224,79644,6,0,B|144:192|176:144,1,105
80,152,80351,6,0,B|-16:120|16:72,1,105
88,80,81057,6,0,B|120:-16|168:16,1,105
88,88,81763,6,4,B|120:-8|168:24,1,105
232,32,82470,6,0,B|336:-16|448:32|520:128|496:128,3,315
480,208,86002,5,4
392,208,86356,5,4
304,208,86709,5,4
216,208,87062,5,4
304,136,104370,5,0
352,200,104723,5,0
304,272,105076,5,0
216,272,105429,5,0
168,200,105783,5,0
224,136,106136,5,0
264,200,106489,5,0
384,88,107196,6,4,B|432:40|488:96,2,105
448,136,108255,5,0
400,200,108609,5,0
312,200,108962,5,0
312,280,109315,5,0
224,280,109668,5,0
136,272,110021,5,2
72,208,110375,5,2
152,192,110728,6,2,B|216:224|272:200,1,105
232,288,111435,5,0
312,312,111788,5,0
392,336,112141,6,0,B|440:240|400:104,1,210
320,112,113201,6,0,B|272:168|200:96,2,105
312,192,114260,6,4,B|264:248|192:176,3,105
296,160,115674,6,0,B|240:112|272:64|344:48|400:48|448:112|432:192|344:216|312:304,1,420
232,320,117439,5,0
144,304,117793,6,0,B|248:224|176:96,1,210
312,128,119029,5,0
416,64,119559,6,0,B|360:64,2,52.5
448,144,120265,5,0
432,224,120618,6,4,B|472:272|432:320,2,105
280,304,122031,5,0
112,336,122738,6,0,B|160:296|120:240,2,105
48,280,123798,6,0,B|-2:221,5,52.5
112,160,125210,6,0,B|48:192|112:280,3,105
192,112,126977,5,2
272,112,127330,5,2
352,128,127683,6,0,B|248:216|128:160,1,210
168,256,128743,6,0,B|115:301|51:285,1,105
88,120,129802,6,0,B|104:56|176:56,1,105
224,112,130509,6,0,B|240:48|312:48,1,105
384,56,131215,5,0
392,136,131569,5,0
368,216,131922,5,0
320,280,132275,5,0
232,288,132628,5,2
144,296,132982,5,2
64,256,133335,5,2
80,88,134041,5,4
160,88,134395,5,4
240,88,134748,5,4
408,96,135454,6,0,B|448:40|400:-8,1,105
240,24,136514,5,0
160,40,136867,6,0,B|120:96|168:144,1,105
240,136,137574,6,0,B|280:80|232:32,1,105
320,40,138280,5,2
400,40,138633,5,2
368,120,138987,6,0,B|248:120|216:256,1,210
232,312,140399,6,0,B|376:304|440:184,1,210
408,136,141459,6,0,B|360:88|304:96,1,105
232,88,142166,6,0,B|165:50|85:66,1,105
48,72,142872,5,0
48,152,143225,5,0
48,232,143579,5,0
128,232,143932,5,2
208,232,144285,5,2
288,232,144638,5,2
456,232,145345,5,4
456,144,145698,5,4
456,56,146051,5,4
448,224,146758,6,0,B|544:192|512:144,1,105
432,160,147464,6,0,B|504:128|472:80,1,105
392,96,148171,6,0,B|488:64|456:16,1,105
384,88,148877,6,0,B|352:-8|304:24,1,105
232,24,149584,6,2,B|112:24,1,105
120,104,150291,6,2,B|1:104,1,105
16,184,150997,5,4
96,184,151350,5,4
176,184,151703,5,4
176,352,152410,5,0
256,352,152763,5,0
336,352,153116,5,0
416,352,153470,5,0
400,272,153823,6,4,B|296:320|176:264,1,210
264,184,155236,5,0
264,184,155942,5,0
264,184,156649,5,0
264,184,157002,5,0
264,184,157355,5,0
320,344,158062,6,0,B|256:344,1,52.5
408,312,159121,5,0
408,224,159475,5,0
408,136,159828,5,0
408,48,160181,5,0
248,80,160887,5,2
248,80,161594,5,2
248,80,162300,5,4
248,80,162654,5,4
248,80,163007,5,4
80,112,163713,5,2
16,168,164067,5,2
80,224,164420,5,2
144,168,164773,5,2
208,224,165126,5,2
272,176,165479,5,2
208,120,165833,5,2
256,192,166539,12,4,170778
