osu file format v12

[General]
AudioFilename: Angela - Aurora.mp3
AudioLeadIn: 0
PreviewTime: 59210
Countdown: 0
SampleSet: Normal
StackLeniency: 0.7
Mode: 0
LetterboxInBreaks: 0
WidescreenStoryboard: 0

[Editor]
DistanceSpacing: 0.8
BeatDivisor: 4
GridSize: 4
TimelineZoom: 1

[Metadata]
Title:Aurora
TitleUnicode:歐若拉
Artist:Angela Chang
ArtistUnicode:張韶涵
Creator:Pasha_Khvan97
Version:Easy
Source:
Tags:-Bakari- zhang shao han
BeatmapID:397975
BeatmapSetID:162578

[Difficulty]
HPDrainRate:1
CircleSize:2
OverallDifficulty:1
ApproachRate:2
SliderMultiplier:1.4
SliderTickRate:2

[Events]
//Background and Video events
0,0,"BG.jpg",0,0
//Break Periods
//Storyboard Layer 0 (Background)
//Storyboard Layer 1 (Fail)
//Storyboard Layer 2 (Pass)
//Storyboard Layer 3 (Foreground)
//Storyboard Sound Samples
//Background Colour Transformations
3,100,163,162,255

[TimingPoints]
2700,706.380974805745,4,1,1,50,1,0
36606,-100,4,2,0,60,0,0
47908,-100,4,1,1,40,0,0
59210,-100,4,2,0,60,0,1
59387,-100,4,1,1,60,0,1
81814,-100,4,2,0,70,0,0
84640,-100,4,2,0,50,0,0

[Colours]
Combo1 : 248,129,147
Combo2 : 151,255,151
Combo3 : 140,192,255

[HitObjects]
360,260,14002,6,0,P|324:316|248:336,1,140,4|8,0:0|0:0,0:0:0:0:
260,224,15414,2,0,P|300:168|384:148,1,140,2|8,0:0|0:0,0:0:0:0:
420,48,16827,5,4,0:0:0:0:
308,36,17534,1,8,0:0:0:0:
196,52,18240,1,2,0:0:0:0:
108,120,18946,1,8,0:0:0:0:
92,232,19653,6,0,P|152:200|248:216,1,140,4|8,0:0|0:0,0:0:0:0:
304,280,21065,2,0,P|244:312|148:296,2,140,2|8|4,0:0|0:0|0:0,0:0:0:0:
392,208,23185,5,8,0:0:0:0:
476,132,23891,2,0,P|412:96|332:112,1,140,2|8,0:0|0:0,0:0:0:0:
276,188,25304,6,0,P|248:251|186:278,1,140,4|8,0:0|0:0,0:0:0:0:
160,168,26716,2,0,P|187:105|250:78,1,140,2|8,0:0|0:0,0:0:0:0:
360,52,28129,5,4,0:0:0:0:
452,116,28836,1,8,0:0:0:0:
412,220,29542,1,2,0:0:0:0:
304,244,30248,2,0,P|228:228|200:160,1,140,8|4,0:0|0:0,0:0:0:0:
220,68,31661,5,8,0:0:0:0:
328,40,32368,2,0,P|404:56|432:124,1,140,2|8,0:0|0:0,0:0:0:0:
396,212,33780,6,0,P|328:188|256:228,1,140,4|8,0:0|0:0,0:0:0:0:
176,276,35193,1,2,0:0:0:0:
160,164,35899,1,8,0:0:0:0:
252,100,36606,6,0,L|320:160,2,70,2|2|10,0:0|0:0|0:0,0:0:0:0:
168,176,38019,2,0,L|100:236,2,70,2|2|10,0:0|0:0|0:0,0:0:0:0:
260,240,39431,5,2,0:0:0:0:
356,184,40138,1,10,0:0:0:0:
460,136,40844,2,0,P|408:84|328:76,1,140,2|10,0:0|0:0,0:0:0:0:
244,120,42257,6,0,P|296:172|380:176,1,140,2|10,0:0|0:0,0:0:0:0:
472,172,43670,1,2,0:0:0:0:
460,284,44376,1,10,0:0:0:0:
352,316,45082,6,0,P|283:326|216:307,1,140,2|10,0:0|0:0,0:0:0:0:
108,272,46495,2,0,L|36:340,2,70,2|2|10,0:0|0:0|0:0,0:0:0:0:
192,200,47908,6,0,P|261:202|323:172,1,140,4|8,0:0|0:0,0:0:0:0:
380,76,49321,2,0,L|306:23,2,70,2|2|10,0:0|0:0|0:0,0:0:0:0:
476,136,50733,5,2,0:0:0:0:
416,232,51440,1,10,0:0:0:0:
352,324,52146,2,0,P|432:340|500:316,2,140,2|10|4,0:0|0:0|0:0,0:0:0:0:
280,236,54265,5,10,0:0:0:0:
276,124,54972,2,0,P|364:148|384:220,1,140,2|10,0:0|0:0,0:0:0:0:
280,236,56384,6,0,P|216:228|176:173,1,140,2|10,0:0|0:0,0:0:0:0:
88,96,57797,1,4,0:0:0:0:
32,192,58504,1,8,0:0:0:0:
100,280,59210,6,0,P|124:228|212:184,1,140,4|8,0:0|0:0,0:0:0:0:
288,128,60623,2,0,L|248:68,2,70,0|0|8,0:0|0:0|0:0,0:0:0:0:
356,220,62036,5,0,0:0:0:0:
280,304,62742,1,8,0:0:0:0:
168,308,63448,1,0,0:0:0:0:
72,248,64155,2,0,L|16:304,2,70,8|0|4,0:0|0:0|0:0,0:0:0:0:
136,156,65567,5,8,0:0:0:0:
216,76,66274,2,0,L|136:20,2,70,0|0|8,0:0|0:0|0:0,0:0:0:0:
328,96,67687,6,0,P|304:148|208:180,1,140,0|8,0:0|0:0,0:0:0:0:
148,256,69099,2,0,P|211:281|246:340,1,140,0|8,0:0|0:0,0:0:0:0:
348,292,70512,5,4,0:0:0:0:
412,200,71218,1,8,0:0:0:0:
444,92,71925,2,0,L|516:116,2,70,0|0|8,0:0|0:0|0:0,0:0:0:0:
332,92,73338,6,0,P|252:120|172:96,1,140,2|8,0:0|0:0,0:0:0:0:
116,40,74750,1,0,0:0:0:0:
28,108,75457,1,8,0:0:0:0:
40,220,76163,6,0,L|104:288,2,70,4|0|8,0:0|0:0|0:0,0:0:0:0:
116,136,77576,2,0,L|52:68,2,70,0|0|8,0:0|0:0|0:0,0:0:0:0:
236,140,78989,6,0,P|320:168|348:240,1,140,0|8,0:0|0:0,0:0:0:0:
240,248,80401,2,0,P|192:308|128:312,1,140,0|8,0:0|0:0,0:0:0:0:
256,192,81814,12,4,84640,0:0:0:0:
