osu file format v4

[General]
AudioFilename: Yumemitai Angel-tai.mp3
AudioLeadIn: 0
AudioHash: 2c2d3c5f5770c4ce1e3cc9eea2f3323c
PreviewTime: -1
Countdown: 1
SampleSet: Normal

[Metadata]
Title:Yumemitai Angel
Artist:Angel Tai
Creator:Homestarrunner
Version:Easy

[Difficulty]
HPDrainRate:4
CircleSize:4
OverallDifficulty:3
SliderMultiplier: 1.2
SliderTickRate: 2

[Events]
//Background and Video events
1,0,"cvt_Yumemeitai Angel.avi"
//Break Periods
//Storyboard Layer 0 (Background)
//Storyboard Layer 1 (Failing)
//Storyboard Layer 2 (Passing)
//Storyboard Layer 3 (Foreground)
//Storyboard Sound Samples
//Background Colour Transformations
3,100,163,162,255

[TimingPoints]
22340,397.152361194593,4,1,0,100

[HitObjects]
256,112,31889,1,0
256,280,32683,1,0
112,288,33281,1,0
144,48,34274,1,0
336,72,35068,5,0
432,240,35863,1,0
264,336,36657,1,0
248,144,37451,1,0
248,144,37848,1,0
56,136,38643,5,0
280,64,39636,1,0
424,192,40430,2,0,B|424:192|232:320,1,180
120,184,41820,5,0
288,88,42614,1,0
416,192,43210,5,0
336,280,43706,1,0
168,104,44712,5,0
320,64,45374,1,0
408,176,45970,1,0
184,304,46983,1,0
112,128,47777,5,0
304,104,48572,1,0
184,184,49167,1,0
192,328,49763,1,0
272,272,50160,5,0
272,272,50557,1,0
312,80,51352,5,0
88,168,52345,1,0
216,304,53139,2,0,B|216:304|384:288,1,120
376,152,54132,1,0
192,96,54926,5,0
216,240,55522,5,0
352,288,56117,1,0
64,280,57309,5,0
200,144,58103,5,0
296,144,58500,1,0
296,336,59295,1,0
200,336,59692,1,0
72,272,60288,2,0,B|72:272|56:56,1,180
152,80,61280,1,0
248,80,61678,1,0
440,56,62472,5,0
360,112,62869,1,0
464,208,63465,2,0,B|464:208|248:352,1,240
240,200,64855,1,0
96,216,65451,1,0
136,128,65848,1,0
376,96,66841,5,0
392,288,67635,1,0
248,248,68231,1,0
272,104,68826,1,0
72,304,70018,5,0
72,112,70812,1,0
200,176,71408,1,0
280,120,71805,6,0,B|280:120|280:216,1,60
24,56,73195,5,0
104,232,73989,1,0
256,256,74585,1,0
416,152,75379,1,0
272,160,75975,1,0
304,72,76372,5,0
448,56,76968,1,0
392,240,77762,1,0
320,176,78159,5,0
176,152,78755,1,0
240,328,79549,5,0
352,240,80145,1,0
344,144,80542,1,0
104,152,81535,5,0
104,152,81932,1,0
104,152,82330,1,0
184,104,82727,5,0
328,96,83322,1,0
456,160,83918,1,0
328,320,84779,5,0
56,288,85904,5,0
152,184,86500,1,0
208,104,86897,1,0
320,192,87492,1,0
168,304,88287,1,0
168,208,88684,1,0
72,232,89081,5,0
40,88,89677,1,0
193,49,90273,1,0
336,56,90868,6,0,B|336:56|360:96,1,60
296,168,91464,1,0
104,136,92258,5,0
200,304,93053,1,0
40,200,93847,1,0
232,224,94641,1,0
392,120,95436,5,0
312,296,96230,1,0
216,184,96826,5,0
424,64,97818,1,0
280,64,98414,5,0
248,304,99407,1,0
120,232,100003,5,0
360,208,100996,1,0
80,136,102187,5,0
88,232,102584,1,0
216,288,103180,1,0
328,200,103776,1,0
248,144,104173,1,0
56,104,104967,5,0
56,248,105563,1,0
152,256,105960,2,0,B|152:256|296:256,1,120
376,96,107152,1,0
