osu file format v4

[General]
AudioFilename: Galaxy Angel - Horoscope Rhapsody (TV Size).mp3
AudioLeadIn: 0
AudioHash: 3aa945b48377b45b957c590a26002678
PreviewTime: -1
SampleSet: Soft

[Metadata]
Title:Galaxy Angel - Horoscope Rhapsody
Artist:Angel Tai
Creator:Homestarrunner
Version:Easy

[Difficulty]
HPDrainRate:2
CircleSize:3
OverallDifficulty:2
SliderMultiplier: 0.8
SliderTickRate: 1

[Events]
1,0,"Horoscope Rhapsody Video.avi"
3,0,163,162,255

[TimingPoints]
806,631.578947368421,4,2,0

[HitObjects]
256,88,884,1,0,
256,192,2069,1,0,
256,336,3174,1,0,
104,192,4595,1,0,
120,96,5858,2,0,C|120:96|360:96,1,240
376,176,8463,2,0,C|376:176|128:176,1,240
136,248,10990,2,0,C|136:248|368:248,1,226.666666666667
256,296,13437,1,0,
256,56,15174,1,0,
176,128,15963,5,0,
208,312,17069,1,0,
288,192,18332,1,0,
88,112,19595,1,0,
88,216,21016,1,0,
256,304,22279,1,0,
376,192,23542,1,0,
248,192,24884,2,0,C|248:192|248:112,1,80
128,96,26148,5,0,
120,264,27411,1,0,
264,296,28595,1,0,
376,240,29858,1,0,
224,136,31121,1,0,
120,184,32384,2,0,C|120:184|120:256,1,66.6666666666667
120,328,33727,2,0,C|120:328|192:328,1,66.6666666666667
280,344,34990,2,0,C|280:344|280:240,1,93.3333333333333
376,184,36806,5,0,
288,120,37437,1,0,
200,168,37911,1,0,
288,320,38779,2,0,C|288:320|128:320,1,160
104,208,41621,5,0,
184,96,42569,1,0,
344,128,43516,1,0,
320,320,45016,2,0,C|320:320|232:320,2,80
208,136,47542,5,0,
320,144,48253,1,0,
208,264,49911,1,0,
240,200,51963,5,0,
144,152,52911,1,0,
272,152,53937,1,0,
272,152,54569,1,0,
160,232,55516,1,0,
264,80,56779,6,0,C|264:80|360:216,1,160
256,344,58990,1,0,
144,240,60253,1,0,
256,80,62148,5,0,
256,192,63174,1,0,
264,304,63963,1,0,
264,304,64437,1,0,
176,200,65227,1,0,
176,200,65621,1,0,
368,128,66884,6,0,C|368:128|200:104,1,160
72,184,69490,2,0,C|72:184|280:312,1,240
256,192,72806,5,0,
256,88,74148,1,0,
256,88,74858,1,0,
296,208,75727,2,0,C|296:208|208:208,1,80
256,192,77227,12,0,84569
