osu file format v12

[General]
AudioFilename: angelbeatsichibannotakaramonoMusic.mp3
AudioLeadIn: 0
PreviewTime: -1
Countdown: 1
SampleSet: Normal
StackLeniency: 0.7
Mode: 3
LetterboxInBreaks: 1
SpecialStyle: 0
WidescreenStoryboard: 0

[Editor]
DistanceSpacing: 1.2
BeatDivisor: 6
GridSize: 32
TimelineZoom: 1

[Metadata]
Title:Theme Songs (Piano Ver.)
TitleUnicode:Theme Songs (Piano Ver.)
Artist:Angel Beats!
ArtistUnicode:Angel Beats!
Creator:Irho Ttamo
Version:Theme of SSS 7k
Source:Angel Beats!
Tags:Jun Maeda Key P.A. Works Visual Art Aniplex na-ga anant-garde eyes BakaDuck fugu-chan Ichigo's Sheet Music
BeatmapID:426042
BeatmapSetID:176453

[Difficulty]
HPDrainRate:8
CircleSize:7
OverallDifficulty:8
ApproachRate:5
SliderMultiplier:1.4
SliderTickRate:1

[Events]
//Background and Video events
0,0,"ab13.png",0,0
//Break Periods
//Storyboard Layer 0 (Background)
//Storyboard Layer 1 (Fail)
//Storyboard Layer 2 (Pass)
//Storyboard Layer 3 (Foreground)
//Storyboard Sound Samples
//Background Colour Transformations
3,100,163,162,255

[TimingPoints]
0,365.853658536585,4,1,0,100,1,0
26497,306.122448979592,4,1,0,100,1,1
46088,-100,4,1,0,100,0,0
75527,-100,4,1,0,100,0,1
95068,-100,4,1,0,100,0,0

[HitObjects]
402,192,3109,5,0,0:0:0:100:F#5.ogg
329,192,3109,1,0,0:0:0:100:D#5.ogg
36,192,3109,128,0,4573:0:0:0:100:D#4.ogg
402,192,3475,1,0,0:0:0:100:G#5.ogg
475,192,3841,128,0,4939:0:0:0:100:A#5.ogg
256,192,4573,128,0,6036:0:0:0:100:C#4.ogg
402,192,4939,1,0,0:0:0:100:F#6.ogg
402,192,5304,1,0,0:0:0:100:F6.ogg
329,192,5670,1,0,0:0:0:100:A#5.ogg
182,192,6036,128,0,7499:0:0:0:100:B3.ogg
402,192,6036,1,0,0:0:0:100:G#5.ogg
329,192,6036,1,0,0:0:0:100:D#5.ogg
475,192,6402,128,0,7134:0:0:0:100:A#5.ogg
402,192,7134,1,0,0:0:0:100:F#5.ogg
109,192,7499,128,0,8963:0:0:0:100:A#3.ogg
329,192,7499,1,0,0:0:0:100:C#5.ogg
402,192,7499,1,0,0:0:0:100:G#5.ogg
475,192,7865,128,0,8597:0:0:0:100:A#5.ogg
329,192,8597,1,0,0:0:0:100:D#5.ogg
402,192,8780,1,0,0:0:0:100:F5.ogg
329,192,8963,128,0,9695:0:0:0:100:B4.ogg
475,192,8963,128,0,9695:0:0:0:100:F#5.ogg
36,192,8963,128,0,10426:0:0:0:100:G#3.ogg
402,192,9695,1,0,0:0:0:100:F5.ogg
475,192,10060,1,0,0:0:0:100:F#5.ogg
475,192,10426,128,0,11524:0:0:0:100:G#5.ogg
109,192,10426,128,0,11890:0:0:0:100:A#3.ogg
329,192,10426,128,0,11524:0:0:0:100:C#5.ogg
402,192,11524,1,0,0:0:0:100:F#5.ogg
329,192,11890,128,0,12987:0:0:0:100:D#5.ogg
182,192,11890,128,0,13353:0:0:0:100:C4.ogg
475,192,11890,128,0,12987:0:0:0:100:G#5.ogg
402,192,12987,1,0,0:0:0:100:A#5.ogg
329,192,13353,128,0,14573:0:0:0:100:F5.ogg
256,192,13353,128,0,14573:0:0:0:100:D4.ogg
475,192,13353,128,0,14573:0:0:0:100:A#5.ogg
109,192,14817,1,0,0:0:0:100:D#3.ogg
329,192,14817,1,0,0:0:0:100:D#5.ogg
402,192,14817,1,0,0:0:0:100:F#5.ogg
182,192,15182,1,0,0:0:0:100:A#3.ogg
402,192,15182,1,0,0:0:0:100:G#5.ogg
475,192,15548,128,0,16646:0:0:0:100:A#5.ogg
36,192,15548,128,0,16280:0:0:0:100:D#4.ogg
109,192,16280,1,0,0:0:0:100:C#3.ogg
402,192,16646,1,0,0:0:0:100:F#6.ogg
182,192,16646,1,0,0:0:0:100:A#3.ogg
329,192,17012,1,0,0:0:0:100:F6.ogg
256,192,17012,128,0,17743:0:0:0:100:D#4.ogg
329,192,17378,1,0,0:0:0:100:A#5.ogg
402,192,17743,1,0,0:0:0:100:G#5.ogg
329,192,17743,1,0,0:0:0:100:D#5.ogg
109,192,17743,1,0,0:0:0:100:B2.ogg
402,192,18109,128,0,18841:0:0:0:100:A#5.ogg
182,192,18109,1,0,0:0:0:100:F#3.ogg
256,192,18475,128,0,19207:0:0:0:100:B3.ogg
329,192,18841,1,0,0:0:0:100:F#5.ogg
402,192,19207,1,0,0:0:0:100:G#5.ogg
329,192,19207,1,0,0:0:0:100:C#5.ogg
36,192,19207,1,0,0:0:0:100:A#2.ogg
475,192,19573,128,0,20304:0:0:0:100:A#5.ogg
182,192,19573,1,0,0:0:0:100:F#3.ogg
256,192,19939,128,0,20670:0:0:0:100:G#3.ogg
329,192,20304,1,0,0:0:0:100:D#5.ogg
402,192,20487,1,0,0:0:0:100:F5.ogg
475,192,20670,128,0,21402:0:0:0:100:F#5.ogg
329,192,20670,128,0,21402:0:0:0:100:B4.ogg
36,192,20670,1,0,0:0:0:100:G#2.ogg
109,192,21036,1,0,0:0:0:100:F#3.ogg
402,192,21402,1,0,0:0:0:100:F5.ogg
182,192,21402,128,0,22134:0:0:0:100:B3.ogg
475,192,21768,1,0,0:0:0:100:F#5.ogg
475,192,22134,128,0,22682:0:0:0:100:G#5.ogg
329,192,22134,128,0,22682:0:0:0:100:C#5.ogg
36,192,22134,1,0,0:0:0:100:A#2.ogg
182,192,22499,1,0,0:0:0:100:G#3.ogg
475,192,22865,128,0,23597:0:0:0:100:F5.ogg
402,192,22865,128,0,23597:0:0:0:100:C#5.ogg
256,192,22865,1,0,0:0:0:100:C#4.ogg
182,192,23231,1,0,0:0:0:100:G#3.ogg
329,192,23597,128,0,24329:0:0:0:100:D#5.ogg
36,192,23597,1,0,0:0:0:100:B2.ogg
109,192,23963,1,0,0:0:0:100:F#3.ogg
402,192,24329,1,0,0:0:0:100:D#4.ogg
182,192,24329,128,0,25060:0:0:0:100:A#3.ogg
329,192,24695,1,0,0:0:0:100:A#4.ogg
402,192,25060,128,0,26548:0:0:0:100:G#4.ogg
36,192,25060,1,0,0:0:0:100:C#3.ogg
109,192,25426,1,0,0:0:0:100:G#3.ogg
182,192,25792,128,0,26548:0:0:0:100:C#4.ogg
475,192,26548,1,0,0:0:0:100:F#5.ogg
329,192,26548,1,0,0:0:0:100:D#5.ogg
256,192,26548,1,0,0:0:0:100:A#3.ogg
109,192,26548,1,0,0:0:0:100:D#3.ogg
256,192,26701,1,0,0:0:0:100:A#3.ogg
109,192,26701,1,0,0:0:0:100:D#3.ogg
402,192,26854,1,0,0:0:0:100:G#5.ogg
329,192,26854,1,0,0:0:0:100:F5.ogg
256,192,26854,1,0,0:0:0:100:A#3.ogg
109,192,26854,1,0,0:0:0:100:D#3.ogg
475,192,27160,128,0,27772:0:0:0:100:A#5.ogg
329,192,27160,128,0,27772:0:0:0:100:D#5.ogg
256,192,27313,1,0,0:0:0:100:A#3.ogg
109,192,27313,1,0,0:0:0:100:D#3.ogg
182,192,27772,1,0,0:0:0:100:F#3.ogg
36,192,27772,1,0,0:0:0:100:D#2.ogg
36,192,27925,1,0,0:0:0:100:D#2.ogg
182,192,27925,1,0,0:0:0:100:F#3.ogg
182,192,28078,1,0,0:0:0:100:F#3.ogg
36,192,28078,1,0,0:0:0:100:D#2.ogg
475,192,28078,1,0,0:0:0:100:F#6.ogg
402,192,28078,1,0,0:0:0:100:D#6.ogg
475,192,28384,1,0,0:0:0:100:F6.ogg
329,192,28384,1,0,0:0:0:100:G#5.ogg
36,192,28537,1,0,0:0:0:100:D#2.ogg
182,192,28537,1,0,0:0:0:100:F#3.ogg
329,192,28690,1,0,0:0:0:100:F#5.ogg
402,192,28690,1,0,0:0:0:100:A#5.ogg
329,192,28997,1,0,0:0:0:100:F5.ogg
402,192,28997,1,0,0:0:0:100:G#5.ogg
109,192,28997,1,0,0:0:0:100:C#3.ogg
256,192,28997,1,0,0:0:0:100:A#3.ogg
109,192,29150,1,0,0:0:0:100:C#3.ogg
256,192,29150,1,0,0:0:0:100:A#3.ogg
329,192,29303,128,0,29762:0:0:0:100:F5.ogg
256,192,29303,1,0,0:0:0:100:A#3.ogg
109,192,29303,1,0,0:0:0:100:C#3.ogg
475,192,29303,128,0,29762:0:0:0:100:A#5.ogg
256,192,29762,1,0,0:0:0:100:A#3.ogg
109,192,29762,1,0,0:0:0:100:C#3.ogg
329,192,29915,1,0,0:0:0:100:C#5.ogg
402,192,29915,1,0,0:0:0:100:F#5.ogg
256,192,30221,1,0,0:0:0:100:A#3.ogg
109,192,30221,1,0,0:0:0:100:C#3.ogg
402,192,30221,1,0,0:0:0:100:G#5.ogg
256,192,30374,1,0,0:0:0:100:A#3.ogg
109,192,30374,1,0,0:0:0:100:C#3.ogg
475,192,30527,128,0,30833:0:0:0:100:A#5.ogg
256,192,30527,1,0,0:0:0:100:A#3.ogg
109,192,30527,1,0,0:0:0:100:C#3.ogg
402,192,30527,128,0,30833:0:0:0:100:F#5.ogg
256,192,30833,1,0,0:0:0:100:A#3.ogg
109,192,30833,1,0,0:0:0:100:C#3.ogg
329,192,31139,1,0,0:0:0:100:D#5.ogg
402,192,31292,1,0,0:0:0:100:F5.ogg
329,192,31292,1,0,0:0:0:100:C#5.ogg
475,192,31445,128,0,31905:0:0:0:100:F#5.ogg
402,192,31445,128,0,31905:0:0:0:100:B4.ogg
109,192,31445,1,0,0:0:0:100:D#3.ogg
109,192,31599,1,0,0:0:0:100:D#3.ogg
109,192,31752,1,0,0:0:0:100:D#3.ogg
329,192,32058,1,0,0:0:0:100:C#5.ogg
402,192,32058,1,0,0:0:0:100:F5.ogg
109,192,32211,1,0,0:0:0:100:D#3.ogg
475,192,32364,1,0,0:0:0:100:F#5.ogg
329,192,32364,1,0,0:0:0:100:C#5.ogg
36,192,32670,1,0,0:0:0:100:B2.ogg
109,192,32670,1,0,0:0:0:100:D#3.ogg
329,192,32670,128,0,33435:0:0:0:100:D#5.ogg
475,192,32670,128,0,33435:0:0:0:100:F#5.ogg
36,192,33129,1,0,0:0:0:100:B2.ogg
109,192,33129,1,0,0:0:0:100:D#3.ogg
329,192,33588,1,0,0:0:0:100:D#5.ogg
402,192,33588,1,0,0:0:0:100:F#5.ogg
36,192,33588,1,0,0:0:0:100:B2.ogg
109,192,33588,1,0,0:0:0:100:D#3.ogg
475,192,33894,128,0,34660:0:0:0:100:G#5.ogg
329,192,33894,128,0,34660:0:0:0:100:C#5.ogg
109,192,34048,1,0,0:0:0:100:C#3.ogg
256,192,34048,1,0,0:0:0:100:A#3.ogg
109,192,34507,1,0,0:0:0:100:C#3.ogg
256,192,34507,1,0,0:0:0:100:A#3.ogg
475,192,34813,1,0,0:0:0:100:A#5.ogg
402,192,34813,1,0,0:0:0:100:C#5.ogg
109,192,34966,1,0,0:0:0:100:C#3.ogg
256,192,34966,1,0,0:0:0:100:A#3.ogg
36,192,35119,1,0,0:0:0:100:C#3.ogg
182,192,35119,1,0,0:0:0:100:A#3.ogg
402,192,35119,128,0,36190:0:0:0:100:D#5.ogg
475,192,35119,128,0,36190:0:0:0:100:A#5.ogg
182,192,35272,1,0,0:0:0:100:A#3.ogg
36,192,35272,1,0,0:0:0:100:C#3.ogg
182,192,35425,1,0,0:0:0:100:A#3.ogg
36,192,35425,1,0,0:0:0:100:C#3.ogg
182,192,35731,1,0,0:0:0:100:A#3.ogg
36,192,35731,1,0,0:0:0:100:C#3.ogg
36,192,36037,1,0,0:0:0:100:C#3.ogg
182,192,36037,1,0,0:0:0:100:A#3.ogg
256,192,36343,1,0,0:0:0:100:A#3.ogg
182,192,36343,1,0,0:0:0:100:F#3.ogg
109,192,36343,1,0,0:0:0:100:D#3.ogg
329,192,36343,1,0,0:0:0:100:D#5.ogg
402,192,36343,1,0,0:0:0:100:F#5.ogg
109,192,36497,1,0,0:0:0:100:D#3.ogg
182,192,36497,1,0,0:0:0:100:F#3.ogg
256,192,36497,1,0,0:0:0:100:A#3.ogg
109,192,36650,1,0,0:0:0:100:D#3.ogg
182,192,36650,1,0,0:0:0:100:F#3.ogg
256,192,36650,1,0,0:0:0:100:A#3.ogg
329,192,36650,1,0,0:0:0:100:F5.ogg
475,192,36650,1,0,0:0:0:100:G#5.ogg
475,192,36956,128,0,37721:0:0:0:100:A#5.ogg
402,192,36956,128,0,37721:0:0:0:100:D#5.ogg
109,192,37109,1,0,0:0:0:100:D#3.ogg
182,192,37109,1,0,0:0:0:100:F#3.ogg
256,192,37109,1,0,0:0:0:100:A#3.ogg
36,192,37568,1,0,0:0:0:100:B2.ogg
182,192,37568,1,0,0:0:0:100:F#3.ogg
256,192,37568,1,0,0:0:0:100:A#3.ogg
36,192,37721,1,0,0:0:0:100:B2.ogg
256,192,37722,1,0,0:0:0:100:A#3.ogg
182,192,37722,1,0,0:0:0:100:F#3.ogg
36,192,37874,1,0,0:0:0:100:B2.ogg
475,192,37874,1,0,0:0:0:100:A#6.ogg
402,192,37874,1,0,0:0:0:100:D#6.ogg
182,192,37875,1,0,0:0:0:100:F#3.ogg
256,192,37875,1,0,0:0:0:100:A#3.ogg
475,192,38180,1,0,0:0:0:100:F6.ogg
329,192,38180,1,0,0:0:0:100:G#5.ogg
36,192,38333,1,0,0:0:0:100:B2.ogg
256,192,38334,1,0,0:0:0:100:A#3.ogg
182,192,38334,1,0,0:0:0:100:F#3.ogg
329,192,38486,1,0,0:0:0:100:F#5.ogg
402,192,38486,1,0,0:0:0:100:A#5.ogg
256,192,38792,1,0,0:0:0:100:A#3.ogg
109,192,38792,1,0,0:0:0:100:F3.ogg
36,192,38792,1,0,0:0:0:100:C#3.ogg
402,192,38792,1,0,0:0:0:100:F5.ogg
475,192,38792,1,0,0:0:0:100:G#5.ogg
36,192,38945,1,0,0:0:0:100:C#3.ogg
109,192,38945,1,0,0:0:0:100:F3.ogg
256,192,38946,1,0,0:0:0:100:A#3.ogg
36,192,39098,1,0,0:0:0:100:C#3.ogg
256,192,39099,1,0,0:0:0:100:A#3.ogg
109,192,39099,1,0,0:0:0:100:F3.ogg
475,192,39099,128,0,39558:0:0:0:100:A#5.ogg
402,192,39099,128,0,39558:0:0:0:100:F5.ogg
36,192,39557,1,0,0:0:0:100:C#3.ogg
109,192,39558,1,0,0:0:0:100:F3.ogg
256,192,39558,1,0,0:0:0:100:A#3.ogg
329,192,39711,1,0,0:0:0:100:C#5.ogg
402,192,39711,1,0,0:0:0:100:F#5.ogg
109,192,40017,1,0,0:0:0:100:D#3.ogg
182,192,40017,1,0,0:0:0:100:F#3.ogg
256,192,40017,1,0,0:0:0:100:A#3.ogg
402,192,40017,1,0,0:0:0:100:G#5.ogg
109,192,40171,1,0,0:0:0:100:D#3.ogg
256,192,40171,1,0,0:0:0:100:A#3.ogg
182,192,40171,1,0,0:0:0:100:F#3.ogg
475,192,40323,128,0,40782:0:0:0:100:A#5.ogg
329,192,40323,128,0,40782:0:0:0:100:F#5.ogg
182,192,40324,1,0,0:0:0:100:F#3.ogg
109,192,40324,1,0,0:0:0:100:D#3.ogg
256,192,40324,1,0,0:0:0:100:A#3.ogg
256,192,40783,1,0,0:0:0:100:A#3.ogg
182,192,40783,1,0,0:0:0:100:F#3.ogg
109,192,40783,1,0,0:0:0:100:D#3.ogg
329,192,40935,1,0,0:0:0:100:D#5.ogg
329,192,41088,1,0,0:0:0:100:C#5.ogg
402,192,41088,1,0,0:0:0:100:F5.ogg
475,192,41241,128,0,41701:0:0:0:100:F#5.ogg
402,192,41241,128,0,41701:0:0:0:100:B4.ogg
256,192,41241,1,0,0:0:0:100:A#3.ogg
109,192,41241,1,0,0:0:0:100:D#3.ogg
256,192,41394,1,0,0:0:0:100:A#3.ogg
109,192,41394,1,0,0:0:0:100:D#3.ogg
256,192,41548,1,0,0:0:0:100:A#3.ogg
109,192,41548,1,0,0:0:0:100:D#3.ogg
329,192,41854,1,0,0:0:0:100:C#5.ogg
402,192,41854,1,0,0:0:0:100:F5.ogg
256,192,42007,1,0,0:0:0:100:A#3.ogg
109,192,42007,1,0,0:0:0:100:D#3.ogg
475,192,42160,1,0,0:0:0:100:F#5.ogg
329,192,42160,1,0,0:0:0:100:C#5.ogg
256,192,42466,1,0,0:0:0:100:A#3.ogg
36,192,42466,1,0,0:0:0:100:B2.ogg
109,192,42466,1,0,0:0:0:100:D#3.ogg
329,192,42466,128,0,43231:0:0:0:100:B4.ogg
475,192,42466,128,0,43231:0:0:0:100:G#5.ogg
109,192,42925,1,0,0:0:0:100:D#3.ogg
36,192,42925,1,0,0:0:0:100:B2.ogg
256,192,42925,1,0,0:0:0:100:A#3.ogg
36,192,43384,1,0,0:0:0:100:B2.ogg
256,192,43384,1,0,0:0:0:100:A#3.ogg
109,192,43384,1,0,0:0:0:100:D#3.ogg
329,192,43384,1,0,0:0:0:100:D#5.ogg
402,192,43384,1,0,0:0:0:100:F#5.ogg
402,192,43690,128,0,44150:0:0:0:100:C#5.ogg
475,192,43690,128,0,44150:0:0:0:100:G#5.ogg
182,192,43843,1,0,0:0:0:100:F3.ogg
109,192,43843,1,0,0:0:0:100:C#3.ogg
256,192,43843,1,0,0:0:0:100:A#3.ogg
475,192,44303,128,0,44762:0:0:0:100:F5.ogg
329,192,44303,128,0,44762:0:0:0:100:G#4.ogg
256,192,44303,1,0,0:0:0:100:A#3.ogg
109,192,44303,1,0,0:0:0:100:C#3.ogg
182,192,44303,1,0,0:0:0:100:F3.ogg
256,192,44762,1,0,0:0:0:100:A#3.ogg
182,192,44762,1,0,0:0:0:100:F3.ogg
109,192,44915,1,0,0:0:0:100:D#3.ogg
256,192,44915,1,0,0:0:0:100:A#3.ogg
402,192,44915,128,0,45986:0:0:0:100:D#5.ogg
329,192,44915,128,0,45986:0:0:0:100:A#4.ogg
256,192,45068,1,0,0:0:0:100:A#3.ogg
109,192,45068,1,0,0:0:0:100:D#3.ogg
256,192,45221,1,0,0:0:0:100:A#3.ogg
109,192,45221,1,0,0:0:0:100:D#3.ogg
109,192,45527,1,0,0:0:0:100:D#3.ogg
256,192,45527,1,0,0:0:0:100:A#3.ogg
256,192,45833,1,0,0:0:0:100:A#3.ogg
36,192,45833,1,0,0:0:0:100:B2.ogg
109,192,45833,1,0,0:0:0:100:D#3.ogg
329,192,46139,1,0,0:0:0:100:A#5.ogg
109,192,46139,128,0,48282:0:0:0:100:D#3.ogg
36,192,46139,128,0,48282:0:0:0:100:A#2.ogg
182,192,46139,1,0,0:0:0:100:F#3.ogg
329,192,46445,1,0,0:0:0:100:A#5.ogg
475,192,46445,1,0,0:0:0:100:F#6.ogg
182,192,46445,1,0,0:0:0:100:G#3.ogg
329,192,46752,1,0,0:0:0:100:A#5.ogg
475,192,46752,1,0,0:0:0:100:F6.ogg
256,192,46752,128,0,47364:0:0:0:100:A#3.ogg
329,192,46905,1,0,0:0:0:100:A#5.ogg
402,192,46905,1,0,0:0:0:100:C#6.ogg
329,192,47211,128,0,47364:0:0:0:100:A#5.ogg
475,192,47211,128,0,47364:0:0:0:100:D#6.ogg
329,192,47517,1,0,0:0:0:100:F#5.ogg
402,192,47517,1,0,0:0:0:100:A#5.ogg
256,192,47670,1,0,0:0:0:100:F#4.ogg
329,192,47823,1,0,0:0:0:100:F#5.ogg
475,192,47823,1,0,0:0:0:100:C#6.ogg
256,192,47976,1,0,0:0:0:100:F4.ogg
402,192,47976,1,0,0:0:0:100:G#5.ogg
182,192,48282,1,0,0:0:0:100:A#3.ogg
475,192,48282,1,0,0:0:0:100:A#5.ogg
402,192,48282,1,0,0:0:0:100:F#5.ogg
182,192,48588,1,0,0:0:0:100:G#3.ogg
109,192,48588,128,0,50731:0:0:0:100:D#3.ogg
36,192,48588,128,0,50731:0:0:0:100:A#2.ogg
475,192,48588,1,0,0:0:0:100:F#6.ogg
329,192,48588,1,0,0:0:0:100:G#5.ogg
475,192,48741,1,0,0:0:0:100:F6.ogg
329,192,48741,1,0,0:0:0:100:G#5.ogg
256,192,48894,128,0,49354:0:0:0:100:A#3.ogg
402,192,49048,1,0,0:0:0:100:C#6.ogg
329,192,49048,1,0,0:0:0:100:G#5.ogg
329,192,49201,1,0,0:0:0:100:G#5.ogg
402,192,49201,1,0,0:0:0:100:D#6.ogg
182,192,49507,1,0,0:0:0:100:F#3.ogg
329,192,49507,1,0,0:0:0:100:A#5.ogg
329,192,49660,128,0,49813:0:0:0:100:G#5.ogg
402,192,49660,128,0,49813:0:0:0:100:C#6.ogg
182,192,49813,1,0,0:0:0:100:G#3.ogg
329,192,49966,1,0,0:0:0:100:G#5.ogg
402,192,50119,1,0,0:0:0:100:A#5.ogg
256,192,50119,128,0,50731:0:0:0:100:A#3.ogg
329,192,50425,1,0,0:0:0:100:A#5.ogg
402,192,50425,1,0,0:0:0:100:C#6.ogg
329,192,50731,1,0,0:0:0:100:A#5.ogg
475,192,50731,1,0,0:0:0:100:F#6.ogg
182,192,50731,1,0,0:0:0:100:F#3.ogg
256,192,50884,1,0,0:0:0:100:F3.ogg
36,192,51037,128,0,53180:0:0:0:100:G#2.ogg
109,192,51037,128,0,53180:0:0:0:100:D#3.ogg
256,192,51037,128,0,51497:0:0:0:100:F#3.ogg
475,192,51037,1,0,0:0:0:100:F6.ogg
329,192,51037,1,0,0:0:0:100:F#5.ogg
402,192,51190,1,0,0:0:0:100:C#6.ogg
329,192,51190,1,0,0:0:0:100:F#5.ogg
329,192,51497,1,0,0:0:0:100:F#5.ogg
475,192,51497,1,0,0:0:0:100:D#6.ogg
182,192,51650,1,0,0:0:0:100:F3.ogg
329,192,51650,1,0,0:0:0:100:F#5.ogg
402,192,51650,1,0,0:0:0:100:A#5.ogg
256,192,51956,1,0,0:0:0:100:F#3.ogg
329,192,51956,1,0,0:0:0:100:F#5.ogg
475,192,51956,1,0,0:0:0:100:C#6.ogg
402,192,52109,128,0,52262:0:0:0:100:G#5.ogg
256,192,52262,128,0,52874:0:0:0:100:G#3.ogg
475,192,52415,1,0,0:0:0:100:A#5.ogg
329,192,52415,1,0,0:0:0:100:D#5.ogg
329,192,52568,1,0,0:0:0:100:D#5.ogg
329,192,52874,1,0,0:0:0:100:D#5.ogg
402,192,52874,1,0,0:0:0:100:G#5.ogg
329,192,53180,1,0,0:0:0:100:D#5.ogg
475,192,53180,1,0,0:0:0:100:C#6.ogg
182,192,53180,1,0,0:0:0:100:F#3.ogg
36,192,53486,128,0,55629:0:0:0:100:G#2.ogg
109,192,53486,128,0,55629:0:0:0:100:D#3.ogg
182,192,53486,128,0,54099:0:0:0:100:G#3.ogg
329,192,53486,1,0,0:0:0:100:C#5.ogg
475,192,53486,1,0,0:0:0:100:A#5.ogg
329,192,53792,1,0,0:0:0:100:D#5.ogg
329,192,54099,1,0,0:0:0:100:C#5.ogg
475,192,54099,1,0,0:0:0:100:G#5.ogg
256,192,54405,1,0,0:0:0:100:A#3.ogg
329,192,54558,128,0,54711:0:0:0:100:B4.ogg
475,192,54558,128,0,54711:0:0:0:100:A#5.ogg
256,192,54711,128,0,55629:0:0:0:100:A#3.ogg
329,192,54864,1,0,0:0:0:100:B4.ogg
402,192,54864,1,0,0:0:0:100:D#5.ogg
402,192,55170,1,0,0:0:0:100:G#5.ogg
402,192,55323,1,0,0:0:0:100:F#5.ogg
475,192,55323,1,0,0:0:0:100:A#5.ogg
329,192,55629,1,0,0:0:0:100:F#5.ogg
475,192,55629,1,0,0:0:0:100:F#6.ogg
36,192,55935,128,0,58078:0:0:0:100:D#2.ogg
109,192,55935,128,0,58078:0:0:0:100:D#3.ogg
182,192,55935,1,0,0:0:0:100:F#3.ogg
329,192,55935,1,0,0:0:0:100:F#5.ogg
475,192,55935,1,0,0:0:0:100:F6.ogg
182,192,56241,1,0,0:0:0:100:G#3.ogg
329,192,56241,1,0,0:0:0:100:F#5.ogg
402,192,56241,1,0,0:0:0:100:C#6.ogg
256,192,56548,128,0,57160:0:0:0:100:A#3.ogg
329,192,56548,1,0,0:0:0:100:F#5.ogg
475,192,56548,1,0,0:0:0:100:D#6.ogg
329,192,56701,1,0,0:0:0:100:F#5.ogg
402,192,56701,1,0,0:0:0:100:A#5.ogg
329,192,57007,128,0,57160:0:0:0:100:F#5.ogg
475,192,57007,128,0,57160:0:0:0:100:C#6.ogg
329,192,57313,1,0,0:0:0:100:F5.ogg
402,192,57313,1,0,0:0:0:100:G#5.ogg
256,192,57466,1,0,0:0:0:100:F#4.ogg
329,192,57619,1,0,0:0:0:100:F5.ogg
475,192,57619,1,0,0:0:0:100:C6.ogg
256,192,57772,1,0,0:0:0:100:F4.ogg
329,192,57772,1,0,0:0:0:100:F5.ogg
402,192,57772,1,0,0:0:0:100:G#5.ogg
182,192,58078,1,0,0:0:0:100:A#3.ogg
329,192,58078,1,0,0:0:0:100:F5.ogg
402,192,58078,1,0,0:0:0:100:A#5.ogg
109,192,58384,128,0,60527:0:0:0:100:D#3.ogg
36,192,58384,128,0,60527:0:0:0:100:D#2.ogg
182,192,58384,1,0,0:0:0:100:G#3.ogg
329,192,58384,1,0,0:0:0:100:D#5.ogg
256,192,58690,128,0,59150:0:0:0:100:A#3.ogg
329,192,58690,1,0,0:0:0:100:F#5.ogg
402,192,58690,1,0,0:0:0:100:A#5.ogg
329,192,58997,1,0,0:0:0:100:A#5.ogg
475,192,58997,1,0,0:0:0:100:F#6.ogg
329,192,59150,1,0,0:0:0:100:A#5.ogg
475,192,59150,1,0,0:0:0:100:F6.ogg
182,192,59303,1,0,0:0:0:100:F#3.ogg
329,192,59456,128,0,59609:0:0:0:100:A#5.ogg
402,192,59456,128,0,59609:0:0:0:100:C#6.ogg
182,192,59609,1,0,0:0:0:100:G#3.ogg
329,192,59762,1,0,0:0:0:100:F#5.ogg
475,192,59762,1,0,0:0:0:100:D#6.ogg
256,192,59915,128,0,60527:0:0:0:100:A#3.ogg
329,192,60068,1,0,0:0:0:100:F#5.ogg
402,192,60068,1,0,0:0:0:100:A#5.ogg
329,192,60221,1,0,0:0:0:100:F#5.ogg
475,192,60221,1,0,0:0:0:100:C#6.ogg
402,192,60527,1,0,0:0:0:100:G#5.ogg
182,192,60527,1,0,0:0:0:100:D#3.ogg
182,192,60680,1,0,0:0:0:100:F3.ogg
36,192,60833,1,0,0:0:0:100:D#3.ogg
256,192,60833,128,0,61292:0:0:0:100:F#3.ogg
475,192,60833,1,0,0:0:0:100:F#6.ogg
402,192,60833,1,0,0:0:0:100:D#6.ogg
36,192,60986,1,0,0:0:0:100:D#3.ogg
36,192,61139,1,0,0:0:0:100:D#3.ogg
475,192,61139,1,0,0:0:0:100:F#6.ogg
402,192,61139,1,0,0:0:0:100:D#6.ogg
182,192,61445,1,0,0:0:0:100:F3.ogg
109,192,61599,1,0,0:0:0:100:D#3.ogg
402,192,61599,1,0,0:0:0:100:D#6.ogg
475,192,61599,1,0,0:0:0:100:F#6.ogg
182,192,61752,1,0,0:0:0:100:F#3.ogg
329,192,62058,1,0,0:0:0:100:B5.ogg
475,192,62058,1,0,0:0:0:100:F#6.ogg
256,192,62058,128,0,62517:0:0:0:100:F#3.ogg
36,192,62058,1,0,0:0:0:100:G#2.ogg
475,192,62211,1,0,0:0:0:100:F#6.ogg
329,192,62211,1,0,0:0:0:100:B5.ogg
36,192,62211,1,0,0:0:0:100:G#2.ogg
329,192,62364,1,0,0:0:0:100:B5.ogg
475,192,62364,1,0,0:0:0:100:F#6.ogg
36,192,62364,1,0,0:0:0:100:G#2.ogg
182,192,62670,1,0,0:0:0:100:F3.ogg
475,192,62823,1,0,0:0:0:100:F#6.ogg
329,192,62823,1,0,0:0:0:100:B5.ogg
109,192,62824,1,0,0:0:0:100:G#2.ogg
182,192,62977,1,0,0:0:0:100:F#3.ogg
182,192,63282,128,0,63741:0:0:0:100:G#3.ogg
36,192,63282,1,0,0:0:0:100:C#3.ogg
475,192,63282,1,0,0:0:0:100:G#6.ogg
402,192,63282,1,0,0:0:0:100:C#6.ogg
36,192,63435,1,0,0:0:0:100:C#3.ogg
36,192,63588,1,0,0:0:0:100:C#3.ogg
475,192,63588,1,0,0:0:0:100:G#6.ogg
402,192,63588,1,0,0:0:0:100:C#6.ogg
256,192,63894,128,0,64354:0:0:0:100:F3.ogg
36,192,64048,1,0,0:0:0:100:C#3.ogg
402,192,64048,1,0,0:0:0:100:C#6.ogg
475,192,64048,1,0,0:0:0:100:F6.ogg
182,192,64507,128,0,65578:0:0:0:100:D#3.ogg
36,192,64507,1,0,0:0:0:100:D#2.ogg
475,192,64507,1,0,0:0:0:100:D#5.ogg
36,192,64660,1,0,0:0:0:100:D#2.ogg
475,192,64660,1,0,0:0:0:100:D#5.ogg
36,192,64813,1,0,0:0:0:100:D#2.ogg
475,192,64813,1,0,0:0:0:100:D#5.ogg
475,192,65272,1,0,0:0:0:100:D#5.ogg
36,192,65273,1,0,0:0:0:100:D#2.ogg
109,192,65731,128,0,66650:0:0:0:100:F2.ogg
402,192,65731,1,0,0:0:0:100:G#5.ogg
329,192,65884,1,0,0:0:0:100:D#5.ogg
402,192,66037,1,0,0:0:0:100:A#5.ogg
475,192,66190,1,0,0:0:0:100:C6.ogg
475,192,66343,128,0,67109:0:0:0:100:C6.ogg
256,192,66803,1,0,0:0:0:100:G#3.ogg
182,192,66956,128,0,67874:0:0:0:100:C#3.ogg
36,192,66956,128,0,67874:0:0:0:100:C#2.ogg
475,192,67262,1,0,0:0:0:100:G#6.ogg
329,192,67262,1,0,0:0:0:100:C5.ogg
402,192,67568,1,0,0:0:0:100:G6.ogg
329,192,67568,1,0,0:0:0:100:A#4.ogg
402,192,67874,1,0,0:0:0:100:C6.ogg
329,192,68027,1,0,0:0:0:100:G#5.ogg
256,192,68027,1,0,0:0:0:100:G#3.ogg
182,192,68180,128,0,69098:0:0:0:100:D#3.ogg
36,192,68180,128,0,69099:0:0:0:100:D#2.ogg
402,192,68180,1,0,0:0:0:100:A#5.ogg
475,192,68486,128,0,69099:0:0:0:100:C6.ogg
329,192,68486,1,0,0:0:0:100:G#4.ogg
402,192,68792,1,0,0:0:0:100:G4.ogg
402,192,69099,1,0,0:0:0:100:G#5.ogg
256,192,69252,1,0,0:0:0:100:G3.ogg
329,192,69252,1,0,0:0:0:100:D#5.ogg
402,192,69405,1,0,0:0:0:100:G#5.ogg
182,192,69405,128,0,70170:0:0:0:100:D#3.ogg
36,192,69405,128,0,70170:0:0:0:100:G#2.ogg
475,192,69711,128,0,70170:0:0:0:100:C6.ogg
402,192,69711,128,0,70170:0:0:0:100:G#5.ogg
329,192,69711,128,0,70170:0:0:0:100:C5.ogg
402,192,70323,1,0,0:0:0:100:F5.ogg
109,192,70323,1,0,0:0:0:100:D#2.ogg
402,192,70476,1,0,0:0:0:100:D#5.ogg
475,192,70476,1,0,0:0:0:100:G5.ogg
256,192,70476,1,0,0:0:0:100:F3.ogg
36,192,70629,128,0,71548:0:0:0:100:F2.ogg
182,192,70629,128,0,71548:0:0:0:100:C3.ogg
329,192,70629,1,0,0:0:0:100:G#4.ogg
402,192,70629,1,0,0:0:0:100:C5.ogg
329,192,70782,1,0,0:0:0:100:G#4.ogg
329,192,70935,1,0,0:0:0:100:C5.ogg
402,192,71088,1,0,0:0:0:100:D#5.ogg
402,192,71241,1,0,0:0:0:100:G5.ogg
329,192,71394,1,0,0:0:0:100:D#5.ogg
402,192,71548,1,0,0:0:0:100:G5.ogg
256,192,71701,1,0,0:0:0:100:D#3.ogg
475,192,71701,1,0,0:0:0:100:G#5.ogg
182,192,71854,128,0,72772:0:0:0:100:A#2.ogg
36,192,71854,128,0,72772:0:0:0:100:A#1.ogg
475,192,71854,128,0,72466:0:0:0:100:A#5.ogg
329,192,71854,128,0,72313:0:0:0:100:C#5.ogg
329,192,72466,1,0,0:0:0:100:D#5.ogg
402,192,72772,1,0,0:0:0:100:G#5.ogg
256,192,72772,1,0,0:0:0:100:G#3.ogg
182,192,72925,1,0,0:0:0:100:G3.ogg
402,192,73078,128,0,73690:0:0:0:100:A#5.ogg
329,192,73078,128,0,73537:0:0:0:100:G5.ogg
36,192,73078,128,0,73997:0:0:0:100:C2.ogg
182,192,73078,128,0,73997:0:0:0:100:D#3.ogg
329,192,73690,1,0,0:0:0:100:C5.ogg
475,192,73997,1,0,0:0:0:100:C6.ogg
256,192,74150,1,0,0:0:0:100:G3.ogg
475,192,74303,128,0,75374:0:0:0:100:C6.ogg
402,192,74303,128,0,75374:0:0:0:100:G#5.ogg
329,192,74303,128,0,75374:0:0:0:100:F5.ogg
36,192,74303,128,0,75374:0:0:0:100:F2.ogg
182,192,74303,128,0,75374:0:0:0:100:F3.ogg
329,192,75527,1,0,0:0:0:100:G#4.ogg
402,192,75527,1,0,0:0:0:100:G#5.ogg
36,192,75527,1,0,0:0:0:100:F2.ogg
109,192,75527,1,0,0:0:0:100:F3.ogg
256,192,75680,1,0,0:0:0:100:C4.ogg
182,192,75680,1,0,0:0:0:100:F3.ogg
329,192,75833,1,0,0:0:0:100:A#4.ogg
475,192,75833,1,0,0:0:0:100:A#5.ogg
256,192,75833,1,0,0:0:0:100:C4.ogg
182,192,75833,1,0,0:0:0:100:F3.ogg
182,192,75986,1,0,0:0:0:100:F3.ogg
256,192,75986,1,0,0:0:0:100:C4.ogg
475,192,76139,128,0,76752:0:0:0:100:C6.ogg
402,192,76139,128,0,76752:0:0:0:100:C5.ogg
256,192,76139,1,0,0:0:0:100:C4.ogg
182,192,76139,1,0,0:0:0:100:F3.ogg
182,192,76445,1,0,0:0:0:100:F3.ogg
256,192,76445,1,0,0:0:0:100:C4.ogg
256,192,76752,128,0,76905:0:0:0:100:C4.ogg
182,192,76752,128,0,76905:0:0:0:100:G#3.ogg
109,192,76752,128,0,76905:0:0:0:100:F3.ogg
475,192,77058,1,0,0:0:0:100:G#6.ogg
329,192,77058,1,0,0:0:0:100:G#5.ogg
256,192,77211,128,0,77364:0:0:0:100:C4.ogg
109,192,77211,128,0,77364:0:0:0:100:F3.ogg
182,192,77211,128,0,77364:0:0:0:100:G#3.ogg
475,192,77364,1,0,0:0:0:100:G6.ogg
329,192,77364,1,0,0:0:0:100:G5.ogg
329,192,77670,1,0,0:0:0:100:C5.ogg
402,192,77670,1,0,0:0:0:100:C6.ogg
256,192,77670,1,0,0:0:0:100:C4.ogg
182,192,77670,1,0,0:0:0:100:G#3.ogg
109,192,77670,1,0,0:0:0:100:F3.ogg
182,192,77976,1,0,0:0:0:100:A#3.ogg
109,192,77976,1,0,0:0:0:100:G3.ogg
36,192,77976,1,0,0:0:0:100:D#3.ogg
402,192,77976,1,0,0:0:0:100:A#5.ogg
329,192,77976,1,0,0:0:0:100:A#4.ogg
182,192,78129,1,0,0:0:0:100:A#3.ogg
109,192,78129,1,0,0:0:0:100:G3.ogg
36,192,78129,1,0,0:0:0:100:D#3.ogg
182,192,78282,128,0,78588:0:0:0:100:A#3.ogg
109,192,78282,128,0,78588:0:0:0:100:G3.ogg
36,192,78282,128,0,78588:0:0:0:100:D#3.ogg
475,192,78282,128,0,78741:0:0:0:100:C6.ogg
402,192,78282,128,0,78741:0:0:0:100:C5.ogg
109,192,78741,128,0,79048:0:0:0:100:G3.ogg
36,192,78741,128,0,79048:0:0:0:100:D#3.ogg
182,192,78741,128,0,79048:0:0:0:100:A#3.ogg
329,192,78894,1,0,0:0:0:100:G#4.ogg
402,192,78894,1,0,0:0:0:100:G#5.ogg
475,192,79201,1,0,0:0:0:100:A#6.ogg
329,192,79201,1,0,0:0:0:100:A#5.ogg
256,192,79201,128,0,79507:0:0:0:100:C4.ogg
109,192,79201,128,0,79507:0:0:0:100:F3.ogg
402,192,79507,128,0,79966:0:0:0:100:C5.ogg
475,192,79507,128,0,79966:0:0:0:100:C6.ogg
256,192,79660,1,0,0:0:0:100:C4.ogg
109,192,79660,1,0,0:0:0:100:F3.ogg
256,192,79813,1,0,0:0:0:100:C4.ogg
109,192,79813,1,0,0:0:0:100:F3.ogg
329,192,80119,1,0,0:0:0:100:F4.ogg
402,192,80119,1,0,0:0:0:100:F5.ogg
329,192,80272,1,0,0:0:0:100:G4.ogg
475,192,80272,1,0,0:0:0:100:G5.ogg
402,192,80425,128,0,80884:0:0:0:100:G#6.ogg
475,192,80425,128,0,80884:0:0:0:100:G#5.ogg
109,192,80425,128,0,80731:0:0:0:100:F3.ogg
256,192,80425,128,0,80731:0:0:0:100:C4.ogg
182,192,80425,128,0,80731:0:0:0:100:G#3.ogg
256,192,80884,128,0,81190:0:0:0:100:C4.ogg
182,192,80884,128,0,81190:0:0:0:100:G#3.ogg
109,192,80884,128,0,81190:0:0:0:100:F3.ogg
329,192,81037,1,0,0:0:0:100:G4.ogg
402,192,81037,1,0,0:0:0:100:G5.ogg
329,192,81343,1,0,0:0:0:100:G#4.ogg
475,192,81343,1,0,0:0:0:100:G#5.ogg
256,192,81343,1,0,0:0:0:100:C4.ogg
182,192,81343,1,0,0:0:0:100:G#3.ogg
109,192,81343,1,0,0:0:0:100:F3.ogg
475,192,81650,128,0,82262:0:0:0:100:A#5.ogg
402,192,81650,128,0,82262:0:0:0:100:A#4.ogg
256,192,81803,1,0,0:0:0:100:C4.ogg
109,192,81803,1,0,0:0:0:100:D#3.ogg
256,192,81956,1,0,0:0:0:100:C4.ogg
109,192,81956,1,0,0:0:0:100:D#3.ogg
256,192,82109,128,0,82262:0:0:0:100:C4.ogg
109,192,82109,128,0,82262:0:0:0:100:D#3.ogg
256,192,82415,1,0,0:0:0:100:C4.ogg
109,192,82415,1,0,0:0:0:100:D#3.ogg
329,192,82568,1,0,0:0:0:100:G#4.ogg
475,192,82568,1,0,0:0:0:100:G#5.ogg
475,192,82874,128,0,83333:0:0:0:100:A#5.ogg
402,192,82874,128,0,83333:0:0:0:100:A#4.ogg
36,192,82874,1,0,0:0:0:100:C3.ogg
109,192,82874,1,0,0:0:0:100:G3.ogg
182,192,82874,1,0,0:0:0:100:A#3.ogg
36,192,83180,1,0,0:0:0:100:C3.ogg
109,192,83180,1,0,0:0:0:100:G3.ogg
182,192,83180,1,0,0:0:0:100:A#3.ogg
182,192,83486,1,0,0:0:0:100:A#3.ogg
109,192,83486,1,0,0:0:0:100:G3.ogg
36,192,83486,1,0,0:0:0:100:C3.ogg
329,192,83486,128,0,83945:0:0:0:100:G4.ogg
475,192,83486,128,0,83945:0:0:0:100:G5.ogg
182,192,83639,128,0,83945:0:0:0:100:A#3.ogg
109,192,83639,128,0,83945:0:0:0:100:G3.ogg
36,192,83639,128,0,83945:0:0:0:100:C3.ogg
475,192,84099,128,0,85170:0:0:0:100:F5.ogg
329,192,84099,128,0,85170:0:0:0:100:F4.ogg
109,192,84252,1,0,0:0:0:100:F3.ogg
256,192,84252,1,0,0:0:0:100:C4.ogg
109,192,84558,1,0,0:0:0:100:F3.ogg
256,192,84558,1,0,0:0:0:100:C4.ogg
256,192,84711,1,0,0:0:0:100:C4.ogg
109,192,84711,1,0,0:0:0:100:F3.ogg
109,192,85017,1,0,0:0:0:100:F3.ogg
256,192,85017,1,0,0:0:0:100:C4.ogg
329,192,85323,1,0,0:0:0:100:G#4.ogg
402,192,85323,1,0,0:0:0:100:G#5.ogg
36,192,85323,1,0,0:0:0:100:F3.ogg
256,192,85476,1,0,0:0:0:100:G#4.ogg
109,192,85476,1,0,0:0:0:100:C4.ogg
36,192,85476,1,0,0:0:0:100:G#3.ogg
329,192,85629,1,0,0:0:0:100:A#4.ogg
475,192,85629,1,0,0:0:0:100:A#5.ogg
109,192,85629,1,0,0:0:0:100:C4.ogg
36,192,85629,1,0,0:0:0:100:G#3.ogg
256,192,85629,1,0,0:0:0:100:G#4.ogg
256,192,85782,1,0,0:0:0:100:G#4.ogg
36,192,85782,1,0,0:0:0:100:G#3.ogg
109,192,85782,1,0,0:0:0:100:C4.ogg
475,192,85935,128,0,86548:0:0:0:100:C6.ogg
402,192,85935,128,0,86548:0:0:0:100:C5.ogg
109,192,85935,1,0,0:0:0:100:C4.ogg
36,192,85935,1,0,0:0:0:100:G#3.ogg
256,192,85935,1,0,0:0:0:100:G#4.ogg
256,192,86241,1,0,0:0:0:100:G#4.ogg
36,192,86241,1,0,0:0:0:100:G#3.ogg
109,192,86241,1,0,0:0:0:100:C4.ogg
256,192,86548,128,0,86854:0:0:0:100:G#4.ogg
182,192,86548,128,0,86854:0:0:0:100:F4.ogg
109,192,86548,128,0,86854:0:0:0:100:C4.ogg
36,192,86548,128,0,86854:0:0:0:100:G#3.ogg
475,192,86854,1,0,0:0:0:100:G#6.ogg
402,192,86854,1,0,0:0:0:100:G#5.ogg
36,192,87007,128,0,87313:0:0:0:100:G#3.ogg
182,192,87007,128,0,87313:0:0:0:100:F4.ogg
256,192,87007,128,0,87313:0:0:0:100:G#4.ogg
109,192,87007,128,0,87313:0:0:0:100:C4.ogg
475,192,87160,1,0,0:0:0:100:G6.ogg
329,192,87160,1,0,0:0:0:100:G5.ogg
402,192,87466,1,0,0:0:0:100:C6.ogg
329,192,87466,1,0,0:0:0:100:C5.ogg
256,192,87466,1,0,0:0:0:100:G#4.ogg
182,192,87466,1,0,0:0:0:100:F4.ogg
109,192,87466,1,0,0:0:0:100:C4.ogg
36,192,87466,1,0,0:0:0:100:G#3.ogg
329,192,87772,1,0,0:0:0:100:A#4.ogg
402,192,87772,1,0,0:0:0:100:A#5.ogg
256,192,87772,1,0,0:0:0:100:D#4.ogg
182,192,87772,1,0,0:0:0:100:A#3.ogg
109,192,87772,1,0,0:0:0:100:G3.ogg
36,192,87772,1,0,0:0:0:100:D#3.ogg
256,192,87925,1,0,0:0:0:100:D#4.ogg
182,192,87925,1,0,0:0:0:100:A#3.ogg
109,192,87925,1,0,0:0:0:100:G3.ogg
36,192,87925,1,0,0:0:0:100:D#3.ogg
475,192,88078,128,0,88537:0:0:0:100:C6.ogg
402,192,88078,128,0,88537:0:0:0:100:C5.ogg
256,192,88078,128,0,88384:0:0:0:100:D#4.ogg
182,192,88078,128,0,88384:0:0:0:100:A#3.ogg
109,192,88078,128,0,88384:0:0:0:100:G3.ogg
36,192,88078,128,0,88384:0:0:0:100:D#3.ogg
109,192,88537,128,0,88843:0:0:0:100:G3.ogg
36,192,88537,128,0,88843:0:0:0:100:D#3.ogg
256,192,88537,128,0,88843:0:0:0:100:D#4.ogg
182,192,88537,128,0,88843:0:0:0:100:A#3.ogg
329,192,88690,1,0,0:0:0:100:G#4.ogg
402,192,88690,1,0,0:0:0:100:G#5.ogg
475,192,88997,1,0,0:0:0:100:A#5.ogg
329,192,88997,1,0,0:0:0:100:A#4.ogg
256,192,88997,128,0,89303:0:0:0:100:G#4.ogg
109,192,88997,128,0,89303:0:0:0:100:C4.ogg
36,192,88997,128,0,89303:0:0:0:100:G#3.ogg
475,192,89303,128,0,89762:0:0:0:100:C6.ogg
402,192,89303,128,0,89762:0:0:0:100:C5.ogg
109,192,89456,128,0,89762:0:0:0:100:C4.ogg
36,192,89456,128,0,89762:0:0:0:100:G#3.ogg
256,192,89456,128,0,89762:0:0:0:100:G#4.ogg
329,192,89915,1,0,0:0:0:100:F4.ogg
402,192,89915,1,0,0:0:0:100:F5.ogg
329,192,90068,1,0,0:0:0:100:G4.ogg
475,192,90068,1,0,0:0:0:100:G5.ogg
36,192,90221,128,0,90527:0:0:0:100:G#3.ogg
109,192,90221,128,0,90527:0:0:0:100:C4.ogg
256,192,90221,128,0,90527:0:0:0:100:G#4.ogg
475,192,90221,128,0,90680:0:0:0:100:G#5.ogg
402,192,90221,128,0,90680:0:0:0:100:G#4.ogg
182,192,90221,128,0,90527:0:0:0:100:F4.ogg
182,192,90680,128,0,90986:0:0:0:100:F4.ogg
256,192,90680,128,0,90986:0:0:0:100:G#4.ogg
36,192,90680,128,0,90986:0:0:0:100:G#3.ogg
109,192,90680,128,0,90986:0:0:0:100:C4.ogg
402,192,90833,1,0,0:0:0:100:G5.ogg
329,192,90833,1,0,0:0:0:100:G4.ogg
475,192,91139,1,0,0:0:0:100:G#5.ogg
329,192,91139,1,0,0:0:0:100:G#4.ogg
256,192,91139,1,0,0:0:0:100:G#4.ogg
182,192,91139,1,0,0:0:0:100:F4.ogg
109,192,91139,1,0,0:0:0:100:C4.ogg
36,192,91139,1,0,0:0:0:100:G#3.ogg
475,192,91445,128,0,92058:0:0:0:100:A#5.ogg
402,192,91445,128,0,92058:0:0:0:100:A#4.ogg
109,192,91599,1,0,0:0:0:100:C#4.ogg
36,192,91599,1,0,0:0:0:100:G#3.ogg
256,192,91599,1,0,0:0:0:100:G#4.ogg
182,192,91599,1,0,0:0:0:100:F4.ogg
36,192,91752,1,0,0:0:0:100:G#3.ogg
256,192,91752,1,0,0:0:0:100:G#4.ogg
182,192,91752,1,0,0:0:0:100:F4.ogg
109,192,91752,1,0,0:0:0:100:C#4.ogg
256,192,91905,128,0,92058:0:0:0:100:G#4.ogg
182,192,91905,128,0,92058:0:0:0:100:F4.ogg
109,192,91905,128,0,92058:0:0:0:100:C#4.ogg
36,192,91905,128,0,92058:0:0:0:100:G#3.ogg
182,192,92211,1,0,0:0:0:100:F4.ogg
109,192,92211,1,0,0:0:0:100:C#4.ogg
36,192,92211,1,0,0:0:0:100:G#3.ogg
256,192,92211,1,0,0:0:0:100:G#4.ogg
402,192,92364,1,0,0:0:0:100:G#5.ogg
329,192,92364,1,0,0:0:0:100:G#4.ogg
475,192,92670,128,0,93435:0:0:0:100:A#5.ogg
402,192,92670,128,0,93435:0:0:0:100:A#4.ogg
256,192,92670,128,0,92976:0:0:0:100:D#4.ogg
182,192,92670,128,0,92976:0:0:0:100:C4.ogg
109,192,92670,128,0,92976:0:0:0:100:G3.ogg
36,192,92670,128,0,92976:0:0:0:100:D#3.ogg
109,192,93129,128,0,93282:0:0:0:100:G3.ogg
36,192,93129,128,0,93282:0:0:0:100:D#3.ogg
256,192,93129,128,0,93282:0:0:0:100:D#4.ogg
182,192,93129,128,0,93282:0:0:0:100:C4.ogg
256,192,93435,1,0,0:0:0:100:D#4.ogg
182,192,93435,1,0,0:0:0:100:C4.ogg
109,192,93435,1,0,0:0:0:100:G3.ogg
36,192,93435,1,0,0:0:0:100:D#3.ogg
256,192,93588,1,0,0:0:0:100:D#4.ogg
182,192,93588,1,0,0:0:0:100:C4.ogg
109,192,93588,1,0,0:0:0:100:G3.ogg
36,192,93588,1,0,0:0:0:100:D#3.ogg
475,192,93588,1,0,0:0:0:100:C6.ogg
402,192,93588,1,0,0:0:0:100:C5.ogg
475,192,93894,128,0,94966:0:0:0:100:C6.ogg
402,192,93894,128,0,94966:0:0:0:100:C5.ogg
109,192,94048,1,0,0:0:0:100:G#3.ogg
36,192,94048,1,0,0:0:0:100:F3.ogg
256,192,94048,1,0,0:0:0:100:F4.ogg
182,192,94048,1,0,0:0:0:100:C4.ogg
36,192,94354,1,0,0:0:0:100:F3.ogg
256,192,94354,1,0,0:0:0:100:F4.ogg
182,192,94354,1,0,0:0:0:100:C4.ogg
109,192,94354,1,0,0:0:0:100:G#3.ogg
182,192,94507,1,0,0:0:0:100:C4.ogg
109,192,94507,1,0,0:0:0:100:G#3.ogg
36,192,94507,1,0,0:0:0:100:F3.ogg
256,192,94507,1,0,0:0:0:100:F4.ogg
36,192,94813,1,0,0:0:0:100:F3.ogg
256,192,94813,1,0,0:0:0:100:F4.ogg
182,192,94813,1,0,0:0:0:100:C4.ogg
109,192,94813,1,0,0:0:0:100:G#3.ogg
36,192,95119,128,0,96343:0:0:0:100:G#3.ogg
329,192,95119,1,0,0:0:0:100:D#5.ogg
402,192,95119,1,0,0:0:0:100:G#5.ogg
402,192,95425,1,0,0:0:0:100:A#5.ogg
475,192,95731,128,0,96190:0:0:0:100:C6.ogg
109,192,96343,128,0,97568:0:0:0:100:C#4.ogg
475,192,96650,1,0,0:0:0:100:G#6.ogg
402,192,96956,1,0,0:0:0:100:G6.ogg
329,192,97262,1,0,0:0:0:100:D#6.ogg
329,192,97568,1,0,0:0:0:100:G5.ogg
402,192,97568,1,0,0:0:0:100:A#5.ogg
182,192,97568,128,0,98792:0:0:0:100:D#4.ogg
475,192,97874,128,0,98486:0:0:0:100:C6.ogg
402,192,98486,1,0,0:0:0:100:G#5.ogg
256,192,98792,128,0,100017:0:0:0:100:D#4.ogg
329,192,98792,1,0,0:0:0:100:D#5.ogg
475,192,98792,1,0,0:0:0:100:A#5.ogg
475,192,99099,128,0,99711:0:0:0:100:C6.ogg
329,192,99711,1,0,0:0:0:100:F5.ogg
402,192,99864,1,0,0:0:0:100:G5.ogg
475,192,100017,128,0,100629:0:0:0:100:G#5.ogg
182,192,100017,128,0,101241:0:0:0:100:F4.ogg
329,192,100629,1,0,0:0:0:100:G5.ogg
402,192,100935,1,0,0:0:0:100:G#5.ogg
475,192,101241,128,0,102007:0:0:0:100:A#5.ogg
402,192,101241,128,0,102007:0:0:0:100:F5.ogg
329,192,101241,128,0,102007:0:0:0:100:C#5.ogg
109,192,101241,128,0,102466:0:0:0:100:C#4.ogg
402,192,102160,1,0,0:0:0:100:G#5.ogg
475,192,102466,128,0,103078:0:0:0:100:A#5.ogg
329,192,102466,128,0,103078:0:0:0:100:G5.ogg
182,192,102466,128,0,103690:0:0:0:100:D#4.ogg
402,192,103078,128,0,103690:0:0:0:100:C6.ogg
256,192,103690,128,0,104915:0:0:0:100:F4.ogg
36,192,103690,128,0,104915:0:0:0:100:F2.ogg
475,192,103690,128,0,104915:0:0:0:100:C6.ogg
