osu file format v12

[General]
AudioFilename: angelbeatsichibannotakaramonoMusic.mp3
AudioLeadIn: 0
PreviewTime: -1
Countdown: 1
SampleSet: Normal
StackLeniency: 0.7
Mode: 3
LetterboxInBreaks: 1
SpecialStyle: 0
WidescreenStoryboard: 1

[Editor]
DistanceSpacing: 0.8
BeatDivisor: 4
GridSize: 32
TimelineZoom: 1

[Metadata]
Title:Theme Songs (Piano Ver.)
TitleUnicode:Theme Songs (Piano Ver.)
Artist:Angel Beats!
ArtistUnicode:Angel Beats!
Creator:Irho Ttamo
Version:My Soul, Your Beats! (TV Size) 8k Ver.1
Source:Angel Beats!
Tags:Jun Maeda Key P.A. Works Visual Art Aniplex na-ga anant-garde eyes BakaDuck fugu-chan Ichigo's Sheet Music sum1 Lavenderlufer
BeatmapID:424984
BeatmapSetID:176453

[Difficulty]
HPDrainRate:5
CircleSize:8
OverallDifficulty:5
ApproachRate:5
SliderMultiplier:0.6
SliderTickRate:1

[Events]
//Background and Video events
0,0,"ab21.jpg",0,0
//Break Periods
//Storyboard Layer 0 (Background)
//Storyboard Layer 1 (Fail)
//Storyboard Layer 2 (Pass)
//Storyboard Layer 3 (Foreground)
//Storyboard Sound Samples
//Background Colour Transformations
3,100,163,162,255

[TimingPoints]
0.5886699507389,413.793103448276,4,1,0,100,1,0
54724,-100,4,1,0,100,0,1
79448,-100,4,1,0,100,0,0

[HitObjects]
480,192,1448,5,0,0:0:0:100:F#5.ogg
402,192,1655,1,0,0:0:0:100:E5.ogg
32,192,1655,128,0,2069:0:0:0:100:B2.ogg
109,192,1862,1,0,0:0:0:100:B3.ogg
329,192,2069,1,0,0:0:0:100:D5.ogg
160,192,2069,1,0,0:0:0:100:D4.ogg
96,192,2276,128,0,2690:0:0:0:100:F#3.ogg
256,192,2483,1,0,0:0:0:100:B4.ogg
160,192,2483,1,0,0:0:0:100:B3.ogg
224,192,2690,1,0,0:0:0:100:D4.ogg
109,192,2897,128,0,4552:0:0:0:100:D3.ogg
256,192,2897,128,0,4552:0:0:0:100:A3.ogg
402,192,2897,128,0,4552:0:0:0:100:A4.ogg
182,192,2897,128,0,4552:0:0:0:100:F#3.ogg
475,192,4759,5,0,0:0:0:100:F#5.ogg
402,192,4966,1,0,0:0:0:100:E5.ogg
32,192,4966,128,0,5379:0:0:0:100:B2.ogg
109,192,5173,1,0,0:0:0:100:B3.ogg
329,192,5379,1,0,0:0:0:100:D5.ogg
160,192,5379,1,0,0:0:0:100:D4.ogg
96,192,5586,128,0,6000:0:0:0:100:F#3.ogg
160,192,5793,1,0,0:0:0:100:B3.ogg
256,192,5793,1,0,0:0:0:100:B4.ogg
224,192,6000,1,0,0:0:0:100:D4.ogg
182,192,6207,128,0,7862:0:0:0:100:F#3.ogg
402,192,6207,128,0,7862:0:0:0:100:A4.ogg
109,192,6207,128,0,7862:0:0:0:100:D3.ogg
256,192,6207,128,0,7862:0:0:0:100:A3.ogg
475,192,8069,5,0,0:0:0:100:F#5.ogg
402,192,8276,1,0,0:0:0:100:E5.ogg
32,192,8276,128,0,8690:0:0:0:100:B2.ogg
109,192,8483,1,0,0:0:0:100:B3.ogg
160,192,8690,1,0,0:0:0:100:D4.ogg
329,192,8690,1,0,0:0:0:100:D5.ogg
32,192,8897,128,0,9310:0:0:0:100:F#3.ogg
109,192,9104,1,0,0:0:0:100:B3.ogg
402,192,9104,1,0,0:0:0:100:E5.ogg
160,192,9310,1,0,0:0:0:100:D4.ogg
475,192,9517,1,0,0:0:0:100:A5.ogg
475,192,9931,128,0,11173:0:0:0:100:B5.ogg
329,192,9931,128,0,11173:0:0:0:100:B3.ogg
402,192,9931,128,0,11173:0:0:0:100:B4.ogg
475,192,11379,5,0,0:0:0:100:F#5.ogg
402,192,11586,1,0,0:0:0:100:E5.ogg
32,192,11586,128,0,12000:0:0:0:100:B2.ogg
109,192,11793,1,0,0:0:0:100:B3.ogg
160,192,12000,1,0,0:0:0:100:D4.ogg
329,192,12000,1,0,0:0:0:100:D5.ogg
32,192,12207,1,0,0:0:0:100:F#3.ogg
402,192,12414,1,0,0:0:0:100:A4.ogg
109,192,12414,1,0,0:0:0:100:F#3.ogg
36,192,12414,1,0,0:0:0:100:F#2.ogg
96,192,12828,128,0,16552:0:0:0:100:B2.ogg
224,192,12828,128,0,16552:0:0:0:100:A3.ogg
475,192,12828,128,0,14897:0:0:0:100:B4.ogg
402,192,12828,128,0,14897:0:0:0:100:F#4.ogg
329,192,12828,128,0,14897:0:0:0:100:D4.ogg
256,192,12828,128,0,14897:0:0:0:100:B3.ogg
329,192,16552,1,0,0:0:0:100:D5.ogg
402,192,16552,1,0,0:0:0:100:F#5.ogg
36,192,16552,1,0,0:0:0:100:G2.ogg
182,192,16552,1,0,0:0:0:100:G3.ogg
256,192,16552,1,0,0:0:0:100:B4.ogg
36,192,16759,1,0,0:0:0:100:G2.ogg
182,192,16759,1,0,0:0:0:100:G3.ogg
256,192,16759,1,0,0:0:0:100:B4.ogg
329,192,16759,1,0,0:0:0:100:D5.ogg
402,192,16759,1,0,0:0:0:100:F#5.ogg
329,192,16966,1,0,0:0:0:100:D5.ogg
402,192,16966,1,0,0:0:0:100:F#5.ogg
256,192,16966,1,0,0:0:0:100:B4.ogg
36,192,16966,1,0,0:0:0:100:G2.ogg
182,192,16966,1,0,0:0:0:100:G3.ogg
36,192,17173,1,0,0:0:0:100:G2.ogg
182,192,17173,1,0,0:0:0:100:G3.ogg
256,192,17173,1,0,0:0:0:100:B4.ogg
329,192,17173,1,0,0:0:0:100:D5.ogg
402,192,17173,1,0,0:0:0:100:F#5.ogg
475,192,17379,1,0,0:0:0:100:B5.ogg
402,192,17379,1,0,0:0:0:100:F#5.ogg
256,192,17379,1,0,0:0:0:100:B4.ogg
36,192,17379,1,0,0:0:0:100:G2.ogg
182,192,17379,1,0,0:0:0:100:G3.ogg
475,192,17586,1,0,0:0:0:100:B5.ogg
402,192,17586,1,0,0:0:0:100:F#5.ogg
36,192,17586,1,0,0:0:0:100:G2.ogg
182,192,17586,1,0,0:0:0:100:G3.ogg
256,192,17586,1,0,0:0:0:100:B4.ogg
182,192,17793,1,0,0:0:0:100:G3.ogg
256,192,17793,1,0,0:0:0:100:B4.ogg
36,192,17793,1,0,0:0:0:100:G2.ogg
475,192,17793,1,0,0:0:0:100:B5.ogg
402,192,17793,1,0,0:0:0:100:F#5.ogg
475,192,18000,1,0,0:0:0:100:B5.ogg
402,192,18000,1,0,0:0:0:100:F#5.ogg
36,192,18000,1,0,0:0:0:100:G2.ogg
182,192,18000,1,0,0:0:0:100:G3.ogg
256,192,18000,1,0,0:0:0:100:B4.ogg
182,192,18207,1,0,0:0:0:100:G3.ogg
256,192,18207,1,0,0:0:0:100:B4.ogg
36,192,18207,1,0,0:0:0:100:G2.ogg
475,192,18207,1,0,0:0:0:100:B5.ogg
402,192,18207,1,0,0:0:0:100:F#5.ogg
109,192,18207,1,0,0:0:0:100:D3.ogg
475,192,18414,1,0,0:0:0:100:B5.ogg
475,192,18828,1,0,0:0:0:70:A5.ogg
329,192,18828,1,0,0:0:0:100:E5.ogg
256,192,18828,1,0,0:0:0:70:A4.ogg
475,192,19035,1,0,0:0:0:100:A5.ogg
329,192,19448,1,0,0:0:0:100:A4.ogg
402,192,19448,1,0,0:0:0:100:D5.ogg
402,192,19655,1,0,0:0:0:100:E5.ogg
352,192,20069,1,0,0:0:0:100:E6.ogg
288,192,20069,1,0,0:0:0:100:A5.ogg
352,192,20276,1,0,0:0:0:100:A6.ogg
416,192,20741,1,0,0:0:0:100:B4.ogg
352,192,20871,1,0,0:0:0:100:F#4.ogg
288,192,21000,1,0,0:0:0:100:B3.ogg
224,192,21129,1,0,0:0:0:100:A3.ogg
160,192,21259,1,0,0:0:0:100:E3.ogg
96,192,21388,1,0,0:0:0:100:A2.ogg
256,192,21517,1,0,0:0:0:100:F#4.ogg
182,192,21517,1,0,0:0:0:100:G3.ogg
36,192,21517,1,0,0:0:0:100:G2.ogg
329,192,21724,1,0,0:0:0:100:A4.ogg
402,192,21931,1,0,0:0:0:100:D5.ogg
182,192,21931,1,0,0:0:0:100:G3.ogg
109,192,22138,1,0,0:0:0:100:D3.ogg
329,192,22138,128,0,22552:0:0:0:100:G4.ogg
480,192,22138,128,0,22552:0:0:0:100:D5.ogg
224,192,22345,1,0,0:0:0:100:B3.ogg
402,192,22552,1,0,0:0:0:100:C#5.ogg
36,192,22552,1,0,0:0:0:100:D3.ogg
475,192,22759,1,0,0:0:0:100:E5.ogg
109,192,22759,1,0,0:0:0:100:G3.ogg
36,192,22966,1,0,0:0:0:100:D3.ogg
329,192,23173,1,0,0:0:0:100:D5.ogg
256,192,23173,1,0,0:0:0:100:A4.ogg
160,192,23173,1,0,0:0:0:100:D3.ogg
36,192,23173,1,0,0:0:0:100:D2.ogg
402,192,23379,1,0,0:0:0:100:E5.ogg
475,192,23586,1,0,0:0:0:100:F#5.ogg
160,192,23586,1,0,0:0:0:100:D3.ogg
96,192,23793,1,0,0:0:0:100:A2.ogg
256,192,23793,128,0,24828:0:0:0:100:A4.ogg
352,192,23793,128,0,24828:0:0:0:100:D5.ogg
224,192,24000,1,0,0:0:0:100:F#3.ogg
96,192,24207,1,0,0:0:0:100:A2.ogg
160,192,24414,1,0,0:0:0:100:D3.ogg
96,192,24621,1,0,0:0:0:100:A2.ogg
416,192,24828,1,0,0:0:0:100:F#4.ogg
36,192,24828,1,0,0:0:0:100:B2.ogg
182,192,24828,1,0,0:0:0:100:B3.ogg
402,192,25035,1,0,0:0:0:100:A4.ogg
475,192,25241,1,0,0:0:0:100:C#5.ogg
182,192,25241,1,0,0:0:0:100:B3.ogg
475,192,25448,128,0,25862:0:0:0:100:D5.ogg
402,192,25448,128,0,25862:0:0:0:100:B4.ogg
109,192,25448,1,0,0:0:0:100:F#3.ogg
224,192,25655,1,0,0:0:0:100:D4.ogg
329,192,25862,1,0,0:0:0:100:C#5.ogg
109,192,25862,1,0,0:0:0:100:F#3.ogg
402,192,26069,128,0,27724:0:0:0:100:D5.ogg
329,192,26069,128,0,27724:0:0:0:100:F#4.ogg
182,192,26069,1,0,0:0:0:100:B3.ogg
109,192,26276,1,0,0:0:0:100:F#3.ogg
182,192,26483,1,0,0:0:0:100:B3.ogg
36,192,26483,1,0,0:0:0:100:B2.ogg
96,192,26690,1,0,0:0:0:100:C#4.ogg
32,192,26897,1,0,0:0:0:100:F#3.ogg
182,192,27104,1,0,0:0:0:100:D4.ogg
32,192,27310,1,0,0:0:0:100:F#3.ogg
224,192,27517,1,0,0:0:0:100:E4.ogg
32,192,27931,1,0,0:0:0:100:F#3.ogg
402,192,27931,1,0,0:0:0:100:B4.ogg
256,192,28138,1,0,0:0:0:100:G4.ogg
329,192,28138,1,0,0:0:0:100:B4.ogg
160,192,28138,1,0,0:0:0:100:G3.ogg
36,192,28138,1,0,0:0:0:100:G2.ogg
160,192,28552,1,0,0:0:0:100:G3.ogg
329,192,28552,1,0,0:0:0:100:C#5.ogg
96,192,28759,1,0,0:0:0:100:D3.ogg
402,192,28966,1,0,0:0:0:100:D5.ogg
256,192,28966,1,0,0:0:0:100:G4.ogg
224,192,28966,1,0,0:0:0:100:B3.ogg
109,192,29173,1,0,0:0:0:100:D3.ogg
475,192,29379,1,0,0:0:0:100:E5.ogg
182,192,29379,1,0,0:0:0:100:G3.ogg
109,192,29586,1,0,0:0:0:100:D3.ogg
160,192,29793,1,0,0:0:0:100:E3.ogg
36,192,29793,1,0,0:0:0:100:E2.ogg
402,192,29793,128,0,31035:0:0:0:100:B4.ogg
256,192,29793,128,0,31035:0:0:0:100:E4.ogg
329,192,29793,128,0,31035:0:0:0:100:G4.ogg
160,192,30207,1,0,0:0:0:100:E3.ogg
96,192,30414,1,0,0:0:0:100:B2.ogg
224,192,30621,1,0,0:0:0:100:G3.ogg
96,192,30828,1,0,0:0:0:100:B2.ogg
160,192,31035,1,0,0:0:0:100:E3.ogg
480,192,31035,1,0,0:0:0:100:B4.ogg
96,192,31241,1,0,0:0:0:100:B2.ogg
475,192,31448,1,0,0:0:0:100:C#5.ogg
329,192,31448,1,0,0:0:0:100:F#4.ogg
182,192,31448,1,0,0:0:0:100:F#3.ogg
36,192,31448,1,0,0:0:0:100:F#2.ogg
402,192,31862,1,0,0:0:0:100:A4.ogg
182,192,31862,1,0,0:0:0:100:F#3.ogg
109,192,32069,1,0,0:0:0:100:C#3.ogg
256,192,32276,1,0,0:0:0:100:E4.ogg
402,192,32276,1,0,0:0:0:100:B4.ogg
224,192,32276,1,0,0:0:0:100:A3.ogg
96,192,32483,1,0,0:0:0:100:C#3.ogg
160,192,32690,1,0,0:0:0:100:F#3.ogg
329,192,32690,128,0,34655:0:0:0:100:F#4.ogg
402,192,32690,128,0,34655:0:0:0:100:B4.ogg
96,192,32897,1,0,0:0:0:100:C#3.ogg
182,192,33104,1,0,0:0:0:100:B3.ogg
109,192,33104,1,0,0:0:0:100:F#3.ogg
36,192,33104,1,0,0:0:0:100:B2.ogg
182,192,33724,1,0,0:0:0:100:B3.ogg
109,192,33724,1,0,0:0:0:100:F#3.ogg
36,192,33724,1,0,0:0:0:100:B2.ogg
182,192,34448,1,0,0:0:0:100:B3.ogg
32,192,34448,1,0,0:0:0:100:B2.ogg
96,192,34655,1,0,0:0:0:100:A3.ogg
36,192,34655,1,0,0:0:0:100:A2.ogg
256,192,34862,1,0,0:0:0:100:F#4.ogg
182,192,34862,1,0,0:0:0:100:G3.ogg
36,192,34862,1,0,0:0:0:100:G2.ogg
329,192,35069,1,0,0:0:0:100:A4.ogg
402,192,35276,1,0,0:0:0:100:D5.ogg
182,192,35276,1,0,0:0:0:100:G3.ogg
329,192,35483,128,0,35897:0:0:0:100:G4.ogg
402,192,35483,128,0,35897:0:0:0:100:D5.ogg
109,192,35483,1,0,0:0:0:100:D3.ogg
224,192,35690,1,0,0:0:0:100:B3.ogg
288,192,35897,1,0,0:0:0:100:C#5.ogg
109,192,35897,1,0,0:0:0:100:D3.ogg
402,192,36104,1,0,0:0:0:100:E5.ogg
182,192,36104,1,0,0:0:0:100:G3.ogg
402,192,36310,1,0,0:0:0:100:E5.ogg
109,192,36310,1,0,0:0:0:100:D3.ogg
256,192,36517,1,0,0:0:0:100:A4.ogg
329,192,36517,1,0,0:0:0:100:D5.ogg
182,192,36517,1,0,0:0:0:100:D3.ogg
36,192,36517,1,0,0:0:0:100:D2.ogg
402,192,36724,1,0,0:0:0:100:E5.ogg
475,192,36931,1,0,0:0:0:100:F#5.ogg
182,192,36931,1,0,0:0:0:100:D3.ogg
416,192,37138,128,0,38173:0:0:0:100:D5.ogg
352,192,37138,128,0,38173:0:0:0:100:A4.ogg
109,192,37138,1,0,0:0:0:100:A2.ogg
224,192,37345,1,0,0:0:0:100:F#3.ogg
109,192,37552,1,0,0:0:0:100:A2.ogg
182,192,37759,1,0,0:0:0:100:D3.ogg
96,192,37966,1,0,0:0:0:100:A2.ogg
256,192,38173,1,0,0:0:0:100:F#4.ogg
160,192,38173,1,0,0:0:0:100:B3.ogg
36,192,38173,1,0,0:0:0:100:B2.ogg
329,192,38379,1,0,0:0:0:100:A4.ogg
402,192,38586,1,0,0:0:0:100:C#5.ogg
160,192,38586,1,0,0:0:0:100:B3.ogg
475,192,38793,128,0,39207:0:0:0:100:D5.ogg
402,192,38793,128,0,39207:0:0:0:100:B4.ogg
96,192,38793,1,0,0:0:0:100:F#3.ogg
224,192,39000,1,0,0:0:0:100:D4.ogg
352,192,39207,1,0,0:0:0:100:C#5.ogg
96,192,39207,1,0,0:0:0:100:F#3.ogg
475,192,39414,128,0,41069:0:0:0:100:D5.ogg
402,192,39414,128,0,41069:0:0:0:100:B4.ogg
160,192,39414,1,0,0:0:0:100:B3.ogg
96,192,39621,1,0,0:0:0:100:F#3.ogg
182,192,39828,1,0,0:0:0:100:B3.ogg
36,192,39828,1,0,0:0:0:100:B2.ogg
182,192,40241,1,0,0:0:0:100:C#4.ogg
96,192,40448,1,0,0:0:0:100:F#3.ogg
224,192,40655,1,0,0:0:0:100:D4.ogg
109,192,40862,1,0,0:0:0:100:F#3.ogg
182,192,41069,1,0,0:0:0:100:E4.ogg
329,192,41276,1,0,0:0:0:100:B4.ogg
109,192,41276,1,0,0:0:0:100:F#3.ogg
256,192,41483,1,0,0:0:0:100:G4.ogg
329,192,41483,1,0,0:0:0:100:B4.ogg
160,192,41483,128,0,42931:0:0:0:100:D3.ogg
224,192,41483,128,0,42931:0:0:0:100:G3.ogg
96,192,41483,128,0,42931:0:0:0:100:G2.ogg
329,192,41897,1,0,0:0:0:100:C#5.ogg
402,192,42310,1,0,0:0:0:100:D5.ogg
256,192,42310,1,0,0:0:0:100:G4.ogg
475,192,42724,1,0,0:0:0:100:E5.ogg
256,192,43138,128,0,44379:0:0:0:100:E4.ogg
416,192,43138,128,0,44379:0:0:0:100:G4.ogg
36,192,43138,128,0,44586:0:0:0:100:E2.ogg
182,192,43138,128,0,44586:0:0:0:100:E3.ogg
109,192,43138,128,0,44586:0:0:0:100:B2.ogg
480,192,43138,128,0,44379:0:0:0:100:B4.ogg
329,192,44379,1,0,0:0:0:100:B4.ogg
256,192,44793,1,0,0:0:0:100:F#4.ogg
402,192,44793,1,0,0:0:0:100:C#5.ogg
224,192,44793,128,0,45414:0:0:0:100:A3.ogg
160,192,44793,128,0,45414:0:0:0:100:C#3.ogg
96,192,44793,128,0,45414:0:0:0:100:F#2.ogg
329,192,45207,1,0,0:0:0:100:D5.ogg
402,192,45621,1,0,0:0:0:100:E5.ogg
329,192,45621,1,0,0:0:0:100:A#4.ogg
182,192,45621,128,0,46241:0:0:0:100:A#3.ogg
36,192,45621,128,0,46241:0:0:0:100:F#2.ogg
109,192,45621,128,0,46241:0:0:0:100:C#3.ogg
475,192,46035,1,0,0:0:0:100:F#5.ogg
475,192,46448,128,0,47690:0:0:0:100:F#5.ogg
352,192,46448,128,0,47690:0:0:0:100:D5.ogg
160,192,46448,128,0,47897:0:0:0:100:F#3.ogg
96,192,46448,128,0,47897:0:0:0:100:B2.ogg
224,192,46448,128,0,47897:0:0:0:100:B3.ogg
288,192,46448,128,0,47690:0:0:0:100:B4.ogg
402,192,47690,1,0,0:0:0:100:F#5.ogg
475,192,48104,1,0,0:0:0:100:A5.ogg
329,192,48104,1,0,0:0:0:100:B4.ogg
32,192,48104,1,0,0:0:0:100:G1.ogg
96,192,48104,1,0,0:0:0:100:G2.ogg
402,192,48310,128,0,48724:0:0:0:100:F#5.ogg
224,192,48310,1,0,0:0:0:100:B3.ogg
160,192,48310,1,0,0:0:0:100:D3.ogg
224,192,48517,1,0,0:0:0:100:B3.ogg
160,192,48517,1,0,0:0:0:100:D3.ogg
475,192,48724,128,0,49138:0:0:0:100:A5.ogg
329,192,48724,128,0,49138:0:0:0:100:B4.ogg
160,192,48724,1,0,0:0:0:100:D3.ogg
224,192,48724,1,0,0:0:0:100:B3.ogg
160,192,48931,1,0,0:0:0:100:D3.ogg
224,192,48931,1,0,0:0:0:100:B3.ogg
402,192,49138,1,0,0:0:0:100:G5.ogg
160,192,49138,1,0,0:0:0:100:D3.ogg
224,192,49138,1,0,0:0:0:100:B3.ogg
329,192,49345,1,0,0:0:0:100:F#5.ogg
160,192,49345,1,0,0:0:0:100:D3.ogg
224,192,49345,1,0,0:0:0:100:B3.ogg
160,192,49552,1,0,0:0:0:100:D3.ogg
224,192,49552,1,0,0:0:0:100:B3.ogg
36,192,49759,1,0,0:0:0:100:G#1.ogg
109,192,49759,1,0,0:0:0:100:G#2.ogg
256,192,49759,128,0,51000:0:0:0:100:G#4.ogg
329,192,49759,128,0,51000:0:0:0:100:D5.ogg
109,192,49966,1,0,0:0:0:100:B2.ogg
182,192,49966,1,0,0:0:0:100:G#3.ogg
109,192,50173,1,0,0:0:0:100:B2.ogg
182,192,50173,1,0,0:0:0:100:G#3.ogg
182,192,50379,1,0,0:0:0:100:G#3.ogg
109,192,50379,1,0,0:0:0:100:B2.ogg
109,192,50586,1,0,0:0:0:100:B2.ogg
182,192,50586,1,0,0:0:0:100:G#3.ogg
182,192,50793,1,0,0:0:0:100:G#3.ogg
109,192,50793,1,0,0:0:0:100:B2.ogg
109,192,51000,1,0,0:0:0:100:B2.ogg
182,192,51000,1,0,0:0:0:100:G#3.ogg
475,192,51000,1,0,0:0:0:100:D5.ogg
402,192,51000,1,0,0:0:0:100:B4.ogg
182,192,51207,1,0,0:0:0:100:G#3.ogg
109,192,51207,1,0,0:0:0:100:B2.ogg
475,192,51414,1,0,0:0:0:100:E5.ogg
329,192,51414,1,0,0:0:0:100:A#4.ogg
36,192,51414,1,0,0:0:0:100:A#1.ogg
109,192,51414,1,0,0:0:0:100:A#2.ogg
402,192,51621,128,0,52035:0:0:0:100:D5.ogg
96,192,51621,1,0,0:0:0:100:C#3.ogg
160,192,51621,1,0,0:0:0:100:A#3.ogg
160,192,51828,1,0,0:0:0:100:A#3.ogg
96,192,51828,1,0,0:0:0:100:C#3.ogg
329,192,52035,128,0,52448:0:0:0:100:B4.ogg
256,192,52035,128,0,52448:0:0:0:100:F#4.ogg
96,192,52035,1,0,0:0:0:100:C#3.ogg
160,192,52035,1,0,0:0:0:100:A#3.ogg
160,192,52241,1,0,0:0:0:100:A#3.ogg
96,192,52241,1,0,0:0:0:100:C#3.ogg
402,192,52448,1,0,0:0:0:100:E5.ogg
96,192,52448,1,0,0:0:0:100:C#3.ogg
160,192,52448,1,0,0:0:0:100:A#3.ogg
475,192,52655,1,0,0:0:0:100:F#5.ogg
160,192,52655,1,0,0:0:0:100:A#3.ogg
96,192,52655,1,0,0:0:0:100:C#3.ogg
96,192,52862,1,0,0:0:0:100:C#3.ogg
160,192,52862,1,0,0:0:0:100:A#3.ogg
475,192,53069,128,0,53897:0:0:0:100:F#5.ogg
402,192,53069,128,0,53897:0:0:0:100:D5.ogg
36,192,53069,1,0,0:0:0:100:B1.ogg
109,192,53069,1,0,0:0:0:100:B2.ogg
329,192,53069,128,0,53897:0:0:0:100:B4.ogg
160,192,53276,1,0,0:0:0:100:D3.ogg
224,192,53276,1,0,0:0:0:100:B3.ogg
160,192,53483,1,0,0:0:0:100:D3.ogg
224,192,53483,1,0,0:0:0:100:B3.ogg
224,192,53690,1,0,0:0:0:100:B3.ogg
160,192,53690,1,0,0:0:0:100:D3.ogg
160,192,53897,1,0,0:0:0:100:D3.ogg
224,192,53897,1,0,0:0:0:100:B3.ogg
256,192,53897,1,0,0:0:0:70:D#6.ogg
224,192,54104,1,0,0:0:0:100:B3.ogg
160,192,54104,1,0,0:0:0:100:D3.ogg
329,192,54104,1,0,0:0:0:70:E6.ogg
160,192,54310,1,0,0:0:0:100:D3.ogg
224,192,54310,1,0,0:0:0:100:B3.ogg
402,192,54310,1,0,0:0:0:70:F#6.ogg
224,192,54517,1,0,0:0:0:100:B3.ogg
160,192,54517,1,0,0:0:0:100:D3.ogg
475,192,54517,1,0,0:0:0:70:G#5.ogg
475,192,54724,1,0,0:0:0:100:G#5.ogg
329,192,54724,1,0,0:0:0:100:C#5.ogg
256,192,54724,1,0,0:0:0:100:A4.ogg
36,192,54724,128,0,56379:0:0:0:100:A1.ogg
109,192,54724,128,0,54931:0:0:0:100:A2.ogg
402,192,54931,128,0,55345:0:0:0:100:F#5.ogg
224,192,55138,1,0,0:0:0:100:A3.ogg
160,192,55138,1,0,0:0:0:100:E3.ogg
329,192,55345,128,0,55759:0:0:0:100:E5.ogg
256,192,55345,128,0,55759:0:0:0:100:A5.ogg
96,192,55345,1,0,0:0:0:100:A2.ogg
96,192,55552,1,0,0:0:0:100:A2.ogg
96,192,55759,1,0,0:0:0:100:A2.ogg
160,192,55759,1,0,0:0:0:100:C#3.ogg
224,192,55966,1,0,0:0:0:100:A3.ogg
160,192,55966,1,0,0:0:0:100:E3.ogg
402,192,55966,1,0,0:0:0:100:G5.ogg
96,192,56173,1,0,0:0:0:100:A2.ogg
475,192,56173,128,0,56586:0:0:0:100:B5.ogg
402,192,56173,128,0,56586:0:0:0:100:E5.ogg
96,192,56379,128,0,58035:0:0:0:100:A1.ogg
160,192,56379,128,0,56586:0:0:0:100:A2.ogg
402,192,56793,1,0,0:0:0:100:G#5.ogg
224,192,56793,1,0,0:0:0:100:A3.ogg
160,192,56793,1,0,0:0:0:100:E3.ogg
329,192,57000,128,0,57621:0:0:0:100:E5.ogg
36,192,57000,1,0,0:0:0:100:A2.ogg
475,192,57000,128,0,57621:0:0:0:100:B5.ogg
36,192,57207,1,0,0:0:0:100:A2.ogg
36,192,57414,1,0,0:0:0:100:A2.ogg
160,192,57414,1,0,0:0:0:100:C#3.ogg
224,192,57621,1,0,0:0:0:100:A3.ogg
160,192,57621,1,0,0:0:0:100:E3.ogg
36,192,57828,1,0,0:0:0:100:A2.ogg
475,192,58035,1,0,0:0:0:100:G#5.ogg
329,192,58035,1,0,0:0:0:100:C#5.ogg
256,192,58035,1,0,0:0:0:100:A4.ogg
36,192,58035,128,0,59690:0:0:0:100:A1.ogg
160,192,58035,128,0,58241:0:0:0:100:A2.ogg
402,192,58241,128,0,58655:0:0:0:100:F#5.ogg
224,192,58448,1,0,0:0:0:100:A3.ogg
160,192,58448,1,0,0:0:0:100:E3.ogg
329,192,58655,128,0,59069:0:0:0:100:E5.ogg
256,192,58655,128,0,59069:0:0:0:100:A4.ogg
96,192,58655,1,0,0:0:0:100:A2.ogg
96,192,58862,1,0,0:0:0:100:A2.ogg
96,192,59069,1,0,0:0:0:100:A2.ogg
160,192,59069,1,0,0:0:0:100:C#3.ogg
402,192,59276,1,0,0:0:0:100:G#5.ogg
224,192,59276,1,0,0:0:0:100:A3.ogg
160,192,59276,1,0,0:0:0:100:E3.ogg
475,192,59483,128,0,60104:0:0:0:100:B5.ogg
329,192,59483,128,0,60104:0:0:0:100:E5.ogg
96,192,59483,1,0,0:0:0:100:A2.ogg
96,192,59690,128,0,61345:0:0:0:100:A1.ogg
160,192,59690,128,0,59897:0:0:0:100:A2.ogg
416,192,60104,1,0,0:0:0:100:G#5.ogg
224,192,60104,1,0,0:0:0:100:A3.ogg
160,192,60104,1,0,0:0:0:100:E3.ogg
256,192,60310,128,0,60724:0:0:0:100:E5.ogg
402,192,60310,128,0,60724:0:0:0:100:B5.ogg
36,192,60310,1,0,0:0:0:100:A2.ogg
36,192,60517,1,0,0:0:0:100:A2.ogg
475,192,60724,128,0,61138:0:0:0:100:C#6.ogg
36,192,60724,1,0,0:0:0:100:A2.ogg
160,192,60724,1,0,0:0:0:100:C#3.ogg
224,192,60931,1,0,0:0:0:100:A3.ogg
160,192,60931,1,0,0:0:0:100:E3.ogg
416,192,61138,128,0,63828:0:0:0:100:B5.ogg
36,192,61138,1,0,0:0:0:100:B2.ogg
352,192,61138,128,0,63828:0:0:0:100:E5.ogg
160,192,61345,128,0,63000:0:0:0:100:C#2.ogg
224,192,61345,128,0,61552:0:0:0:100:C#3.ogg
224,192,61759,1,0,0:0:0:100:C#4.ogg
109,192,61759,1,0,0:0:0:100:G3.ogg
36,192,61966,1,0,0:0:0:100:C#3.ogg
36,192,62173,1,0,0:0:0:100:C#3.ogg
36,192,62379,1,0,0:0:0:100:C#3.ogg
109,192,62379,1,0,0:0:0:100:E3.ogg
224,192,62586,1,0,0:0:0:100:C#4.ogg
109,192,62586,1,0,0:0:0:100:G3.ogg
36,192,62793,1,0,0:0:0:100:C#3.ogg
36,192,63000,128,0,64655:0:0:0:100:C#2.ogg
109,192,63000,128,0,63207:0:0:0:100:C#3.ogg
224,192,63414,1,0,0:0:0:100:C#4.ogg
160,192,63414,1,0,0:0:0:100:G3.ogg
96,192,63621,1,0,0:0:0:100:C#3.ogg
96,192,63828,1,0,0:0:0:100:C#3.ogg
96,192,64035,1,0,0:0:0:100:C#3.ogg
160,192,64035,1,0,0:0:0:100:E3.ogg
475,192,64035,1,0,0:0:0:100:G#5.ogg
160,192,64241,1,0,0:0:0:100:G3.ogg
402,192,64241,1,0,0:0:0:100:F#5.ogg
224,192,64241,1,0,0:0:0:100:C#4.ogg
329,192,64448,1,0,0:0:0:100:E5.ogg
96,192,64448,1,0,0:0:0:100:D#3.ogg
329,192,64655,1,0,0:0:0:100:E5.ogg
96,192,64655,128,0,66310:0:0:0:100:E2.ogg
160,192,64655,128,0,64862:0:0:0:100:E3.ogg
402,192,64862,1,0,0:0:0:100:F#5.ogg
256,192,64862,1,0,0:0:0:100:B4.ogg
416,192,65069,128,0,65690:0:0:0:100:G#5.ogg
224,192,65069,1,0,0:0:0:100:E4.ogg
160,192,65069,1,0,0:0:0:100:B3.ogg
36,192,65276,1,0,0:0:0:100:E3.ogg
36,192,65483,1,0,0:0:0:100:E3.ogg
475,192,65690,1,0,0:0:0:100:G#5.ogg
36,192,65690,1,0,0:0:0:100:E3.ogg
160,192,65690,1,0,0:0:0:100:G#3.ogg
402,192,65897,1,0,0:0:0:100:F#5.ogg
224,192,65897,1,0,0:0:0:100:E4.ogg
160,192,65897,1,0,0:0:0:100:B3.ogg
329,192,66104,1,0,0:0:0:100:E5.ogg
36,192,66104,1,0,0:0:0:100:E3.ogg
329,192,66310,1,0,0:0:0:100:F#5.ogg
256,192,66310,1,0,0:0:0:100:B4.ogg
36,192,66310,128,0,67966:0:0:0:100:B1.ogg
160,192,66310,128,0,66517:0:0:0:100:B2.ogg
402,192,66724,1,0,0:0:0:100:G#5.ogg
224,192,66724,1,0,0:0:0:100:B3.ogg
160,192,66724,1,0,0:0:0:100:F#3.ogg
96,192,66931,1,0,0:0:0:100:B2.ogg
256,192,67138,1,0,0:0:0:100:B4.ogg
475,192,67138,1,0,0:0:0:100:B5.ogg
96,192,67138,1,0,0:0:0:100:B2.ogg
96,192,67345,1,0,0:0:0:100:B2.ogg
160,192,67345,1,0,0:0:0:100:D#3.ogg
402,192,67552,1,0,0:0:0:100:F#5.ogg
224,192,67552,1,0,0:0:0:100:B3.ogg
160,192,67552,1,0,0:0:0:100:F#3.ogg
96,192,67759,1,0,0:0:0:100:B2.ogg
475,192,67966,1,0,0:0:0:100:G#5.ogg
329,192,67966,1,0,0:0:0:100:C#5.ogg
256,192,67966,1,0,0:0:0:100:A4.ogg
160,192,67966,128,0,69621:0:0:0:100:A1.ogg
224,192,67966,128,0,68173:0:0:0:100:A2.ogg
402,192,68379,1,0,0:0:0:100:F#5.ogg
224,192,68379,1,0,0:0:0:100:A3.ogg
109,192,68379,1,0,0:0:0:100:E3.ogg
329,192,68586,128,0,69000:0:0:0:100:E5.ogg
256,192,68586,128,0,69000:0:0:0:100:A4.ogg
36,192,68586,1,0,0:0:0:100:A2.ogg
36,192,68793,1,0,0:0:0:100:A2.ogg
36,192,69000,1,0,0:0:0:100:A2.ogg
109,192,69000,1,0,0:0:0:100:C#3.ogg
402,192,69207,1,0,0:0:0:100:G#5.ogg
109,192,69207,1,0,0:0:0:100:E3.ogg
224,192,69207,1,0,0:0:0:100:A3.ogg
329,192,69414,128,0,69828:0:0:0:100:E5.ogg
475,192,69414,128,0,69828:0:0:0:100:B5.ogg
36,192,69414,1,0,0:0:0:100:A2.ogg
36,192,69621,128,0,71276:0:0:0:100:A1.ogg
109,192,69621,128,0,69828:0:0:0:100:A2.ogg
402,192,70035,1,0,0:0:0:100:G#5.ogg
224,192,70035,1,0,0:0:0:100:A3.ogg
160,192,70035,1,0,0:0:0:100:E3.ogg
475,192,70241,128,0,70862:0:0:0:100:B5.ogg
96,192,70241,1,0,0:0:0:100:A2.ogg
329,192,70241,128,0,70862:0:0:0:100:E5.ogg
96,192,70448,1,0,0:0:0:100:A2.ogg
96,192,70655,1,0,0:0:0:100:A2.ogg
160,192,70655,1,0,0:0:0:100:C#3.ogg
224,192,70862,1,0,0:0:0:100:A3.ogg
160,192,70862,1,0,0:0:0:100:E3.ogg
96,192,71069,1,0,0:0:0:100:A2.ogg
475,192,71276,1,0,0:0:0:100:G#5.ogg
329,192,71276,1,0,0:0:0:100:C#5.ogg
256,192,71276,1,0,0:0:0:100:A4.ogg
96,192,71276,128,0,72931:0:0:0:100:A1.ogg
160,192,71276,128,0,71483:0:0:0:100:A2.ogg
402,192,71483,128,0,71897:0:0:0:100:F#5.ogg
224,192,71690,1,0,0:0:0:100:A3.ogg
160,192,71690,1,0,0:0:0:100:E3.ogg
256,192,71897,128,0,72310:0:0:0:100:A4.ogg
329,192,71897,128,0,72310:0:0:0:100:E5.ogg
36,192,71897,1,0,0:0:0:100:A2.ogg
36,192,72104,1,0,0:0:0:100:A2.ogg
36,192,72310,1,0,0:0:0:100:A2.ogg
160,192,72310,1,0,0:0:0:100:C#3.ogg
416,192,72517,1,0,0:0:0:100:G#5.ogg
352,192,72517,1,0,0:0:0:100:E5.ogg
224,192,72517,1,0,0:0:0:100:A3.ogg
160,192,72517,1,0,0:0:0:100:E3.ogg
475,192,72724,128,0,73138:0:0:0:100:B5.ogg
402,192,72724,128,0,73138:0:0:0:100:E5.ogg
36,192,72724,1,0,0:0:0:100:A2.ogg
36,192,72931,128,0,74586:0:0:0:100:A1.ogg
160,192,72931,128,0,73138:0:0:0:100:A2.ogg
329,192,73345,1,0,0:0:0:100:G#5.ogg
224,192,73345,1,0,0:0:0:100:A3.ogg
160,192,73345,1,0,0:0:0:100:E3.ogg
402,192,73552,128,0,73966:0:0:0:100:B5.ogg
256,192,73552,128,0,73966:0:0:0:100:E5.ogg
96,192,73552,1,0,0:0:0:100:A2.ogg
96,192,73759,1,0,0:0:0:100:A2.ogg
475,192,73966,128,0,74379:0:0:0:100:C#6.ogg
96,192,73966,1,0,0:0:0:100:A2.ogg
160,192,73966,1,0,0:0:0:100:C#3.ogg
224,192,74173,1,0,0:0:0:100:A3.ogg
160,192,74173,1,0,0:0:0:100:E3.ogg
402,192,74379,128,0,76035:0:0:0:100:B5.ogg
96,192,74379,1,0,0:0:0:100:A#2.ogg
256,192,74379,128,0,76035:0:0:0:100:E5.ogg
160,192,74586,128,0,76241:0:0:0:100:B1.ogg
224,192,74586,128,0,74793:0:0:0:100:B2.ogg
224,192,75000,1,0,0:0:0:100:B3.ogg
109,192,75000,1,0,0:0:0:100:F#3.ogg
36,192,75207,1,0,0:0:0:100:B2.ogg
36,192,75414,1,0,0:0:0:100:B2.ogg
36,192,75621,1,0,0:0:0:100:B2.ogg
109,192,75621,1,0,0:0:0:100:D#3.ogg
224,192,75828,1,0,0:0:0:100:B3.ogg
109,192,75828,1,0,0:0:0:100:F#3.ogg
36,192,76035,1,0,0:0:0:100:B2.ogg
480,192,76035,1,0,0:0:0:100:B5.ogg
475,192,76241,1,0,0:0:0:100:D#6.ogg
329,192,76241,1,0,0:0:0:100:F#5.ogg
36,192,76241,128,0,77897:0:0:0:100:B1.ogg
109,192,76241,128,0,76448:0:0:0:100:B2.ogg
402,192,76448,1,0,0:0:0:100:B5.ogg
402,192,76655,128,0,77483:0:0:0:100:B5.ogg
224,192,76655,1,0,0:0:0:100:B3.ogg
160,192,76655,1,0,0:0:0:100:F#3.ogg
96,192,76862,1,0,0:0:0:100:B2.ogg
96,192,77069,1,0,0:0:0:100:B2.ogg
160,192,77276,1,0,0:0:0:100:D#3.ogg
96,192,77276,1,0,0:0:0:100:B2.ogg
224,192,77483,1,0,0:0:0:100:B3.ogg
160,192,77483,1,0,0:0:0:100:F#3.ogg
329,192,77483,1,0,0:0:0:100:F#5.ogg
96,192,77690,1,0,0:0:0:100:B2.ogg
352,192,77690,128,0,79345:0:0:0:100:F#5.ogg
475,192,77690,128,0,79345:0:0:0:100:B5.ogg
96,192,77897,128,0,79345:0:0:0:100:B1.ogg
160,192,77897,128,0,78104:0:0:0:100:B2.ogg
224,192,78310,1,0,0:0:0:100:B3.ogg
160,192,78310,1,0,0:0:0:100:F#3.ogg
36,192,78517,1,0,0:0:0:100:B2.ogg
36,192,78724,1,0,0:0:0:100:B2.ogg
36,192,78931,1,0,0:0:0:100:B2.ogg
160,192,78931,1,0,0:0:0:100:D#3.ogg
160,192,79138,1,0,0:0:0:100:F#3.ogg
224,192,79138,1,0,0:0:0:100:B3.ogg
36,192,79345,1,0,0:0:0:100:B2.ogg
402,192,79345,1,0,0:0:0:100:G#5.ogg
475,192,79552,1,0,0:0:0:100:F#6.ogg
329,192,79552,1,0,0:0:0:100:F#5.ogg
36,192,79552,128,0,79966:0:0:0:100:C#3.ogg
109,192,79759,1,0,0:0:0:100:C#4.ogg
475,192,79966,1,0,0:0:0:100:E6.ogg
402,192,79966,1,0,0:0:0:100:E5.ogg
182,192,79966,1,0,0:0:0:100:E4.ogg
96,192,80173,128,0,80586:0:0:0:100:G#3.ogg
402,192,80379,1,0,0:0:0:100:C#6.ogg
329,192,80379,1,0,0:0:0:100:C#5.ogg
160,192,80379,1,0,0:0:0:100:C#4.ogg
224,192,80586,1,0,0:0:0:100:E4.ogg
329,192,80793,128,0,82448:0:0:0:100:B5.ogg
256,192,80793,128,0,82448:0:0:0:100:B4.ogg
36,192,80793,1,0,0:0:0:100:G#3.ogg
36,192,81207,128,0,81621:0:0:0:100:G#2.ogg
109,192,81414,1,0,0:0:0:100:G#3.ogg
182,192,81621,1,0,0:0:0:100:B3.ogg
96,192,81828,128,0,82241:0:0:0:100:D#3.ogg
160,192,82035,1,0,0:0:0:100:G#3.ogg
224,192,82241,1,0,0:0:0:100:B3.ogg
109,192,82448,1,0,0:0:0:100:G#3.ogg
402,192,82655,1,0,0:0:0:100:G#5.ogg
475,192,82862,1,0,0:0:0:100:F#6.ogg
329,192,82862,1,0,0:0:0:100:F#5.ogg
36,192,82862,128,0,83276:0:0:0:100:C#3.ogg
109,192,83069,1,0,0:0:0:100:C#4.ogg
475,192,83276,1,0,0:0:0:100:E6.ogg
402,192,83276,1,0,0:0:0:100:E5.ogg
182,192,83276,1,0,0:0:0:100:E4.ogg
96,192,83483,128,0,83897:0:0:0:100:G#3.ogg
402,192,83690,1,0,0:0:0:100:C#6.ogg
329,192,83690,1,0,0:0:0:100:C#5.ogg
160,192,83690,1,0,0:0:0:100:C#4.ogg
224,192,83897,1,0,0:0:0:100:E4.ogg
256,192,84104,128,0,85759:0:0:0:100:B4.ogg
109,192,84104,1,0,0:0:0:100:G#3.ogg
329,192,84104,128,0,85759:0:0:0:100:B5.ogg
36,192,84517,128,0,84931:0:0:0:100:G#2.ogg
109,192,84724,1,0,0:0:0:100:G#3.ogg
182,192,84931,1,0,0:0:0:100:B3.ogg
96,192,85138,128,0,85552:0:0:0:100:D#3.ogg
160,192,85345,1,0,0:0:0:100:G#3.ogg
224,192,85552,1,0,0:0:0:100:B3.ogg
109,192,85759,1,0,0:0:0:100:G#3.ogg
402,192,85966,1,0,0:0:0:100:G#5.ogg
475,192,86173,1,0,0:0:0:100:F#6.ogg
329,192,86173,1,0,0:0:0:100:F#5.ogg
36,192,86173,1,0,0:0:0:100:C#3.ogg
182,192,86173,1,0,0:0:0:100:C#4.ogg
182,192,86379,1,0,0:0:0:100:G#3.ogg
475,192,86586,1,0,0:0:0:100:E6.ogg
402,192,86586,1,0,0:0:0:100:E5.ogg
109,192,86586,1,0,0:0:0:100:E3.ogg
36,192,86793,1,0,0:0:0:100:C#3.ogg
256,192,87000,1,0,0:0:0:100:B4.ogg
329,192,87000,1,0,0:0:0:100:B5.ogg
36,192,87000,1,0,0:0:0:100:G#2.ogg
109,192,87000,1,0,0:0:0:100:G#3.ogg
475,192,87414,128,0,89483:0:0:0:100:C#6.ogg
402,192,87414,128,0,89483:0:0:0:100:E5.ogg
329,192,87414,128,0,89483:0:0:0:100:C#5.ogg
36,192,87414,128,0,89483:0:0:0:100:C#3.ogg
109,192,87414,128,0,89483:0:0:0:100:G#3.ogg
182,192,87414,128,0,89483:0:0:0:100:C#4.ogg
