osu file format v12

[General]
AudioFilename: angelbeatsichibannotakaramonoMusic.mp3
AudioLeadIn: 0
PreviewTime: -1
Countdown: 1
SampleSet: Soft
StackLeniency: 0.7
Mode: 3
LetterboxInBreaks: 1
SpecialStyle: 0
WidescreenStoryboard: 1

[Editor]
DistanceSpacing: 0.8
BeatDivisor: 4
GridSize: 32
TimelineZoom: 1

[Metadata]
Title:Theme Songs (Piano Ver.)
TitleUnicode:Theme Songs (Piano Ver.)
Artist:Angel Beats!
ArtistUnicode:Angel Beats!
Creator:Irho Ttamo
Version:My Soul, Your Beats! (TV Size) 5k Ver.2
Source:Angel Beats!
Tags:Jun Maeda Key P.A. Works Visual Art Aniplex na-ga anant-garde eyes BakaDuck fugu-chan Ichigo's Sheet Music
BeatmapID:424977
BeatmapSetID:176453

[Difficulty]
HPDrainRate:5
CircleSize:5
OverallDifficulty:5
ApproachRate:5
SliderMultiplier:0.6
SliderTickRate:1

[Events]
//Background and Video events
0,0,"abp2.jpg",0,0
//Break Periods
//Storyboard Layer 0 (Background)
//Storyboard Layer 1 (Fail)
//Storyboard Layer 2 (Pass)
//Storyboard Layer 3 (Foreground)
//Storyboard Sound Samples
//Background Colour Transformations
3,100,163,162,255

[TimingPoints]
1,413.793103448276,4,2,0,100,1,0
54621,-100,4,2,0,100,0,1
79138,-100,4,2,0,100,0,0

[HitObjects]
460,192,1449,5,0,0:0:0:100:F#5.ogg
358,192,1656,1,0,0:0:0:100:E5.ogg
51,192,1656,1,0,0:0:0:100:B2.ogg
153,192,1656,1,0,0:0:0:100:B3.ogg
153,192,1863,1,0,0:0:0:100:F#3.ogg
256,192,2069,1,0,0:0:0:100:D5.ogg
51,192,2069,1,0,0:0:0:100:B2.ogg
153,192,2276,1,0,0:0:0:100:G2.ogg
358,192,2483,1,0,0:0:0:100:B4.ogg
153,192,2483,1,0,0:0:0:100:B3.ogg
51,192,2690,1,0,0:0:0:100:D4.ogg
358,192,2897,128,0,4552:0:0:0:100:A3.ogg
460,192,2897,128,0,4552:0:0:0:100:A4.ogg
51,192,2897,128,0,4552:0:0:0:100:F#2.ogg
153,192,2897,128,0,4552:0:0:0:100:D3.ogg
460,192,4759,5,0,0:0:0:100:F#5.ogg
358,192,4966,1,0,0:0:0:100:E5.ogg
51,192,4966,1,0,0:0:0:100:B2.ogg
153,192,4966,1,0,0:0:0:100:B3.ogg
153,192,5173,1,0,0:0:0:100:F#3.ogg
256,192,5380,1,0,0:0:0:100:D5.ogg
51,192,5380,1,0,0:0:0:100:B2.ogg
153,192,5587,1,0,0:0:0:100:G2.ogg
358,192,5794,1,0,0:0:0:100:B4.ogg
153,192,5794,1,0,0:0:0:100:B3.ogg
51,192,6001,1,0,0:0:0:100:D4.ogg
460,192,6207,128,0,7863:0:0:0:100:A4.ogg
358,192,6207,128,0,7863:0:0:0:100:A3.ogg
51,192,6207,128,0,7863:0:0:0:100:F#2.ogg
153,192,6207,128,0,7863:0:0:0:100:D3.ogg
460,192,8069,1,0,0:0:0:100:F#5.ogg
51,192,8276,1,0,0:0:0:100:B2.ogg
358,192,8276,1,0,0:0:0:100:E5.ogg
153,192,8276,1,0,0:0:0:100:B3.ogg
51,192,8483,1,0,0:0:0:100:F#3.ogg
153,192,8690,1,0,0:0:0:100:D4.ogg
256,192,8690,1,0,0:0:0:100:D5.ogg
51,192,8897,128,0,9311:0:0:0:100:G2.ogg
153,192,9104,1,0,0:0:0:100:B3.ogg
358,192,9104,1,0,0:0:0:100:E5.ogg
153,192,9311,1,0,0:0:0:100:D4.ogg
460,192,9518,1,0,0:0:0:100:A5.ogg
256,192,9932,128,0,11173:0:0:0:100:B3.ogg
358,192,9932,128,0,11173:0:0:0:100:B4.ogg
460,192,9932,128,0,11173:0:0:0:100:B5.ogg
460,192,11380,1,0,0:0:0:100:F#5.ogg
358,192,11587,1,0,0:0:0:100:E5.ogg
51,192,11587,1,0,0:0:0:100:B2.ogg
153,192,11587,1,0,0:0:0:100:B3.ogg
51,192,11794,1,0,0:0:0:100:F#3.ogg
256,192,12001,1,0,0:0:0:100:D5.ogg
153,192,12001,1,0,0:0:0:100:D4.ogg
51,192,12207,1,0,0:0:0:100:B2.ogg
256,192,12414,1,0,0:0:0:100:A4.ogg
51,192,12414,1,0,0:0:0:100:F#3.ogg
256,192,12828,128,0,14897:0:0:0:100:D4.ogg
358,192,12828,128,0,14897:0:0:0:100:B4.ogg
153,192,12828,128,0,16345:0:0:0:100:B3.ogg
51,192,12828,128,0,16345:0:0:0:100:D3.ogg
51,192,16552,1,0,0:0:0:100:G3.ogg
153,192,16552,1,0,0:0:0:100:D4.ogg
358,192,16552,1,0,0:0:0:100:F#5.ogg
358,192,16759,1,0,0:0:0:100:F#5.ogg
153,192,16759,1,0,0:0:0:100:D4.ogg
51,192,16759,1,0,0:0:0:100:G3.ogg
153,192,16966,1,0,0:0:0:100:D4.ogg
51,192,16966,1,0,0:0:0:100:G3.ogg
358,192,16966,1,0,0:0:0:100:F#5.ogg
358,192,17173,1,0,0:0:0:100:F#5.ogg
153,192,17173,1,0,0:0:0:100:D4.ogg
51,192,17173,1,0,0:0:0:100:G3.ogg
153,192,17380,1,0,0:0:0:100:D4.ogg
51,192,17380,1,0,0:0:0:100:G3.ogg
358,192,17380,1,0,0:0:0:100:F#5.ogg
460,192,17380,1,0,0:0:0:100:B5.ogg
153,192,17587,1,0,0:0:0:100:D4.ogg
51,192,17587,1,0,0:0:0:100:G3.ogg
358,192,17587,1,0,0:0:0:100:F#5.ogg
460,192,17587,1,0,0:0:0:100:B5.ogg
358,192,17794,1,0,0:0:0:100:F#5.ogg
460,192,17794,1,0,0:0:0:100:B5.ogg
153,192,17794,1,0,0:0:0:100:D4.ogg
51,192,17794,1,0,0:0:0:100:G3.ogg
153,192,18001,1,0,0:0:0:100:D4.ogg
51,192,18001,1,0,0:0:0:100:G3.ogg
358,192,18001,1,0,0:0:0:100:F#5.ogg
460,192,18001,1,0,0:0:0:100:B5.ogg
358,192,18207,1,0,0:0:0:100:F#5.ogg
460,192,18207,1,0,0:0:0:100:B5.ogg
153,192,18207,1,0,0:0:0:100:D4.ogg
51,192,18207,1,0,0:0:0:100:G3.ogg
460,192,18414,1,0,0:0:0:100:B5.ogg
358,192,18828,1,0,0:0:0:100:E5.ogg
460,192,18828,1,0,0:0:0:100:A5.ogg
358,192,19035,1,0,0:0:0:100:A5.ogg
460,192,19449,1,0,0:0:0:100:A4.ogg
358,192,19449,1,0,0:0:0:100:D5.ogg
358,192,19656,1,0,0:0:0:100:E5.ogg
460,192,20069,1,0,0:0:0:100:E6.ogg
358,192,20069,1,0,0:0:0:100:A5.ogg
460,192,20276,1,0,0:0:0:100:A6.ogg
153,192,20690,1,0,0:0:0:100:B4.ogg
256,192,20794,1,0,0:0:0:100:F#4.ogg
358,192,20897,1,0,0:0:0:100:E4.ogg
460,192,21001,1,0,0:0:0:100:A3.ogg
358,192,21104,1,0,0:0:0:100:F#3.ogg
256,192,21207,1,0,0:0:0:100:E3.ogg
153,192,21311,1,0,0:0:0:100:B2.ogg
51,192,21414,1,0,0:0:0:100:A2.ogg
256,192,21518,1,0,0:0:0:100:F#4.ogg
153,192,21518,1,0,0:0:0:100:G2.ogg
358,192,21725,1,0,0:0:0:100:A4.ogg
51,192,21725,1,0,0:0:0:100:D3.ogg
460,192,21932,1,0,0:0:0:100:D5.ogg
153,192,21932,1,0,0:0:0:100:G3.ogg
460,192,22138,128,0,22345:0:0:0:100:D5.ogg
51,192,22138,1,0,0:0:0:100:A3.ogg
51,192,22345,1,0,0:0:0:100:B3.ogg
358,192,22552,1,0,0:0:0:100:C#5.ogg
153,192,22552,1,0,0:0:0:100:D4.ogg
460,192,22759,1,0,0:0:0:100:E5.ogg
153,192,22759,1,0,0:0:0:100:G4.ogg
153,192,22966,1,0,0:0:0:100:D4.ogg
256,192,23173,1,0,0:0:0:100:D5.ogg
51,192,23173,1,0,0:0:0:100:A2.ogg
358,192,23380,1,0,0:0:0:100:E5.ogg
51,192,23380,1,0,0:0:0:100:D3.ogg
460,192,23587,1,0,0:0:0:100:F#5.ogg
153,192,23587,1,0,0:0:0:100:A3.ogg
358,192,23794,128,0,24621:0:0:0:100:D5.ogg
153,192,23794,1,0,0:0:0:100:C#4.ogg
51,192,24001,1,0,0:0:0:100:D4.ogg
51,192,24207,1,0,0:0:0:100:E4.ogg
153,192,24414,1,0,0:0:0:100:F#4.ogg
51,192,24621,1,0,0:0:0:100:A3.ogg
358,192,24828,1,0,0:0:0:100:F#4.ogg
51,192,24828,1,0,0:0:0:100:B2.ogg
256,192,25035,1,0,0:0:0:100:A4.ogg
51,192,25035,1,0,0:0:0:100:F#3.ogg
358,192,25242,1,0,0:0:0:100:C#5.ogg
153,192,25242,1,0,0:0:0:100:B3.ogg
460,192,25449,128,0,25656:0:0:0:100:D5.ogg
153,192,25449,1,0,0:0:0:100:C#4.ogg
51,192,25656,1,0,0:0:0:100:D4.ogg
256,192,25863,1,0,0:0:0:100:C#5.ogg
51,192,25863,1,0,0:0:0:100:E4.ogg
460,192,26069,128,0,27725:0:0:0:100:D5.ogg
153,192,26069,1,0,0:0:0:100:D4.ogg
51,192,26276,1,0,0:0:0:100:C#4.ogg
51,192,26483,1,0,0:0:0:100:B2.ogg
153,192,26690,1,0,0:0:0:100:F#3.ogg
153,192,26897,1,0,0:0:0:100:C#4.ogg
51,192,27104,1,0,0:0:0:100:F#3.ogg
153,192,27311,1,0,0:0:0:100:D4.ogg
51,192,27518,1,0,0:0:0:100:F#3.ogg
153,192,27725,1,0,0:0:0:100:E4.ogg
51,192,27932,1,0,0:0:0:100:F#3.ogg
460,192,27932,1,0,0:0:0:100:B4.ogg
256,192,28138,1,0,0:0:0:100:B4.ogg
51,192,28138,1,0,0:0:0:100:G2.ogg
51,192,28345,1,0,0:0:0:100:D3.ogg
256,192,28552,1,0,0:0:0:100:C#5.ogg
153,192,28552,1,0,0:0:0:100:G3.ogg
153,192,28759,1,0,0:0:0:100:A3.ogg
256,192,28966,1,0,0:0:0:100:D5.ogg
51,192,28966,1,0,0:0:0:100:B3.ogg
153,192,29173,1,0,0:0:0:100:D4.ogg
460,192,29380,1,0,0:0:0:100:E5.ogg
153,192,29380,1,0,0:0:0:100:G4.ogg
51,192,29587,1,0,0:0:0:100:G3.ogg
460,192,29794,128,0,30828:0:0:0:100:B4.ogg
358,192,29794,128,0,30828:0:0:0:100:G4.ogg
51,192,29794,1,0,0:0:0:100:E2.ogg
51,192,30001,1,0,0:0:0:100:B2.ogg
153,192,30207,1,0,0:0:0:100:E3.ogg
153,192,30414,1,0,0:0:0:100:F#3.ogg
51,192,30621,1,0,0:0:0:100:G3.ogg
153,192,30828,1,0,0:0:0:100:B3.ogg
153,192,31035,1,0,0:0:0:100:E4.ogg
358,192,31035,1,0,0:0:0:100:B4.ogg
51,192,31242,1,0,0:0:0:100:B3.ogg
460,192,31449,1,0,0:0:0:100:C#5.ogg
51,192,31449,1,0,0:0:0:100:F#2.ogg
51,192,31656,1,0,0:0:0:100:E3.ogg
358,192,31863,1,0,0:0:0:100:A4.ogg
153,192,31863,1,0,0:0:0:100:F#3.ogg
153,192,32069,1,0,0:0:0:100:A3.ogg
358,192,32276,1,0,0:0:0:100:B4.ogg
153,192,32276,1,0,0:0:0:100:E4.ogg
153,192,32483,1,0,0:0:0:100:A3.ogg
460,192,32690,128,0,34552:0:0:0:100:B4.ogg
153,192,32690,1,0,0:0:0:100:F#3.ogg
51,192,32897,1,0,0:0:0:100:E3.ogg
51,192,33104,1,0,0:0:0:100:G2.ogg
51,192,33311,1,0,0:0:0:100:F#3.ogg
153,192,33518,1,0,0:0:0:100:B3.ogg
153,192,33725,1,0,0:0:0:100:C#4.ogg
51,192,33932,1,0,0:0:0:100:D4.ogg
51,192,34138,1,0,0:0:0:100:F#4.ogg
51,192,34345,1,0,0:0:0:100:A4.ogg
358,192,34759,1,0,0:0:0:100:F#4.ogg
51,192,34759,1,0,0:0:0:100:G2.ogg
256,192,34966,1,0,0:0:0:100:A4.ogg
153,192,34966,1,0,0:0:0:100:D3.ogg
358,192,35173,1,0,0:0:0:100:D5.ogg
51,192,35173,1,0,0:0:0:100:G3.ogg
358,192,35380,128,0,35587:0:0:0:100:D5.ogg
51,192,35380,1,0,0:0:0:100:A3.ogg
153,192,35587,1,0,0:0:0:100:B3.ogg
256,192,35794,1,0,0:0:0:100:C#5.ogg
51,192,35794,1,0,0:0:0:100:D4.ogg
460,192,36001,1,0,0:0:0:100:E5.ogg
51,192,36001,1,0,0:0:0:100:G4.ogg
460,192,36207,1,0,0:0:0:100:E5.ogg
153,192,36207,1,0,0:0:0:100:D4.ogg
256,192,36414,1,0,0:0:0:100:D5.ogg
51,192,36414,1,0,0:0:0:100:A2.ogg
358,192,36621,1,0,0:0:0:100:E5.ogg
153,192,36621,1,0,0:0:0:100:D3.ogg
460,192,36828,1,0,0:0:0:100:F#5.ogg
51,192,36828,1,0,0:0:0:100:A3.ogg
358,192,37035,128,0,37863:0:0:0:100:D5.ogg
51,192,37035,1,0,0:0:0:100:C#4.ogg
153,192,37242,1,0,0:0:0:100:D4.ogg
51,192,37449,1,0,0:0:0:100:E4.ogg
153,192,37656,1,0,0:0:0:100:F#4.ogg
51,192,37863,1,0,0:0:0:100:A3.ogg
358,192,38069,1,0,0:0:0:100:F#4.ogg
51,192,38069,1,0,0:0:0:100:B2.ogg
256,192,38276,1,0,0:0:0:100:A4.ogg
153,192,38276,1,0,0:0:0:100:F#3.ogg
51,192,38483,1,0,0:0:0:100:B3.ogg
358,192,38483,1,0,0:0:0:100:C#5.ogg
460,192,38690,128,0,38897:0:0:0:100:D5.ogg
51,192,38690,1,0,0:0:0:100:C#4.ogg
51,192,38897,1,0,0:0:0:100:D4.ogg
358,192,39104,1,0,0:0:0:100:C#5.ogg
51,192,39104,1,0,0:0:0:100:E4.ogg
460,192,39311,128,0,40966:0:0:0:100:D5.ogg
153,192,39311,1,0,0:0:0:100:D5.ogg
51,192,39518,1,0,0:0:0:100:C#4.ogg
51,192,39725,1,0,0:0:0:100:B2.ogg
153,192,39932,1,0,0:0:0:100:F#3.ogg
51,192,40138,1,0,0:0:0:100:C#4.ogg
51,192,40345,1,0,0:0:0:100:F#3.ogg
153,192,40552,1,0,0:0:0:100:D4.ogg
51,192,40759,1,0,0:0:0:100:F#3.ogg
51,192,40966,1,0,0:0:0:100:E4.ogg
51,192,41173,1,0,0:0:0:100:F#3.ogg
358,192,41173,1,0,0:0:0:100:B4.ogg
358,192,41380,1,0,0:0:0:100:B4.ogg
51,192,41380,1,0,0:0:0:100:G2.ogg
153,192,41587,1,0,0:0:0:100:D3.ogg
256,192,41794,1,0,0:0:0:100:C#5.ogg
153,192,41794,1,0,0:0:0:100:G3.ogg
51,192,42001,1,0,0:0:0:100:A3.ogg
358,192,42207,1,0,0:0:0:100:D5.ogg
153,192,42207,1,0,0:0:0:100:B3.ogg
51,192,42414,1,0,0:0:0:100:D4.ogg
460,192,42621,1,0,0:0:0:100:E5.ogg
153,192,42621,1,0,0:0:0:100:G4.ogg
51,192,42828,1,0,0:0:0:100:G3.ogg
460,192,43035,128,0,44069:0:0:0:100:B4.ogg
51,192,43035,1,0,0:0:0:100:E2.ogg
358,192,43035,128,0,44069:0:0:0:100:G4.ogg
51,192,43242,1,0,0:0:0:100:B2.ogg
153,192,43449,1,0,0:0:0:100:E3.ogg
153,192,43656,1,0,0:0:0:100:F#3.ogg
51,192,43863,1,0,0:0:0:100:G3.ogg
153,192,44069,1,0,0:0:0:100:B3.ogg
51,192,44276,1,0,0:0:0:100:E4.ogg
358,192,44276,1,0,0:0:0:100:B4.ogg
51,192,44483,1,0,0:0:0:100:B3.ogg
256,192,44690,1,0,0:0:0:100:C#5.ogg
51,192,44690,1,0,0:0:0:100:F#2.ogg
153,192,44897,1,0,0:0:0:100:E3.ogg
256,192,45104,1,0,0:0:0:100:D5.ogg
153,192,45104,1,0,0:0:0:100:F#3.ogg
51,192,45311,1,0,0:0:0:100:A3.ogg
358,192,45518,1,0,0:0:0:100:E5.ogg
51,192,45518,1,0,0:0:0:100:A#2.ogg
153,192,45725,1,0,0:0:0:100:F#3.ogg
460,192,45932,1,0,0:0:0:100:F#5.ogg
153,192,45932,1,0,0:0:0:100:A#3.ogg
51,192,46138,1,0,0:0:0:100:F#3.ogg
460,192,46345,128,0,47380:0:0:0:100:F#5.ogg
358,192,46345,128,0,47380:0:0:0:100:D5.ogg
51,192,46345,1,0,0:0:0:100:D2.ogg
153,192,46552,1,0,0:0:0:100:A2.ogg
153,192,46759,1,0,0:0:0:100:D3.ogg
51,192,46966,1,0,0:0:0:100:E3.ogg
153,192,47173,1,0,0:0:0:100:F#3.ogg
51,192,47380,1,0,0:0:0:100:A3.ogg
153,192,47587,1,0,0:0:0:100:D4.ogg
358,192,47587,1,0,0:0:0:100:F#5.ogg
51,192,47794,1,0,0:0:0:100:A3.ogg
460,192,48001,1,0,0:0:0:100:A5.ogg
358,192,48001,1,0,0:0:0:100:B4.ogg
51,192,48001,1,0,0:0:0:100:G2.ogg
358,192,48207,128,0,48414:0:0:0:100:F#5.ogg
51,192,48207,1,0,0:0:0:100:D3.ogg
153,192,48414,1,0,0:0:0:100:G3.ogg
153,192,48621,1,0,0:0:0:100:B3.ogg
460,192,48621,128,0,48828:0:0:0:100:A5.ogg
256,192,48621,128,0,48828:0:0:0:100:B4.ogg
51,192,48828,1,0,0:0:0:100:D4.ogg
153,192,49035,1,0,0:0:0:100:B3.ogg
358,192,49035,1,0,0:0:0:100:G5.ogg
153,192,49242,1,0,0:0:0:100:G3.ogg
460,192,49242,1,0,0:0:0:100:F#5.ogg
51,192,49449,1,0,0:0:0:100:D3.ogg
460,192,49656,128,0,50690:0:0:0:100:D5.ogg
51,192,49656,1,0,0:0:0:100:G#2.ogg
51,192,49863,1,0,0:0:0:100:E3.ogg
153,192,50069,1,0,0:0:0:100:G#3.ogg
153,192,50276,1,0,0:0:0:100:B3.ogg
51,192,50483,1,0,0:0:0:100:E4.ogg
153,192,50690,1,0,0:0:0:100:B3.ogg
153,192,50897,1,0,0:0:0:100:G#3.ogg
460,192,50897,1,0,0:0:0:100:D5.ogg
358,192,50897,1,0,0:0:0:100:B4.ogg
51,192,51104,1,0,0:0:0:100:E3.ogg
256,192,51311,1,0,0:0:0:100:A#4.ogg
460,192,51311,1,0,0:0:0:100:E5.ogg
51,192,51311,1,0,0:0:0:100:A#2.ogg
358,192,51518,128,0,51725:0:0:0:100:D5.ogg
51,192,51518,1,0,0:0:0:100:F#3.ogg
153,192,51725,1,0,0:0:0:100:A#3.ogg
256,192,51932,128,0,52138:0:0:0:100:B4.ogg
153,192,51932,1,0,0:0:0:100:C#4.ogg
51,192,52138,1,0,0:0:0:100:F#4.ogg
358,192,52345,1,0,0:0:0:100:E5.ogg
153,192,52345,1,0,0:0:0:100:C#4.ogg
460,192,52552,1,0,0:0:0:100:F#5.ogg
153,192,52552,1,0,0:0:0:100:A#3.ogg
51,192,52759,1,0,0:0:0:100:F#3.ogg
460,192,52966,128,0,53587:0:0:0:100:F#5.ogg
358,192,52966,128,0,53587:0:0:0:100:D5.ogg
51,192,52966,1,0,0:0:0:100:B2.ogg
51,192,53173,1,0,0:0:0:100:F#3.ogg
153,192,53380,1,0,0:0:0:100:B3.ogg
153,192,53587,1,0,0:0:0:100:D4.ogg
51,192,53794,1,0,0:0:0:100:D#3.ogg
358,192,53794,1,0,0:0:0:100:D#6.ogg
51,192,54001,1,0,0:0:0:100:B3.ogg
256,192,54001,1,0,0:0:0:100:E6.ogg
153,192,54207,1,0,0:0:0:100:D#4.ogg
358,192,54207,1,0,0:0:0:100:F#6.ogg
51,192,54414,1,0,0:0:0:100:F#4.ogg
460,192,54414,1,0,0:0:0:100:G#6.ogg
256,192,54621,1,0,0:0:0:100:C#5.ogg
460,192,54621,128,0,54828:0:0:0:100:G#5.ogg
51,192,54621,1,0,0:0:0:100:A1.ogg
153,192,54621,1,0,0:0:0:100:A2.ogg
51,192,54828,1,0,0:0:0:100:E2.ogg
358,192,54828,1,0,0:0:0:100:F#5.ogg
358,192,55035,128,0,55242:0:0:0:100:F#5.ogg
153,192,55035,1,0,0:0:0:100:A2.ogg
51,192,55242,1,0,0:0:0:100:C#3.ogg
256,192,55242,128,0,55449:0:0:0:100:E5.ogg
153,192,55449,1,0,0:0:0:100:E3.ogg
153,192,55656,1,0,0:0:0:100:A3.ogg
358,192,55863,1,0,0:0:0:100:E5.ogg
460,192,55863,1,0,0:0:0:100:G#5.ogg
153,192,55863,1,0,0:0:0:100:E3.ogg
256,192,56069,128,0,56276:0:0:0:100:E5.ogg
460,192,56069,128,0,56276:0:0:0:100:B5.ogg
51,192,56069,1,0,0:0:0:100:A2.ogg
51,192,56276,1,0,0:0:0:100:A1.ogg
51,192,56483,1,0,0:0:0:100:A2.ogg
153,192,56690,1,0,0:0:0:100:E3.ogg
358,192,56690,1,0,0:0:0:100:E5.ogg
460,192,56690,1,0,0:0:0:100:G#5.ogg
153,192,56897,1,0,0:0:0:100:A3.ogg
460,192,56897,128,0,57725:0:0:0:100:B5.ogg
51,192,57104,1,0,0:0:0:100:A2.ogg
153,192,57311,1,0,0:0:0:100:A3.ogg
153,192,57518,1,0,0:0:0:100:E3.ogg
51,192,57725,1,0,0:0:0:100:C#3.ogg
256,192,57932,1,0,0:0:0:100:C#5.ogg
460,192,57932,128,0,58138:0:0:0:100:G#5.ogg
51,192,57932,1,0,0:0:0:100:A1.ogg
153,192,57932,1,0,0:0:0:100:A2.ogg
51,192,58138,1,0,0:0:0:100:E2.ogg
358,192,58138,1,0,0:0:0:100:F#5.ogg
358,192,58345,128,0,58552:0:0:0:100:F#5.ogg
153,192,58345,1,0,0:0:0:100:A2.ogg
153,192,58552,1,0,0:0:0:100:C#3.ogg
256,192,58552,128,0,58759:0:0:0:100:E5.ogg
153,192,58759,1,0,0:0:0:100:E3.ogg
51,192,58966,1,0,0:0:0:100:A3.ogg
153,192,59173,1,0,0:0:0:100:E3.ogg
460,192,59173,1,0,0:0:0:100:G#5.ogg
358,192,59173,1,0,0:0:0:100:E5.ogg
51,192,59380,1,0,0:0:0:100:A2.ogg
460,192,59380,128,0,59587:0:0:0:100:B5.ogg
256,192,59380,128,0,59587:0:0:0:100:E5.ogg
51,192,59587,1,0,0:0:0:100:A1.ogg
51,192,59794,1,0,0:0:0:100:A2.ogg
153,192,60001,1,0,0:0:0:100:E3.ogg
460,192,60001,1,0,0:0:0:100:G#5.ogg
358,192,60001,1,0,0:0:0:100:E5.ogg
153,192,60207,1,0,0:0:0:100:A3.ogg
460,192,60207,128,0,60414:0:0:0:100:B5.ogg
256,192,60207,128,0,60414:0:0:0:100:E5.ogg
51,192,60414,1,0,0:0:0:100:A2.ogg
51,192,60621,1,0,0:0:0:100:A3.ogg
460,192,60828,1,0,0:0:0:100:C#6.ogg
153,192,60828,1,0,0:0:0:100:E3.ogg
460,192,61035,128,0,63725:0:0:0:100:B5.ogg
358,192,61035,128,0,63725:0:0:0:100:E5.ogg
51,192,61035,1,0,0:0:0:100:C#3.ogg
51,192,61242,1,0,0:0:0:100:C#2.ogg
153,192,61242,1,0,0:0:0:100:C#3.ogg
51,192,61449,1,0,0:0:0:100:G#2.ogg
153,192,61656,1,0,0:0:0:100:C#3.ogg
51,192,61863,1,0,0:0:0:100:E3.ogg
153,192,62069,1,0,0:0:0:100:G#3.ogg
51,192,62276,1,0,0:0:0:100:C#4.ogg
153,192,62483,1,0,0:0:0:100:G#3.ogg
51,192,62690,1,0,0:0:0:100:E3.ogg
51,192,62897,1,0,0:0:0:100:C#2.ogg
153,192,62897,1,0,0:0:0:100:C#3.ogg
153,192,63104,1,0,0:0:0:100:G#2.ogg
51,192,63311,1,0,0:0:0:100:C#3.ogg
153,192,63518,1,0,0:0:0:100:E3.ogg
51,192,63725,1,0,0:0:0:100:G#3.ogg
51,192,63932,1,0,0:0:0:100:C#4.ogg
460,192,63932,1,0,0:0:0:100:G#5.ogg
153,192,64138,1,0,0:0:0:100:G#3.ogg
358,192,64138,1,0,0:0:0:100:F#5.ogg
51,192,64345,1,0,0:0:0:100:E3.ogg
256,192,64345,1,0,0:0:0:100:E5.ogg
358,192,64552,1,0,0:0:0:100:F#5.ogg
51,192,64552,1,0,0:0:0:100:B1.ogg
153,192,64552,1,0,0:0:0:100:B2.ogg
460,192,64759,128,0,65173:0:0:0:100:G#5.ogg
153,192,64759,1,0,0:0:0:100:F#2.ogg
51,192,64966,1,0,0:0:0:100:B2.ogg
153,192,65173,1,0,0:0:0:100:F#3.ogg
153,192,65380,1,0,0:0:0:100:B3.ogg
460,192,65587,1,0,0:0:0:100:G#5.ogg
153,192,65587,1,0,0:0:0:100:F#3.ogg
51,192,65794,1,0,0:0:0:100:B2.ogg
358,192,65794,1,0,0:0:0:100:F#5.ogg
153,192,66001,1,0,0:0:0:100:F#3.ogg
256,192,66001,1,0,0:0:0:100:E5.ogg
358,192,66207,1,0,0:0:0:100:B4.ogg
51,192,66207,1,0,0:0:0:100:B1.ogg
460,192,66207,1,0,0:0:0:100:F#5.ogg
51,192,66414,1,0,0:0:0:100:B2.ogg
358,192,66621,1,0,0:0:0:100:G#5.ogg
153,192,66621,1,0,0:0:0:100:F#3.ogg
153,192,66828,1,0,0:0:0:100:B3.ogg
460,192,67035,1,0,0:0:0:100:B5.ogg
51,192,67035,1,0,0:0:0:100:B2.ogg
153,192,67242,1,0,0:0:0:100:F#3.ogg
358,192,67449,1,0,0:0:0:100:F#5.ogg
51,192,67449,1,0,0:0:0:100:B2.ogg
153,192,67656,1,0,0:0:0:100:F#3.ogg
460,192,67863,1,0,0:0:0:100:G#5.ogg
153,192,67863,1,0,0:0:0:100:A2.ogg
153,192,68069,1,0,0:0:0:100:E2.ogg
256,192,68276,1,0,0:0:0:100:A4.ogg
460,192,68276,128,0,68483:0:0:0:100:F#5.ogg
51,192,68276,1,0,0:0:0:100:A2.ogg
256,192,68483,128,0,68690:0:0:0:100:A4.ogg
153,192,68483,1,0,0:0:0:100:C#3.ogg
358,192,68483,128,0,68690:0:0:0:100:E5.ogg
51,192,68690,1,0,0:0:0:100:E3.ogg
51,192,68897,1,0,0:0:0:100:A3.ogg
358,192,69104,1,0,0:0:0:100:G#5.ogg
256,192,69104,1,0,0:0:0:100:E5.ogg
153,192,69104,1,0,0:0:0:100:E3.ogg
460,192,69311,128,0,69518:0:0:0:100:B5.ogg
358,192,69311,128,0,69518:0:0:0:100:E5.ogg
51,192,69311,1,0,0:0:0:100:A2.ogg
51,192,69518,1,0,0:0:0:100:A1.ogg
51,192,69725,1,0,0:0:0:100:A2.ogg
153,192,69932,1,0,0:0:0:100:E3.ogg
256,192,69932,1,0,0:0:0:100:E5.ogg
358,192,69932,1,0,0:0:0:100:G#5.ogg
153,192,70138,1,0,0:0:0:100:A3.ogg
460,192,70138,128,0,70966:0:0:0:100:B5.ogg
51,192,70345,1,0,0:0:0:100:A2.ogg
153,192,70552,1,0,0:0:0:100:A3.ogg
153,192,70759,1,0,0:0:0:100:E3.ogg
51,192,70966,1,0,0:0:0:100:C#3.ogg
256,192,71173,1,0,0:0:0:100:C#5.ogg
460,192,71173,128,0,71380:0:0:0:100:G#5.ogg
153,192,71173,1,0,0:0:0:100:A2.ogg
153,192,71380,1,0,0:0:0:100:E2.ogg
358,192,71380,1,0,0:0:0:100:F#5.ogg
358,192,71587,128,0,71794:0:0:0:100:F#5.ogg
51,192,71587,1,0,0:0:0:100:A2.ogg
256,192,71794,128,0,72001:0:0:0:100:E5.ogg
153,192,71794,1,0,0:0:0:100:C#3.ogg
51,192,72001,1,0,0:0:0:100:E3.ogg
51,192,72207,1,0,0:0:0:100:A3.ogg
153,192,72414,1,0,0:0:0:100:E3.ogg
358,192,72414,1,0,0:0:0:100:E5.ogg
460,192,72414,1,0,0:0:0:100:G#5.ogg
51,192,72621,1,0,0:0:0:100:A2.ogg
460,192,72621,128,0,72828:0:0:0:100:B5.ogg
256,192,72621,128,0,72828:0:0:0:100:E5.ogg
51,192,72828,1,0,0:0:0:100:A1.ogg
51,192,73035,1,0,0:0:0:100:A2.ogg
153,192,73242,1,0,0:0:0:100:E3.ogg
256,192,73242,1,0,0:0:0:100:E5.ogg
358,192,73242,1,0,0:0:0:100:G#5.ogg
153,192,73449,1,0,0:0:0:100:A3.ogg
460,192,73449,128,0,73656:0:0:0:100:B5.ogg
256,192,73449,128,0,73656:0:0:0:100:E5.ogg
51,192,73656,1,0,0:0:0:100:A2.ogg
153,192,73863,1,0,0:0:0:100:A3.ogg
153,192,74069,1,0,0:0:0:100:E3.ogg
460,192,74069,1,0,0:0:0:100:C#6.ogg
51,192,74276,1,0,0:0:0:100:C#3.ogg
358,192,74276,128,0,75725:0:0:0:100:B5.ogg
51,192,74483,1,0,0:0:0:100:B1.ogg
153,192,74483,1,0,0:0:0:100:B2.ogg
153,192,74690,1,0,0:0:0:100:F#2.ogg
51,192,74897,1,0,0:0:0:100:B2.ogg
153,192,75104,1,0,0:0:0:100:F#3.ogg
51,192,75311,1,0,0:0:0:100:B3.ogg
153,192,75518,1,0,0:0:0:100:F#3.ogg
51,192,75725,1,0,0:0:0:100:B2.ogg
153,192,75932,1,0,0:0:0:100:F#3.ogg
460,192,75932,1,0,0:0:0:100:B5.ogg
460,192,76138,1,0,0:0:0:100:D#6.ogg
256,192,76138,1,0,0:0:0:100:F#5.ogg
153,192,76138,1,0,0:0:0:100:B2.ogg
358,192,76345,1,0,0:0:0:100:B5.ogg
153,192,76345,1,0,0:0:0:100:F#2.ogg
358,192,76552,128,0,77173:0:0:0:100:B5.ogg
51,192,76552,1,0,0:0:0:100:B2.ogg
153,192,76759,1,0,0:0:0:100:F#3.ogg
51,192,76966,1,0,0:0:0:100:B3.ogg
153,192,77173,1,0,0:0:0:100:F#3.ogg
51,192,77380,1,0,0:0:0:100:B2.ogg
256,192,77380,1,0,0:0:0:100:F#5.ogg
153,192,77587,1,0,0:0:0:100:F#3.ogg
358,192,77587,128,0,79035:0:0:0:100:B5.ogg
51,192,77794,1,0,0:0:0:100:B1.ogg
153,192,77794,1,0,0:0:0:100:B2.ogg
153,192,78001,1,0,0:0:0:100:F#2.ogg
51,192,78207,1,0,0:0:0:100:B2.ogg
153,192,78414,1,0,0:0:0:100:F#3.ogg
153,192,78621,1,0,0:0:0:100:B3.ogg
153,192,78828,1,0,0:0:0:100:F#3.ogg
51,192,79035,1,0,0:0:0:100:B2.ogg
153,192,79242,1,0,0:0:0:100:F#3.ogg
460,192,79242,1,0,0:0:0:100:G#5.ogg
460,192,79449,1,0,0:0:0:100:F#6.ogg
256,192,79449,1,0,0:0:0:100:F#5.ogg
51,192,79449,1,0,0:0:0:100:C#3.ogg
153,192,79656,1,0,0:0:0:100:G#3.ogg
460,192,79863,1,0,0:0:0:100:E6.ogg
358,192,79863,1,0,0:0:0:100:E5.ogg
51,192,79863,1,0,0:0:0:100:C#3.ogg
51,192,80069,128,0,80483:0:0:0:100:A2.ogg
358,192,80276,1,0,0:0:0:100:C#6.ogg
256,192,80276,1,0,0:0:0:100:C#5.ogg
153,192,80276,1,0,0:0:0:100:A3.ogg
153,192,80483,1,0,0:0:0:100:C#4.ogg
358,192,80690,128,0,82345:0:0:0:100:B4.ogg
460,192,80690,128,0,82345:0:0:0:100:B5.ogg
51,192,80897,1,0,0:0:0:100:E3.ogg
51,192,81104,1,0,0:0:0:100:B3.ogg
153,192,81311,1,0,0:0:0:100:E4.ogg
51,192,81518,128,0,81932:0:0:0:100:E3.ogg
153,192,81725,1,0,0:0:0:100:B3.ogg
153,192,81932,1,0,0:0:0:100:E4.ogg
51,192,82138,128,0,82552:0:0:0:100:G#2.ogg
153,192,82345,1,0,0:0:0:100:E3.ogg
153,192,82552,1,0,0:0:0:100:B3.ogg
460,192,82552,1,0,0:0:0:100:G#5.ogg
460,192,82759,1,0,0:0:0:100:F#6.ogg
256,192,82759,1,0,0:0:0:100:F#5.ogg
51,192,82759,1,0,0:0:0:100:C#3.ogg
153,192,82966,1,0,0:0:0:100:G#3.ogg
460,192,83173,1,0,0:0:0:100:E6.ogg
358,192,83173,1,0,0:0:0:100:E5.ogg
51,192,83173,1,0,0:0:0:100:C#3.ogg
358,192,83587,1,0,0:0:0:100:C#6.ogg
256,192,83587,1,0,0:0:0:100:C#5.ogg
51,192,83587,1,0,0:0:0:100:A3.ogg
153,192,83794,1,0,0:0:0:100:C#4.ogg
460,192,84001,128,0,85656:0:0:0:100:B5.ogg
358,192,84001,128,0,85656:0:0:0:100:B4.ogg
51,192,84207,1,0,0:0:0:100:E3.ogg
51,192,84414,1,0,0:0:0:100:B3.ogg
153,192,84621,1,0,0:0:0:100:E4.ogg
51,192,84828,128,0,85242:0:0:0:100:E3.ogg
153,192,85035,1,0,0:0:0:100:B3.ogg
153,192,85242,1,0,0:0:0:100:E4.ogg
51,192,85449,128,0,85863:0:0:0:100:G#2.ogg
153,192,85656,1,0,0:0:0:100:E3.ogg
153,192,85863,1,0,0:0:0:100:B3.ogg
460,192,85863,1,0,0:0:0:100:G#5.ogg
460,192,86069,1,0,0:0:0:100:F#6.ogg
256,192,86069,1,0,0:0:0:100:F#5.ogg
51,192,86069,1,0,0:0:0:100:C#3.ogg
153,192,86276,1,0,0:0:0:100:G#3.ogg
358,192,86483,1,0,0:0:0:100:E5.ogg
460,192,86483,1,0,0:0:0:100:E6.ogg
51,192,86483,1,0,0:0:0:100:C#3.ogg
51,192,86690,128,0,87104:0:0:0:100:A2.ogg
358,192,86897,1,0,0:0:0:100:B5.ogg
256,192,86897,1,0,0:0:0:100:B4.ogg
153,192,86897,1,0,0:0:0:100:E3.ogg
153,192,87104,1,0,0:0:0:100:B3.ogg
460,192,87311,128,0,89380:0:0:0:100:C#6.ogg
358,192,87311,128,0,89380:0:0:0:100:E5.ogg
51,192,87311,128,0,89380:0:0:0:100:G#3.ogg
153,192,87311,128,0,89380:0:0:0:100:C#4.ogg
256,192,87311,128,0,89380:0:0:0:100:C#5.ogg
