osu file format v12

[General]
AudioFilename: angelbeatsichibannotakaramonoMusic.mp3
AudioLeadIn: 0
PreviewTime: -1
Countdown: 1
SampleSet: Normal
StackLeniency: 0.7
Mode: 3
LetterboxInBreaks: 1
SpecialStyle: 0
WidescreenStoryboard: 0

[Editor]
DistanceSpacing: 1.2
BeatDivisor: 4
GridSize: 32
TimelineZoom: 1

[Metadata]
Title:Theme Songs (Piano Ver.)
TitleUnicode:Theme Songs (Piano Ver.)
Artist:Angel Beats!
ArtistUnicode:Angel Beats!
Creator:Irho Ttamo
Version:Brave Song 7k
Source:Angel Beats!
Tags:
BeatmapID:435537
BeatmapSetID:176453

[Difficulty]
HPDrainRate:5
CircleSize:7
OverallDifficulty:5
ApproachRate:5
SliderMultiplier:1.4
SliderTickRate:1

[Events]
//Background and Video events
0,0,"ab15.jpg",0,0
//Break Periods
//Storyboard Layer 0 (Background)
//Storyboard Layer 1 (Fail)
//Storyboard Layer 2 (Pass)
//Storyboard Layer 3 (Foreground)
//Storyboard Sound Samples
//Background Colour Transformations
3,100,163,162,255

[TimingPoints]
0,468.75,4,1,0,100,1,0
53085,-100,4,1,0,100,0,1
67968,-100,4,1,0,100,0,0
68085,-100,4,1,0,100,0,1
82734,-100,4,1,0,100,0,0

[HitObjects]
402,192,3398,128,0,4335:0:0:0:100:D#5.ogg
36,192,3398,1,0,0:0:0:100:D#3.ogg
109,192,3632,1,0,0:0:0:100:A#3.ogg
182,192,3867,1,0,0:0:0:100:D#4.ogg
256,192,4101,128,0,5273:0:0:0:100:A#4.ogg
475,192,4335,1,0,0:0:0:100:F5.ogg
402,192,4804,1,0,0:0:0:100:D#5.ogg
475,192,5039,128,0,5507:0:0:0:100:F5.ogg
402,192,5507,128,0,5976:0:0:0:100:D#5.ogg
36,192,5507,1,0,0:0:0:100:D3.ogg
109,192,5742,1,0,0:0:0:100:A#3.ogg
182,192,5977,1,0,0:0:0:100:D#4.ogg
256,192,6210,128,0,7382:0:0:0:100:A#4.ogg
402,192,6445,1,0,0:0:0:100:D#5.ogg
475,192,6914,1,0,0:0:0:100:F5.ogg
475,192,7382,128,0,8320:0:0:0:100:G5.ogg
36,192,7382,1,0,0:0:0:100:C3.ogg
109,192,7617,1,0,0:0:0:100:A#3.ogg
182,192,7852,1,0,0:0:0:100:D#4.ogg
256,192,8085,128,0,9257:0:0:0:100:A#4.ogg
402,192,8320,1,0,0:0:0:100:G5.ogg
475,192,8554,1,0,0:0:0:100:G#5.ogg
402,192,9023,128,0,9492:0:0:0:100:G5.ogg
36,192,9257,1,0,0:0:0:100:G#2.ogg
329,192,9492,128,0,10429:0:0:0:100:D#5.ogg
109,192,9492,1,0,0:0:0:100:A#3.ogg
182,192,9727,1,0,0:0:0:100:D#4.ogg
256,192,9960,128,0,11132:0:0:0:100:A#4.ogg
402,192,10429,1,0,0:0:0:100:F5.ogg
36,192,10898,1,0,0:0:0:100:D#2.ogg
402,192,10898,128,0,11835:0:0:0:100:G5.ogg
109,192,11133,1,0,0:0:0:100:A#3.ogg
182,192,11368,1,0,0:0:0:100:D#4.ogg
256,192,11601,128,0,12773:0:0:0:100:A#4.ogg
329,192,11835,1,0,0:0:0:100:G5.ogg
475,192,12070,1,0,0:0:0:100:G#5.ogg
402,192,12539,128,0,13007:0:0:0:100:G5.ogg
36,192,12773,1,0,0:0:0:100:A#2.ogg
329,192,13007,128,0,13945:0:0:0:100:D#5.ogg
109,192,13007,1,0,0:0:0:100:A#3.ogg
182,192,13243,1,0,0:0:0:100:D#4.ogg
256,192,13476,128,0,14648:0:0:0:100:A#4.ogg
402,192,13945,1,0,0:0:0:100:D#5.ogg
475,192,14179,1,0,0:0:0:100:F5.ogg
475,192,14648,128,0,15585:0:0:0:100:G5.ogg
402,192,14648,128,0,15585:0:0:0:100:D#5.ogg
329,192,14648,128,0,15585:0:0:0:100:A#3.ogg
36,192,14648,128,0,18164:0:0:0:100:C3.ogg
109,192,14648,128,0,18164:0:0:0:100:A#3.ogg
182,192,14648,128,0,18164:0:0:0:100:D#4.ogg
256,192,15585,1,0,0:0:0:100:G5.ogg
475,192,15820,1,0,0:0:0:100:G#5.ogg
402,192,16289,128,0,16757:0:0:0:100:G5.ogg
329,192,16757,128,0,17929:0:0:0:100:D#5.ogg
475,192,17695,1,0,0:0:0:100:D#6.ogg
402,192,17929,1,0,0:0:0:100:D#5.ogg
329,192,18164,1,0,0:0:0:100:A#4.ogg
36,192,18398,1,0,0:0:0:100:D#3.ogg
402,192,18398,128,0,19335:0:0:0:100:D#5.ogg
109,192,18632,1,0,0:0:0:100:A#3.ogg
182,192,18868,1,0,0:0:0:100:D#4.ogg
256,192,19101,128,0,20273:0:0:0:100:A#4.ogg
475,192,19335,1,0,0:0:0:100:F5.ogg
182,192,19570,1,0,0:0:0:100:D#4.ogg
402,192,19804,1,0,0:0:0:100:D#5.ogg
109,192,20039,1,0,0:0:0:100:A#3.ogg
475,192,20039,128,0,20507:0:0:0:100:F5.ogg
36,192,20273,1,0,0:0:0:100:D3.ogg
109,192,20507,1,0,0:0:0:100:A#3.ogg
402,192,20507,128,0,20976:0:0:0:100:D#5.ogg
182,192,20743,1,0,0:0:0:100:D#4.ogg
256,192,20976,128,0,22148:0:0:0:100:A#4.ogg
329,192,21210,1,0,0:0:0:100:D#5.ogg
182,192,21445,1,0,0:0:0:100:D#4.ogg
402,192,21679,1,0,0:0:0:100:F5.ogg
109,192,21914,1,0,0:0:0:100:A#3.ogg
475,192,22148,128,0,23085:0:0:0:100:G5.ogg
36,192,22148,1,0,0:0:0:100:C3.ogg
109,192,22382,1,0,0:0:0:100:A#3.ogg
182,192,22618,1,0,0:0:0:100:D#4.ogg
256,192,22851,128,0,24023:0:0:0:100:A#4.ogg
402,192,23085,1,0,0:0:0:100:G5.ogg
182,192,23320,1,0,0:0:0:100:D#4.ogg
475,192,23554,1,0,0:0:0:100:G#5.ogg
109,192,23789,1,0,0:0:0:100:A#3.ogg
402,192,23789,128,0,24257:0:0:0:100:G5.ogg
36,192,24023,1,0,0:0:0:100:G#2.ogg
329,192,24257,128,0,25429:0:0:0:100:D#5.ogg
109,192,24257,1,0,0:0:0:100:A#3.ogg
182,192,24492,1,0,0:0:0:100:D#4.ogg
256,192,24726,128,0,25898:0:0:0:100:A#4.ogg
182,192,25195,1,0,0:0:0:100:D#4.ogg
402,192,25429,1,0,0:0:0:100:F5.ogg
109,192,25664,1,0,0:0:0:100:A#3.ogg
475,192,25898,128,0,26835:0:0:0:100:G5.ogg
36,192,25898,1,0,0:0:0:100:G2.ogg
109,192,26132,1,0,0:0:0:100:A#3.ogg
182,192,26367,1,0,0:0:0:100:D#4.ogg
256,192,26601,128,0,27773:0:0:0:100:A#4.ogg
402,192,26835,1,0,0:0:0:100:G5.ogg
182,192,27070,1,0,0:0:0:100:D#4.ogg
475,192,27070,1,0,0:0:0:100:G#5.ogg
109,192,27539,1,0,0:0:0:100:A#3.ogg
402,192,27539,128,0,28007:0:0:0:100:G5.ogg
36,192,27773,1,0,0:0:0:100:F2.ogg
329,192,28007,128,0,28945:0:0:0:100:F5.ogg
109,192,28007,1,0,0:0:0:100:A#3.ogg
182,192,28242,1,0,0:0:0:100:D#4.ogg
256,192,28476,128,0,29648:0:0:0:100:A#4.ogg
182,192,28945,1,0,0:0:0:100:D#4.ogg
402,192,28945,1,0,0:0:0:100:D#5.ogg
475,192,29179,1,0,0:0:0:100:F5.ogg
109,192,29414,1,0,0:0:0:100:A#3.ogg
36,192,29648,1,0,0:0:0:100:D#3.ogg
402,192,29648,128,0,31289:0:0:0:100:D#5.ogg
109,192,29882,1,0,0:0:0:100:A#3.ogg
182,192,30117,1,0,0:0:0:100:D#4.ogg
256,192,30351,128,0,31523:0:0:0:100:A#4.ogg
36,192,30820,1,0,0:0:0:100:A#3.ogg
109,192,31054,1,0,0:0:0:100:D#4.ogg
182,192,31289,1,0,0:0:0:100:A#4.ogg
475,192,31523,128,0,32226:0:0:0:100:D6.ogg
402,192,31523,128,0,32226:0:0:0:100:A#5.ogg
329,192,31523,128,0,32226:0:0:0:100:D5.ogg
256,192,32402,1,0,0:0:0:100:D5.ogg
475,192,32460,128,0,33398:0:0:0:100:D6.ogg
256,192,33398,128,0,33867:0:0:0:100:D#4.ogg
329,192,33398,128,0,33867:0:0:0:100:A#4.ogg
36,192,33398,1,0,0:0:0:100:C3.ogg
109,192,33632,1,0,0:0:0:100:A#3.ogg
475,192,33867,1,0,0:0:0:100:A#5.ogg
182,192,34101,1,0,0:0:0:100:D#4.ogg
402,192,34101,1,0,0:0:0:100:D#5.ogg
329,192,34101,1,0,0:0:0:100:G4.ogg
329,192,34570,1,0,0:0:0:100:G4.ogg
109,192,34570,1,0,0:0:0:100:A#3.ogg
402,192,34804,1,0,0:0:0:100:D5.ogg
475,192,35039,128,0,36210:0:0:0:100:D#5.ogg
36,192,35039,1,0,0:0:0:100:D#3.ogg
109,192,35273,1,0,0:0:0:100:G#2.ogg
256,192,35507,1,0,0:0:0:100:A#4.ogg
36,192,35507,1,0,0:0:0:100:D#3.ogg
402,192,35742,1,0,0:0:0:100:A#5.ogg
329,192,35976,1,0,0:0:0:100:D#5.ogg
182,192,35976,1,0,0:0:0:100:D#3.ogg
256,192,36210,1,0,0:0:0:100:A#4.ogg
109,192,36445,1,0,0:0:0:100:A#3.ogg
329,192,36679,1,0,0:0:0:100:C5.ogg
36,192,36679,1,0,0:0:0:100:D#3.ogg
109,192,36914,1,0,0:0:0:100:A#3.ogg
329,192,37148,128,0,38085:0:0:0:100:A#4.ogg
36,192,37148,1,0,0:0:0:100:A#2.ogg
256,192,37382,1,0,0:0:0:100:F4.ogg
109,192,37382,1,0,0:0:0:100:F3.ogg
475,192,37617,1,0,0:0:0:100:A#5.ogg
402,192,37851,1,0,0:0:0:100:D#5.ogg
182,192,37851,1,0,0:0:0:100:A#3.ogg
256,192,38085,1,0,0:0:0:100:A#4.ogg
402,192,38320,1,0,0:0:0:100:D5.ogg
109,192,38320,1,0,0:0:0:100:F3.ogg
475,192,38554,1,0,0:0:0:100:D#5.ogg
329,192,38789,128,0,40898:0:0:0:100:A#4.ogg
182,192,38789,1,0,0:0:0:100:A#3.ogg
109,192,39023,1,0,0:0:0:100:F3.ogg
182,192,39257,1,0,0:0:0:100:A#3.ogg
475,192,39492,1,0,0:0:0:100:A#5.ogg
182,192,39726,1,0,0:0:0:100:D#4.ogg
402,192,39726,1,0,0:0:0:100:D#5.ogg
109,192,40195,1,0,0:0:0:100:A#3.ogg
256,192,40195,1,0,0:0:0:100:D5.ogg
182,192,40429,1,0,0:0:0:100:D#4.ogg
402,192,40429,1,0,0:0:0:100:D#5.ogg
109,192,40664,1,0,0:0:0:100:A#3.ogg
256,192,40664,1,0,0:0:0:100:A#4.ogg
256,192,40898,128,0,41367:0:0:0:100:A#4.ogg
36,192,40898,1,0,0:0:0:100:C3.ogg
109,192,41132,1,0,0:0:0:100:A#3.ogg
475,192,41367,1,0,0:0:0:100:A#5.ogg
402,192,41601,1,0,0:0:0:100:D#5.ogg
256,192,41601,1,0,0:0:0:100:G4.ogg
182,192,41601,1,0,0:0:0:100:D#4.ogg
256,192,42070,1,0,0:0:0:100:G4.ogg
109,192,42070,1,0,0:0:0:100:A#3.ogg
329,192,42304,1,0,0:0:0:100:D5.ogg
402,192,42539,128,0,43710:0:0:0:100:D#5.ogg
36,192,42539,1,0,0:0:0:100:D#3.ogg
36,192,42773,1,0,0:0:0:100:G#2.ogg
256,192,43007,1,0,0:0:0:100:A#4.ogg
109,192,43007,1,0,0:0:0:100:D#3.ogg
475,192,43242,1,0,0:0:0:100:A#5.ogg
329,192,43476,1,0,0:0:0:100:D#5.ogg
182,192,43476,1,0,0:0:0:100:D#4.ogg
256,192,43710,1,0,0:0:0:100:A#4.ogg
109,192,43945,1,0,0:0:0:100:A#3.ogg
402,192,44179,1,0,0:0:0:100:C5.ogg
36,192,44179,1,0,0:0:0:100:D#3.ogg
109,192,44414,1,0,0:0:0:100:A#3.ogg
329,192,44648,128,0,45351:0:0:0:100:A#4.ogg
36,192,44648,1,0,0:0:0:100:A#2.ogg
109,192,44882,1,0,0:0:0:100:F3.ogg
256,192,44882,1,0,0:0:0:100:F4.ogg
475,192,45117,1,0,0:0:0:100:A#5.ogg
182,192,45351,1,0,0:0:0:100:A#3.ogg
402,192,45351,1,0,0:0:0:100:A#4.ogg
475,192,45585,1,0,0:0:0:100:F5.ogg
109,192,45820,1,0,0:0:0:100:F3.ogg
182,192,46054,1,0,0:0:0:100:A#3.ogg
402,192,46054,128,0,47226:0:0:0:100:D#5.ogg
109,192,46289,1,0,0:0:0:100:F3.ogg
36,192,46523,1,0,0:0:0:100:D#3.ogg
109,192,46757,1,0,0:0:0:100:A#3.ogg
256,192,46757,1,0,0:0:0:100:A#3.ogg
182,192,46992,1,0,0:0:0:100:D#4.ogg
475,192,46992,1,0,0:0:0:100:A#4.ogg
182,192,47226,128,0,48164:0:0:0:100:A#4.ogg
329,192,47226,1,0,0:0:0:100:D#5.ogg
256,192,47695,1,0,0:0:0:100:D5.ogg
329,192,47929,1,0,0:0:0:100:D#5.ogg
256,192,48164,1,0,0:0:0:100:A#4.ogg
36,192,48164,1,0,0:0:0:100:A#3.ogg
36,192,48398,1,0,0:0:0:100:F3.ogg
109,192,48632,1,0,0:0:0:100:A#3.ogg
256,192,48632,1,0,0:0:0:100:A#4.ogg
182,192,48867,1,0,0:0:0:100:F4.ogg
475,192,48867,1,0,0:0:0:100:A#5.ogg
182,192,49101,128,0,49570:0:0:0:100:A#4.ogg
329,192,49101,1,0,0:0:0:100:D#5.ogg
36,192,49570,1,0,0:0:0:100:D#4.ogg
109,192,49804,1,0,0:0:0:100:A#4.ogg
182,192,50039,1,0,0:0:0:100:D#5.ogg
475,192,50273,128,0,51210:0:0:0:100:D6.ogg
36,192,50273,128,0,52148:0:0:0:100:D#5.ogg
109,192,50273,128,0,52148:0:0:0:100:A#4.ogg
182,192,50273,128,0,52148:0:0:0:100:D5.ogg
329,192,50273,128,0,51210:0:0:0:100:D#5.ogg
402,192,50273,128,0,51210:0:0:0:100:A#5.ogg
256,192,51210,1,0,0:0:0:100:A#3.ogg
329,192,51328,1,0,0:0:0:100:D4.ogg
402,192,51445,1,0,0:0:0:100:D#4.ogg
475,192,51562,1,0,0:0:0:100:G4.ogg
256,192,51679,1,0,0:0:0:100:A#4.ogg
329,192,51796,1,0,0:0:0:100:D5.ogg
402,192,51914,1,0,0:0:0:100:D#5.ogg
475,192,52031,1,0,0:0:0:100:G5.ogg
256,192,53085,128,0,53789:0:0:0:100:A#4.ogg
475,192,53085,128,0,53789:0:0:0:100:A#5.ogg
329,192,53085,128,0,53789:0:0:0:100:D#5.ogg
36,192,53085,1,0,0:0:0:100:C3.ogg
109,192,53320,1,0,0:0:0:100:A#3.ogg
109,192,53554,1,0,0:0:0:100:D4.ogg
182,192,53789,1,0,0:0:0:100:D#4.ogg
256,192,54023,128,0,54726:0:0:0:100:A#4.ogg
402,192,54023,128,0,54726:0:0:0:100:F5.ogg
109,192,54257,1,0,0:0:0:100:D4.ogg
182,192,54726,1,0,0:0:0:100:D#4.ogg
475,192,54960,128,0,55664:0:0:0:100:A#6.ogg
402,192,54960,128,0,55898:0:0:0:100:G5.ogg
36,192,54960,1,0,0:0:0:100:C3.ogg
109,192,55195,1,0,0:0:0:100:A#3.ogg
109,192,55429,1,0,0:0:0:100:D3.ogg
182,192,55664,1,0,0:0:0:100:D#4.ogg
475,192,55898,128,0,56601:0:0:0:100:F6.ogg
109,192,56132,1,0,0:0:0:100:D3.ogg
182,192,56367,1,0,0:0:0:100:D#4.ogg
256,192,56367,1,0,0:0:0:100:F5.ogg
36,192,56601,1,0,0:0:0:100:A#3.ogg
329,192,56601,1,0,0:0:0:100:G5.ogg
402,192,56835,1,0,0:0:0:100:G#5.ogg
475,192,56835,128,0,57539:0:0:0:100:G6.ogg
36,192,56835,1,0,0:0:0:100:G#3.ogg
109,192,57070,1,0,0:0:0:100:D#3.ogg
402,192,57304,1,0,0:0:0:100:A#5.ogg
109,192,57304,1,0,0:0:0:100:A#3.ogg
329,192,57539,1,0,0:0:0:100:G#5.ogg
182,192,57539,1,0,0:0:0:100:D#4.ogg
36,192,57773,1,0,0:0:0:100:G#3.ogg
256,192,58007,1,0,0:0:0:100:G#4.ogg
329,192,58007,1,0,0:0:0:100:C5.ogg
402,192,58007,1,0,0:0:0:100:G5.ogg
182,192,58007,1,0,0:0:0:100:D#4.ogg
109,192,58242,1,0,0:0:0:100:A#3.ogg
256,192,58476,128,0,58945:0:0:0:100:G#4.ogg
329,192,58476,128,0,58945:0:0:0:100:C5.ogg
402,192,58476,128,0,58945:0:0:0:100:D#5.ogg
109,192,58710,1,0,0:0:0:100:G#3.ogg
109,192,58945,1,0,0:0:0:100:A#3.ogg
182,192,59179,1,0,0:0:0:100:D#4.ogg
256,192,59179,1,0,0:0:0:100:A#4.ogg
329,192,59179,1,0,0:0:0:100:D5.ogg
109,192,59414,1,0,0:0:0:100:A#3.ogg
256,192,59414,1,0,0:0:0:100:A#4.ogg
402,192,59414,1,0,0:0:0:100:D#5.ogg
36,192,59648,1,0,0:0:0:100:A#2.ogg
329,192,59882,128,0,60117:0:0:0:100:F5.ogg
256,192,59882,128,0,60117:0:0:0:100:D5.ogg
36,192,59882,1,0,0:0:0:100:F3.ogg
109,192,60117,1,0,0:0:0:100:A#3.ogg
402,192,60117,1,0,0:0:0:100:A#5.ogg
182,192,60351,1,0,0:0:0:100:D4.ogg
475,192,60351,1,0,0:0:0:100:D6.ogg
36,192,60585,1,0,0:0:0:100:C3.ogg
475,192,60585,128,0,61289:0:0:0:100:D#6.ogg
329,192,60585,128,0,61289:0:0:0:100:G5.ogg
36,192,60820,1,0,0:0:0:100:A#3.ogg
109,192,61054,1,0,0:0:0:100:D4.ogg
182,192,61289,1,0,0:0:0:100:D#4.ogg
402,192,61523,1,0,0:0:0:100:D6.ogg
256,192,61523,1,0,0:0:0:100:F5.ogg
109,192,61757,1,0,0:0:0:100:D4.ogg
182,192,61992,1,0,0:0:0:100:D#4.ogg
329,192,61992,1,0,0:0:0:100:G5.ogg
36,192,62226,1,0,0:0:0:100:A#3.ogg
402,192,62226,128,0,62695:0:0:0:100:A#5.ogg
329,192,62226,128,0,62695:0:0:0:100:D#5.ogg
36,192,62460,1,0,0:0:0:100:C3.ogg
36,192,62695,1,0,0:0:0:100:A#3.ogg
256,192,62695,128,0,63164:0:0:0:100:A#4.ogg
109,192,62929,1,0,0:0:0:100:D4.ogg
182,192,63164,1,0,0:0:0:100:D#4.ogg
475,192,63164,1,0,0:0:0:100:D6.ogg
109,192,63632,1,0,0:0:0:100:A#3.ogg
475,192,63632,1,0,0:0:0:100:A#5.ogg
402,192,63632,1,0,0:0:0:100:A#4.ogg
36,192,63867,1,0,0:0:0:100:D#3.ogg
329,192,63867,1,0,0:0:0:100:G#4.ogg
109,192,64101,1,0,0:0:0:100:A#3.ogg
402,192,64101,128,0,65039:0:0:0:100:A#4.ogg
256,192,64101,128,0,65039:0:0:0:100:D#4.ogg
36,192,64335,1,0,0:0:0:100:G#2.ogg
36,192,64570,1,0,0:0:0:100:D#3.ogg
329,192,64570,1,0,0:0:0:100:D#5.ogg
109,192,64804,1,0,0:0:0:100:A#3.ogg
475,192,64804,1,0,0:0:0:100:D#6.ogg
182,192,65039,1,0,0:0:0:100:D#4.ogg
329,192,65039,1,0,0:0:0:100:A#5.ogg
256,192,65273,128,0,65507:0:0:0:100:D#4.ogg
402,192,65273,128,0,65507:0:0:0:100:A#4.ogg
475,192,65507,1,0,0:0:0:100:D#5.ogg
36,192,65507,1,0,0:0:0:100:D#3.ogg
109,192,65741,1,0,0:0:0:100:A#3.ogg
256,192,65976,128,0,66210:0:0:0:100:F5.ogg
402,192,65976,128,0,66210:0:0:0:100:A#4.ogg
475,192,65976,128,0,66210:0:0:0:100:D#5.ogg
182,192,65976,1,0,0:0:0:100:D#4.ogg
109,192,66210,1,0,0:0:0:100:A#2.ogg
36,192,66445,1,0,0:0:0:100:F3.ogg
256,192,66445,1,0,0:0:0:100:F5.ogg
402,192,66445,1,0,0:0:0:100:A#4.ogg
475,192,66445,1,0,0:0:0:100:D5.ogg
109,192,66679,1,0,0:0:0:100:A#3.ogg
182,192,66914,1,0,0:0:0:100:D4.ogg
402,192,66914,1,0,0:0:0:100:D#5.ogg
329,192,66914,1,0,0:0:0:100:A#4.ogg
36,192,67148,1,0,0:0:0:100:G#2.ogg
109,192,67382,1,0,0:0:0:100:F3.ogg
182,192,67382,1,0,0:0:0:100:A#3.ogg
329,192,67382,128,0,67851:0:0:0:100:A#4.ogg
475,192,67382,128,0,67851:0:0:0:100:F5.ogg
36,192,67617,1,0,0:0:0:100:A#2.ogg
109,192,67851,1,0,0:0:0:100:A#3.ogg
182,192,67851,1,0,0:0:0:100:D4.ogg
256,192,68085,128,0,68789:0:0:0:100:C5.ogg
329,192,68085,128,0,68789:0:0:0:100:D#5.ogg
402,192,68085,128,0,68789:0:0:0:100:G5.ogg
475,192,68085,128,0,68789:0:0:0:100:C6.ogg
109,192,68085,1,0,0:0:0:100:C3.ogg
36,192,68085,1,0,0:0:0:100:C2.ogg
36,192,68320,1,0,0:0:0:100:A#3.ogg
109,192,68554,1,0,0:0:0:100:D#4.ogg
182,192,68789,1,0,0:0:0:100:A#4.ogg
256,192,69023,1,0,0:0:0:100:D#5.ogg
329,192,69023,1,0,0:0:0:100:G5.ogg
402,192,69023,1,0,0:0:0:100:A#5.ogg
475,192,69023,1,0,0:0:0:100:D6.ogg
109,192,69257,1,0,0:0:0:100:D#4.ogg
182,192,69492,1,0,0:0:0:100:A#4.ogg
256,192,69492,1,0,0:0:0:100:D#5.ogg
402,192,69492,1,0,0:0:0:100:A#5.ogg
475,192,69492,1,0,0:0:0:100:D#6.ogg
36,192,69726,1,0,0:0:0:100:A#3.ogg
256,192,69726,128,0,69960:0:0:0:100:A#4.ogg
402,192,69726,128,0,69960:0:0:0:100:D#5.ogg
475,192,69726,128,0,69960:0:0:0:100:A#5.ogg
109,192,69960,1,0,0:0:0:100:C3.ogg
402,192,70195,128,0,70898:0:0:0:100:D#5.ogg
256,192,70195,128,0,70898:0:0:0:100:G#4.ogg
475,192,70195,128,0,70898:0:0:0:100:G#5.ogg
36,192,70195,1,0,0:0:0:100:A#3.ogg
109,192,70429,1,0,0:0:0:100:D#4.ogg
182,192,70664,1,0,0:0:0:100:A#4.ogg
36,192,70898,1,0,0:0:0:100:A#3.ogg
182,192,71132,1,0,0:0:0:100:A#4.ogg
475,192,71132,1,0,0:0:0:100:G5.ogg
402,192,71132,1,0,0:0:0:100:D#5.ogg
109,192,71367,1,0,0:0:0:100:D#4.ogg
402,192,71367,1,0,0:0:0:100:F5.ogg
329,192,71367,1,0,0:0:0:100:D5.ogg
36,192,71601,1,0,0:0:0:100:A#3.ogg
329,192,71601,128,0,72070:0:0:0:100:D#5.ogg
256,192,71601,128,0,72070:0:0:0:100:A#4.ogg
109,192,71835,1,0,0:0:0:100:G#2.ogg
36,192,72070,1,0,0:0:0:100:D#3.ogg
402,192,72070,1,0,0:0:0:100:D#5.ogg
109,192,72304,1,0,0:0:0:100:A#3.ogg
475,192,72304,1,0,0:0:0:100:D#6.ogg
182,192,72539,1,0,0:0:0:100:D#4.ogg
475,192,72539,1,0,0:0:0:100:A#5.ogg
402,192,72539,1,0,0:0:0:100:D#5.ogg
256,192,72539,1,0,0:0:0:100:A#4.ogg
402,192,72773,1,0,0:0:0:100:D#5.ogg
256,192,72773,1,0,0:0:0:100:A#4.ogg
109,192,73007,1,0,0:0:0:100:A#3.ogg
329,192,73007,1,0,0:0:0:100:D5.ogg
256,192,73007,1,0,0:0:0:100:A#4.ogg
182,192,73242,1,0,0:0:0:100:D#4.ogg
256,192,73242,1,0,0:0:0:100:A#4.ogg
36,192,73476,1,0,0:0:0:100:D#3.ogg
256,192,73476,128,0,73710:0:0:0:100:A#4.ogg
402,192,73476,128,0,73710:0:0:0:100:D#5.ogg
182,192,73710,1,0,0:0:0:100:A#2.ogg
36,192,73945,1,0,0:0:0:100:F3.ogg
256,192,73945,1,0,0:0:0:100:A#4.ogg
329,192,73945,1,0,0:0:0:100:D5.ogg
109,192,74179,1,0,0:0:0:100:A#3.ogg
256,192,74179,1,0,0:0:0:100:A#4.ogg
182,192,74414,1,0,0:0:0:100:D4.ogg
256,192,74414,1,0,0:0:0:100:A#4.ogg
402,192,74414,1,0,0:0:0:100:D#5.ogg
36,192,74648,1,0,0:0:0:100:F3.ogg
182,192,74882,1,0,0:0:0:100:D4.ogg
256,192,74882,128,0,75351:0:0:0:100:A#4.ogg
475,192,74882,128,0,75351:0:0:0:100:F5.ogg
109,192,75117,1,0,0:0:0:100:A#3.ogg
36,192,75351,1,0,0:0:0:100:F3.ogg
402,192,75585,128,0,76054:0:0:0:100:F#5.ogg
256,192,75585,128,0,76054:0:0:0:100:B4.ogg
329,192,75585,128,0,76054:0:0:0:100:D#5.ogg
109,192,75585,1,0,0:0:0:100:B2.ogg
36,192,75820,1,0,0:0:0:100:F#3.ogg
109,192,76054,1,0,0:0:0:100:B3.ogg
256,192,76289,128,0,76758:0:0:0:100:B4.ogg
329,192,76289,128,0,76758:0:0:0:100:D#5.ogg
475,192,76289,128,0,76757:0:0:0:100:G#5.ogg
182,192,76289,1,0,0:0:0:100:D#4.ogg
109,192,76757,1,0,0:0:0:100:B3.ogg
256,192,76992,1,0,0:0:0:100:B4.ogg
329,192,76992,1,0,0:0:0:100:D#5.ogg
475,192,76992,1,0,0:0:0:100:A#5.ogg
36,192,77226,1,0,0:0:0:100:F#3.ogg
109,192,77460,1,0,0:0:0:100:C#3.ogg
475,192,77460,1,0,0:0:0:100:E5.ogg
402,192,77460,1,0,0:0:0:100:C#5.ogg
256,192,77460,1,0,0:0:0:100:G#4.ogg
36,192,77695,1,0,0:0:0:100:G#3.ogg
109,192,77929,1,0,0:0:0:100:C#4.ogg
475,192,77929,1,0,0:0:0:100:F#5.ogg
182,192,78164,1,0,0:0:0:100:E4.ogg
402,192,78164,1,0,0:0:0:100:C#5.ogg
256,192,78164,1,0,0:0:0:100:G#4.ogg
109,192,78632,1,0,0:0:0:100:C#4.ogg
329,192,78632,1,0,0:0:0:100:A#4.ogg
36,192,79101,1,0,0:0:0:100:G#3.ogg
256,192,79101,128,0,79335:0:0:0:100:G#4.ogg
109,192,79335,1,0,0:0:0:100:G#2.ogg
36,192,79570,1,0,0:0:0:100:D#3.ogg
329,192,79804,128,0,80742:0:0:0:100:D#5.ogg
256,192,79804,128,0,80742:0:0:0:100:A#4.ogg
109,192,79804,1,0,0:0:0:100:G#3.ogg
182,192,80039,1,0,0:0:0:100:D#4.ogg
36,192,80507,1,0,0:0:0:100:G#3.ogg
475,192,80507,1,0,0:0:0:100:G6.ogg
402,192,80507,1,0,0:0:0:100:A#5.ogg
109,192,80742,1,0,0:0:0:100:A#3.ogg
182,192,80976,1,0,0:0:0:100:D#4.ogg
402,192,80976,128,0,81210:0:0:0:100:A#5.ogg
475,192,80976,128,0,81210:0:0:0:100:D#6.ogg
182,192,81210,1,0,0:0:0:100:G#4.ogg
182,192,81445,1,0,0:0:0:100:D#4.ogg
475,192,81445,1,0,0:0:0:100:F6.ogg
329,192,81445,1,0,0:0:0:100:G#5.ogg
109,192,81679,1,0,0:0:0:100:A#3.ogg
36,192,81914,1,0,0:0:0:100:G#3.ogg
256,192,81914,128,0,82148:0:0:0:100:D#5.ogg
402,192,81914,128,0,82148:0:0:0:100:G#5.ogg
182,192,82148,1,0,0:0:0:100:D#4.ogg
109,192,82382,1,0,0:0:0:100:A#3.ogg
256,192,82382,1,0,0:0:0:100:D#5.ogg
475,192,82382,1,0,0:0:0:100:A#5.ogg
36,192,82617,1,0,0:0:0:100:G#3.ogg
36,192,82851,1,0,0:0:0:100:D#3.ogg
256,192,82851,1,0,0:0:0:100:D#5.ogg
109,192,83085,1,0,0:0:0:100:B2.ogg
256,192,83085,128,0,83320:0:0:0:100:B4.ogg
329,192,83085,128,0,83320:0:0:0:100:D#5.ogg
402,192,83085,128,0,83320:0:0:0:100:F#5.ogg
36,192,83320,1,0,0:0:0:100:F#3.ogg
109,192,83554,1,0,0:0:0:100:B3.ogg
182,192,83789,1,0,0:0:0:100:D4.ogg
256,192,83789,128,0,84023:0:0:0:100:B4.ogg
329,192,83789,128,0,84023:0:0:0:100:D#5.ogg
475,192,83789,128,0,84023:0:0:0:100:G#5.ogg
109,192,84257,1,0,0:0:0:100:B3.ogg
256,192,84492,1,0,0:0:0:100:B4.ogg
329,192,84492,1,0,0:0:0:100:D#5.ogg
475,192,84492,1,0,0:0:0:100:A#5.ogg
36,192,84726,1,0,0:0:0:100:F#3.ogg
109,192,84960,1,0,0:0:0:100:C#3.ogg
256,192,84960,1,0,0:0:0:100:C#5.ogg
329,192,84960,1,0,0:0:0:100:E5.ogg
402,192,84960,1,0,0:0:0:100:G#5.ogg
475,192,84960,1,0,0:0:0:100:C#6.ogg
36,192,85195,1,0,0:0:0:100:G#3.ogg
109,192,85429,1,0,0:0:0:100:C#4.ogg
475,192,85429,1,0,0:0:0:100:E5.ogg
182,192,85664,1,0,0:0:0:100:E4.ogg
402,192,85664,1,0,0:0:0:100:C#5.ogg
109,192,86132,1,0,0:0:0:100:C#4.ogg
402,192,86132,1,0,0:0:0:100:C#5.ogg
329,192,86367,1,0,0:0:0:100:A#4.ogg
36,192,86601,1,0,0:0:0:100:G#3.ogg
256,192,86601,128,0,86835:0:0:0:100:G#4.ogg
109,192,86835,1,0,0:0:0:100:D#3.ogg
475,192,86835,1,0,0:0:0:100:A#5.ogg
36,192,87070,1,0,0:0:0:100:A#3.ogg
109,192,87304,1,0,0:0:0:100:D#4.ogg
256,192,87304,128,0,88476:0:0:0:100:D#5.ogg
182,192,87539,1,0,0:0:0:100:A#4.ogg
402,192,87539,128,0,87773:0:0:0:100:F5.ogg
36,192,88007,1,0,0:0:0:100:A#3.ogg
475,192,88007,1,0,0:0:0:100:G5.ogg
109,192,88242,1,0,0:0:0:100:D#4.ogg
402,192,88242,1,0,0:0:0:100:D#5.ogg
182,192,88476,1,0,0:0:0:100:A#4.ogg
329,192,88476,1,0,0:0:0:100:A#4.ogg
475,192,88710,128,0,89648:0:0:0:100:D#6.ogg
182,192,88710,1,0,0:0:0:100:D#4.ogg
109,192,88945,1,0,0:0:0:100:A#4.ogg
256,192,88945,1,0,0:0:0:100:D#5.ogg
36,192,89179,1,0,0:0:0:100:D#5.ogg
329,192,89179,1,0,0:0:0:100:G#5.ogg
109,192,89414,1,0,0:0:0:100:G#5.ogg
329,192,89414,1,0,0:0:0:100:A#5.ogg
36,192,89648,1,0,0:0:0:100:D#5.ogg
402,192,89648,1,0,0:0:0:100:D#6.ogg
109,192,89882,1,0,0:0:0:100:G#5.ogg
182,192,90351,1,0,0:0:0:100:A#5.ogg
109,192,90585,128,0,92460:0:0:0:100:D#5.ogg
475,192,90585,128,0,92460:0:0:0:100:D#6.ogg
402,192,90585,128,0,92460:0:0:0:100:A#5.ogg
256,192,90585,128,0,92460:0:0:0:100:D#5.ogg
