osu file format v5

[General]
AudioFilename: true my heart.mp3
AudioLeadIn: 0
PreviewTime: -1
Countdown: 0
SampleSet: Normal
EditorBookmarks: 3200,33420,76080,113413,186296

[Metadata]
Title:True My Heart
Artist:Anenew feat. Saori Sakura
Creator:vytalibus
Version:Normal

[Difficulty]
HPDrainRate:4
CircleSize:5
OverallDifficulty:5
SliderMultiplier:1.1
SliderTickRate:1

[Events]
//Background and Video events
1,0,"6027cd9cb921f0e160c93397060608ea.avi"
//Break Periods
2,22511,32102
2,109613,112213
2,175384,185096
//Storyboard Layer 0 (Background)
//Storyboard Layer 1 (Failing)
//Storyboard Layer 2 (Passing)
//Storyboard Layer 3 (Foreground)
//Storyboard Sound Samples
//Background Colour Transformations
3,100,163,162,255

[TimingPoints]
3210,444.450409894107,4,1,0,100
33430,444.450409894107,4,2,0,100
68980,444.450409894107,4,1,0,100
127640,444.450409894107,4,2,0,100
134750,444.450409894107,4,1,0,100
186300,444.450409894107,4,2,0,100
200520,444.450409894107,4,1,0,100

[Colours]
Combo1 : 250,255,40
Combo2 : 0,232,232

[HitObjects]
256,192,3210,2,0,B|256:80,2,110
256,256,4543,1,0
320,256,4987,2,2,B|320:144,1,110
384,144,5876,2,2,B|384:256,1,110
320,256,6765,6,0,B|160:96,1,220
128,48,8098,1,0
192,48,8543,2,2,B|304:80|352:192|320:320,1,330
256,320,10321,5,4
256,224,10987,1,4
256,96,11876,1,4
256,224,12765,1,4
256,64,13876,6,4,B|368:64,2,110
256,192,15654,2,4,B|144:192,2,110
256,320,17432,5,4
256,192,18321,1,4
256,192,19210,12,4,22321
80,48,33432,5,0
144,128,34099,1,0
192,176,34543,1,0
240,224,34988,2,2,B|464:0,1,275
352,128,36985,2,2,B|256:28|160:128,3,220
160,256,40543,5,0
224,256,40988,1,0
288,256,41432,1,0
352,256,41877,1,0
352,192,42321,5,0
288,192,42766,1,0
224,192,43210,1,0
160,192,43654,1,0
160,128,44099,6,2,B|248:29|352:128,1,220
256,208,45877,6,2,B|256:16,1,165
256,192,47655,12,2,50321
160,96,51210,1,0
224,96,51655,1,0
288,96,52099,1,0
352,96,52543,1,0
352,160,52988,5,0
288,160,53432,1,0
224,160,53877,1,0
160,160,54321,1,0
160,96,54763,6,0,B|496:96,1,330
496,160,56541,2,0,B|160:160,1,330
96,160,58319,2,0,B|122:104|176:80,3,110
240,80,60097,2,0,B|296:106|320:160,3,110
256,160,61874,6,0,B|191:260|128:160,2,165
256,96,63652,2,0,B|190:-3|128:96,2,165
320,96,65430,6,0,B|423:161|320:224,2,165
256,96,67208,2,0,B|256:288,1,165
416,224,68986,5,0
400,160,69430,1,0
352,112,69874,1,0
288,96,70319,1,0
224,96,70763,5,0
160,112,71208,1,0
112,160,71652,1,0
96,224,72097,1,0
112,288,72541,6,0,B|256:437|400:288,1,330
256,192,74319,12,4,75208
256,192,76090,2,0,B|256:80,2,110
256,256,77423,1,0
320,256,77867,2,2,B|320:144,1,110
384,144,78756,2,2,B|384:256,1,110
320,256,79645,6,0,B|160:96,1,220
128,48,80978,1,0
192,48,81423,2,2,B|304:80|352:192|320:320,1,330
256,320,83201,5,4
256,224,83867,1,4
256,96,84756,1,4
96,64,85867,1,4
160,64,86312,1,4
224,64,86756,6,0,B|336:64,3,110
400,64,88534,2,0,B|400:288,1,220
256,192,90312,6,0,B|256:80,2,110
256,256,91645,1,0
192,256,92089,2,2,B|192:144,1,110
128,144,92978,2,2,B|128:256,1,110
192,256,93867,6,0,B|352:96,1,220
384,48,95200,1,0
320,48,95645,2,2,B|208:80|160:192|192:320,1,330
256,320,97423,5,4
256,224,98089,1,4
256,96,98978,1,4
256,224,99867,1,4
256,64,100978,6,4,B|144:64,2,110
256,192,102756,2,4,B|368:192,2,110
256,320,104534,5,4
256,192,105423,1,4
256,192,106312,12,4,109423
256,32,113423,1,0
256,96,113868,1,0
256,160,114312,1,0
256,224,114757,1,0
256,288,115201,2,0,C|378:190|320:32,1,330
256,32,116979,5,0
192,48,117423,1,0
144,96,117868,1,0
112,160,118312,1,0
144,224,118757,5,0
192,272,119201,1,0
256,288,119646,1,0
288,224,120090,1,0
224,224,120535,6,0,C|63:192|224:160,1,330
288,160,122312,6,0,C|449:192|288:224,1,330
256,272,124090,5,0
256,144,124979,1,0
256,272,125868,2,0,C|256:160,2,110
256,160,127646,6,0,B|321:261|384:160,2,165
256,96,129424,2,0,B|320:-8|384:96,2,165
192,96,131202,6,0,B|87:158|192:224,2,165
256,96,132980,2,0,B|256:288,1,165
96,224,134758,5,0
112,160,135202,1,0
160,112,135646,1,0
224,96,136091,1,0
288,96,136535,5,0
352,112,136980,1,0
400,160,137424,1,0
416,224,137869,1,0
400,288,138313,6,0,B|256:437|112:288,1,330
256,192,140091,12,4,140980
160,64,141861,1,4
224,64,142305,1,0
288,64,142750,1,0
352,64,143194,1,0
352,128,143639,5,0
288,128,144083,1,0
224,128,144527,1,0
160,128,144972,1,0
160,192,145416,6,0,B|224:288,3,110
288,288,147194,6,0,B|352:192,3,110
352,128,148972,5,4
304,48,149639,1,4
176,32,150527,1,4
64,144,151639,1,4
48,208,152083,1,4
80,272,152528,6,4,B|256:272|289:113|112:48,2,330
160,176,156083,5,4
224,176,156528,1,0
288,176,156972,1,0
352,176,157416,1,0
352,112,157861,5,0
288,112,158305,1,0
224,112,158750,1,0
160,112,159194,1,0
160,48,159639,6,0,B|256:48,2,82.5
128,48,160528,1,0
128,112,160972,1,0
128,176,161417,6,0,B|128:272,2,82.5
128,144,162305,1,0
192,144,162750,1,4
256,144,163194,6,4,B|400:48,1,165
384,112,164305,2,4,B|384:176,2,55
320,112,165194,2,4,B|256:112,2,55
192,208,166750,5,4
256,208,167194,1,0
320,208,167639,1,0
320,80,168528,5,4
256,80,168972,1,0
192,80,169417,1,0
192,208,170306,5,4
320,208,171194,1,4
256,192,172083,12,0,175194
256,192,186300,12,0,192300
128,64,193411,1,0
96,112,193855,1,0
160,112,194300,1,0
128,160,194744,1,0
192,160,195189,5,0
224,112,195633,1,0
192,64,196077,1,0
256,64,196522,1,0
288,112,196966,6,0,B|400:64|431:224|256:320|256:320|88:223|128:59|240:112,1,660
128,192,200520,5,4
176,144,200966,1,0
224,96,201411,1,0
240,160,201855,1,0
192,208,202300,5,0
256,224,202744,1,0
304,256,203189,1,0
352,288,203633,1,0
400,320,204075,6,2,B|400:144|400:144|240:144,1,330
176,144,205853,2,2,B|176:320|176:320|336:320,1,330
336,256,207631,5,4
336,160,208297,1,4
208,160,209186,1,4
48,160,210297,1,4
48,96,210742,1,4
112,96,211186,6,0,B|112:208,1,110
176,208,212075,2,0,B|176:80,1,110
240,96,212964,2,0,B|304:176,2,82.5
208,96,213853,1,0
256,192,214742,12,4,220964
96,64,221853,2,0,B|96:192,1,110
128,176,222520,2,0,B|304:176,1,165
320,176,223409,2,0,B|320:48,1,110
288,64,224075,2,0,B|160:64,2,110
352,64,225409,6,0,B|96:304,1,330
256,192,227187,12,4,228520
144,192,228964,2,0,B|144:80,1,110
144,48,229631,2,0,B|320:48,1,165
336,48,230520,2,0,B|336:160,1,110
336,192,231187,2,4,B|208:192,2,110
400,192,232520,5,4
400,256,232964,1,0
336,256,233409,1,4
272,256,233853,1,0
208,256,234298,2,4,B|112:192|112:192|208:144|208:144|112:80,1,330
112,16,236076,6,4,B|224:16,1,110
256,16,236742,2,4,B|256:192,1,165
256,208,237631,2,4,B|432:208,1,165
448,208,238520,2,4,B|448:32,1,165
384,64,239631,6,4,B|224:224,1,220
192,160,241409,2,4,B|416:160,1,220
400,288,243187,2,2,B|64:288,1,330
256,192,244965,12,4,248076
