osu file format v5

[General]
AudioFilename: Sakura Saori - True My Heart.mp3
AudioLeadIn: 0
PreviewTime: 54474
Countdown: 1
SampleSet: Normal
StackLeniency: 0.7
Mode: 0
LetterboxInBreaks: 1

[Editor]
Bookmarks: 3363,6918,10474,14030,17585,26474,30030,33585,37141,40696,44252,47807,51363,54918,58474,62030,65585,69141,72696,76252,79807,83363,86918,90474,94030,97585,101141
DistanceSpacing: 0.800000011920929
BeatDivisor: 4
GridSize: 8

[Metadata]
Title:True My Heart (Short Ver.)
Artist:Anenew feat. Sakura Saori
Creator:illuminist
Version:Hard
Source:Nursury Rhyme
Tags:game nursery rhyme true my heart lump of sugar anenew feat

[Difficulty]
HPDrainRate:6
CircleSize:5
OverallDifficulty:7
SliderMultiplier:1.4
SliderTickRate:2

[Events]
//Background and Video events
Video,0,"Nursery Rhyme OP.avi"
0,0,"nurhyme-bg.jpg"
//Break Periods
2,19880,25558
//Storyboard Layer 0 (Background)
//Storyboard Layer 1 (Fail)
//Storyboard Layer 2 (Pass)
//Storyboard Layer 3 (Foreground)
//Storyboard Sound Samples
//Background Colour Transformations
3,100,255,223,235

[TimingPoints]
3347,444.444444444444,4,1,0,80,1,0
40458,-100,4,2,0,80,0,0
47458,-100,4,1,0,80,0,0
54918,-100,4,1,0,80,0,1
79807,-100,4,1,0,80,0,0
98902,-100,4,2,0,80,0,0

[Colours]
Combo1 : 255,135,197
Combo2 : 255,109,102
Combo3 : 255,237,136
Combo4 : 136,225,255
Combo5 : 255,169,135

[HitObjects]
64,96,3346,1,0
96,160,3569,1,0
160,192,3791,1,8
224,160,4013,2,2,B|288:96|352:128,1,140,0|2
384,192,4680,1,8
352,256,4902,2,2,B|288:320|224:288,1,140,0|2
160,256,5569,1,10
224,128,6013,1,0
288,256,6458,1,8
160,192,6902,5,2
256,128,7235,1,2
352,64,7569,1,2
416,32,7791,2,0,B|448:64|448:96|448:128|416:160,2,140,0|8|0
320,224,9347,2,2,B|256:224,2,35
96,64,10458,5,0
96,136,10680,1,0
96,208,10902,1,8
96,280,11124,2,2,B|128:312|160:312|192:312|224:280,1,140
224,208,11791,1,8
224,136,12013,2,2,B|256:104|288:104|320:104|352:136,1,140
352,200,12680,1,8
352,272,12902,2,0,B|352:352|416:345|480:352|480:272,1,210
416,64,14013,5,0
352,192,14458,1,8
288,64,14902,1,0
128,192,15569,6,2,B|128:256,2,35
192,96,16124,1,0
256,192,16458,1,0
416,320,17347,5,0
384,256,17569,1,0
320,128,18013,1,4
352,192,18235,1,0
320,256,18458,1,4
256,288,18680,1,0
192,256,18902,1,4
160,192,19124,1,0
192,128,19346,1,4
256,96,19569,2,0,B|256:160,1,35
192,288,26458,6,2,B|224:320|256:320|288:320|320:288,1,140,0|0
352,224,27124,2,2,B|320:192|288:192|256:192|224:224,1,140,0|0
160,224,27791,1,0
128,160,28013,2,2,B|160:128|224:96|288:128|320:160,1,210,2|0
128,96,29346,5,0
160,160,29569,1,0
192,96,29791,2,2,B|224:128|256:192|224:256|192:288,1,210
128,320,30680,2,0,B|160:352|192:352|224:352|256:320,2,140,0|2|0
64,288,31791,2,2,B|32:256|32:224|32:192|64:160,1,140
128,128,32458,2,0,B|160:96|224:64|288:96|320:128,1,210,0|2
416,224,33569,5,0
288,288,34013,1,2
352,256,34235,1,0
224,96,34902,1,2
352,96,35346,2,0,B|384:128|416:192|384:256|352:288,2,210,0|2|0
320,32,36902,1,0
256,160,37346,1,2
224,96,37569,1,2
96,288,38680,5,0
64,224,38902,1,0
96,160,39124,1,0
160,128,39346,1,0
224,160,39569,2,0,B|256:192|288:256|256:320|224:352,1,210,0|4
352,352,40680,6,2,B|320:320|288:256|320:192|352:160,2,210,2|2|10
416,320,42235,1,8
448,256,42458,1,0
416,192,42680,1,0
352,160,42902,1,8
288,192,43124,2,0,B|256:160|192:128|128:160|96:192,1,210,0|12
96,64,44235,5,2
320,64,44902,1,2
320,288,45569,2,2,B|288:320|256:320|224:320|192:288,1,140,10|2
160,224,46235,1,0
128,160,46458,1,8
160,96,46680,2,0,B|192:64|256:32|320:64|352:96,1,210,0|8
384,160,47569,6,0,B|416:192|416:224|416:256|384:288,1,140,0|2
320,320,48235,1,0
256,288,48458,1,2
192,320,48680,1,0
128,288,48902,1,2
96,224,49124,1,0
128,160,49346,2,2,B|160:128|192:128|224:128|256:160,1,140
288,224,50013,5,0
352,256,50235,1,2
416,224,50458,1,0
448,160,50680,1,2
416,96,50902,1,0
352,64,51124,2,2,B|320:32|288:32|256:32|224:64,1,140
192,128,51791,2,6,B|160:160|128:224|160:288|192:320,1,210
256,192,52902,12,4,54013
256,192,54902,5,0
288,128,55124,1,0
320,192,55346,1,8
288,256,55569,2,0,B|256:288|224:288|192:288|160:256,1,140
128,192,56235,1,8
160,128,56458,2,0,B|192:96|224:96|256:96|288:128,1,140
320,192,57124,1,8
288,256,57346,1,0
224,288,57569,2,0,B|192:320|160:320|128:320|96:288,2,140,0|8|2
256,192,58791,5,2
224,96,59124,1,2
192,160,59346,1,2
320,224,59791,1,8
384,96,60235,2,0,B|416:128|448:192|416:256|384:288,1,210
320,320,61124,1,0
128,96,62013,5,0
192,128,62235,1,0
224,192,62458,1,8
256,256,62680,2,0,B|288:288|319:288|352:288|384:256,1,140
416,192,63346,1,8
384,128,63569,2,0,B|352:96|320:96|288:96|256:128,1,140
192,160,64235,1,8
160,224,64458,1,0
192,288,64680,1,0
320,288,65124,1,8
320,160,65569,5,0
192,160,66013,1,8
192,32,66458,1,0
320,32,66902,1,8
320,160,67346,1,2
224,160,67680,1,2
224,256,68013,1,2
288,256,68235,1,6
480,128,69124,5,0
448,64,69346,1,0
384,32,69569,1,8
320,64,69791,2,0,B|288:96|288:128|288:160|320:192,1,140
384,224,70458,1,8
416,288,70680,2,0,B|384:320|352:320|320:320|288:288,1,140
224,256,71346,1,8
192,192,71569,1,0
224,128,71791,2,0,B|256:96|288:96|320:96|352:128,1,140,0|8
352,256,72680,5,2
256,256,73013,1,2
256,160,73346,1,2
192,160,73569,1,6
64,160,74013,1,8
64,288,74458,2,0,B|96:320|128:320|160:320|192:288,1,140,0|8
224,224,75124,2,0,B|224:160,2,35
64,64,76235,5,0
128,96,76458,1,0
192,64,76680,1,8
256,32,76902,2,0,B|288:0|320:0|352:0|384:32,1,140
416,96,77569,1,8
448,160,77791,2,0,B|480:192|480:224|480:256|448:288,1,140
384,320,78458,1,8
320,288,78680,2,0,B|144:288|352:192|160:192,1,210,0|4
256,74,79791,5,2
192,192,80235,1,2
320,192,80680,1,2
96,192,81346,6,0,B|96:256,2,35
96,96,81902,1,2
192,96,82235,1,2
448,192,83124,5,0
376,192,83346,1,0
224,192,83791,1,8
192,128,84013,1,0
128,160,84235,1,0
160,224,84458,1,0
192,288,84680,1,8
256,256,84902,1,0
320,224,85124,1,0
288,160,85346,2,0,B|264:112,1,35
256,192,85569,12,0,86680
256,192,87124,5,0
256,256,87346,2,2,B|192:256,1,35
160,256,87680,1,2
160,160,88013,1,0
160,96,88235,2,2,B|224:96,1,35,2|2
256,96,88680,2,0,B|288:64|320:64|384:96|384:160|256:256|256:256|128:160|128:96|192:64|224:64|256:96|256:96|256:96|256:96,1,560
192,96,90680,5,0
192,160,90902,2,2,B|192:224,1,35
256,192,91235,1,2
352,160,91569,1,0
352,96,91791,2,2,B|288:96,1,35
256,96,92235,2,0,B|224:64|192:64|128:96|128:160|256:256|256:256|384:160|384:96|320:64|288:64|256:96|256:96|256:96|256:96,1,560
96,128,94458,5,0
160,256,94902,1,0
192,192,95124,1,0
224,256,95346,1,0
192,320,95569,1,0
128,352,95791,1,0
256,96,96680,1,0
384,352,97569,1,0
160,96,99124,5,0
192,160,99346,1,2
320,96,99791,1,2
352,160,100013,1,0
320,224,100235,1,2
256,256,100458,1,0
192,224,100680,1,2
160,160,100902,1,0
192,96,101124,1,2
256,64,101346,2,0,B|256:128,1,35
256,192,101569,12,0,104236
