osu file format v5

[General]
AudioFilename: Sakura Saori - True My Heart.mp3
AudioLeadIn: 0
PreviewTime: 54474
Countdown: 1
SampleSet: Normal
StackLeniency: 0.7
Mode: 0
LetterboxInBreaks: 1

[Editor]
Bookmarks: 3363,6918,10474,14030,17585,26474,30030,33585,37141,40696,44252,47807,51363,54918,58474,62030,65585,69141,72696,76252,79807,83363,86918,90474,94030,97585,101141
DistanceSpacing: 0.800000011920929
BeatDivisor: 4
GridSize: 8

[Metadata]
Title:True My Heart (Short Ver.)
Artist:Anenew feat. Sakura Saori
Creator:illuminist
Version:Easy
Source:Nursury Rhyme
Tags:game nursery rhyme true my heart lump of sugar anenew feat

[Difficulty]
HPDrainRate:2
CircleSize:4
OverallDifficulty:2
SliderMultiplier:1
SliderTickRate:2

[Events]
//Background and Video events
Video,0,"Nursery Rhyme OP.avi"
0,0,"nurhyme-bg.jpg"
//Break Periods
2,19547,24898
//Storyboard Layer 0 (Background)
//Storyboard Layer 1 (Fail)
//Storyboard Layer 2 (Pass)
//Storyboard Layer 3 (Foreground)
//Storyboard Sound Samples
//Background Colour Transformations
3,100,255,223,235

[TimingPoints]
3347.39534317904,444.444444444444,4,1,0,80,1,0
40458,-100,4,2,0,80,0,0
47569,-100,4,1,0,80,0,0
54902,-100,4,1,0,80,0,1
79791,-100,4,1,0,80,0,0
99141,-100,4,2,0,80,0,0

[Colours]
Combo1 : 255,135,197
Combo2 : 255,109,102
Combo3 : 255,237,136
Combo4 : 136,225,255
Combo5 : 255,169,135

[HitObjects]
128,160,3347,1,0
256,160,4236,1,0
384,160,5125,1,0
384,288,6014,1,0
320,288,6458,1,8
256,288,6902,6,2,B|128:288|128:160,1,200
128,32,8680,2,2,B|352:32,1,200
320,160,10458,5,0
256,160,10902,1,8
192,160,11347,1,0
192,288,12236,1,0
256,288,12680,1,8
320,288,13125,1,0
320,160,14014,6,2,B|96:160,1,200
224,64,15791,2,2,B|448:64,1,200
256,192,17569,12,4,19347
128,288,26458,6,2,B|192:96,1,200
320,96,28236,2,2,B|384:288,1,200
320,288,29569,5,8
256,288,30014,1,0
128,288,30902,1,2
128,160,31791,1,0
256,160,32680,1,2
256,224,33125,1,8
256,288,33569,6,0,B|416:160,3,200,0|0|0|2
288,160,37125,5,0
160,160,38014,1,0
256,192,38458,12,4,40236
256,288,40680,6,2,B|448:224,1,200
448,96,42458,2,2,B|256:160,1,200
256,288,44236,6,2,B|64:224,1,200
64,96,46014,2,2,B|256:160,1,200
256,288,47791,5,2
320,288,48236,1,0
320,224,48680,1,2
320,160,49125,1,0
256,160,49569,5,2
192,160,50014,1,0
192,96,50458,1,2
192,32,50902,1,2
256,32,51347,5,2
320,32,51791,1,2
256,192,52014,12,0,54014
64,160,54902,5,0
128,160,55347,1,8
192,160,55791,1,0
256,160,56236,1,8
320,160,56680,5,0
384,160,57125,1,8
448,160,57569,1,0
448,224,58014,1,8
384,224,58458,6,0,B|384:352,1,100,0|8
320,320,59347,2,0,B|320:192,1,100,0|8
320,160,60236,2,2,B|320:32,1,100,2|8
256,64,61125,2,2,B|256:192,1,100,2|8
256,224,62014,5,0
256,288,62458,1,8
192,288,62902,1,0
192,224,63347,1,8
192,160,63791,5,0
192,96,64236,1,8
256,96,64680,1,0
320,96,65125,1,8
320,160,65569,6,2,B|320:288,1,100,2|10
320,320,66458,2,2,B|192:320,1,100,2|10
256,192,67014,12,4,68236
352,96,69125,5,0
288,96,69569,1,8
224,96,70014,1,0
160,96,70458,1,8
160,160,70902,5,0
224,160,71347,1,8
288,160,71791,1,0
352,160,72236,1,8
352,224,72680,6,0,B|352:352,1,100,0|8
288,320,73569,2,0,B|160:320,1,100,0|8
128,320,74458,2,10,B|128:192,1,100,2|10
128,160,75347,2,10,B|256:160,1,100,2|10
256,192,76236,12,0,79347
224,192,79791,5,0
288,192,80236,1,8
352,192,80680,1,0
256,256,81569,5,0
192,256,82014,1,8
128,256,82458,1,0
96,128,83347,5,0
160,128,83791,1,10
224,128,84236,1,0
288,128,84680,1,10
352,128,85125,1,2
416,128,85569,1,6
256,96,86902,6,0,B|288:32|352:32|416:96|448:160|256:320|256:320|64:160|96:96|160:32|224:32|256:96|256:96|256:96|256:96,2,800
256,192,95791,12,0,98902
160,256,99347,5,2
192,192,99791,1,2
224,128,100236,1,2
288,128,100680,1,2
320,192,101125,1,2
256,192,101569,12,0,104236
