osu file format v12

[General]
AudioFilename: 06 - So You Did It Again.mp3
AudioLeadIn: 0
PreviewTime: -1
Countdown: 1
SampleSet: Normal
StackLeniency: 0.7
Mode: 0
LetterboxInBreaks: 1

[Editor]
Bookmarks: 11988,16828,19837,23543,25985,28253,30912,45433,51582,57076,62222,81844,84112,87688
DistanceSpacing: 0.8
BeatDivisor: 8
GridSize: 8

[Metadata]
Title:So You Did It Again
TitleUnicode:So You Did It Again
Artist:Ane Brun
ArtistUnicode:Ane Brun
Creator:Niektory
Version:Insane
Source:
Tags:
BeatmapID:228971
BeatmapSetID:26065

[Difficulty]
HPDrainRate:9
CircleSize:5
OverallDifficulty:5
ApproachRate:8
SliderMultiplier:1.3
SliderTickRate:1

[Events]
//Background and Video events
Video,0,"so you did it again.avi"
0,0,"bg.jpg",0,0
//Break Periods
2,35822,46122
2,67803,82359
//Storyboard Layer 0 (Background)
//Storyboard Layer 1 (Fail)
//Storyboard Layer 2 (Pass)
//Storyboard Layer 3 (Foreground)
//Storyboard Sound Samples
//Background Colour Transformations
3,100,173,164,152

[TimingPoints]
12817,348.837209302326,4,1,0,100,1,0
19837,-57.1428571428571,4,1,0,100,0,0
24350,-100,4,1,0,100,0,0
46873.2000669413,348.837209302326,4,1,0,100,1,0
46973.2000669413,-57.1428571428571,4,1,0,100,0,0
82760.8918183153,348.837209302326,4,1,0,100,1,0
87688,-57.1428571428571,4,1,0,100,0,0
89617,-57.1428571428571,4,2,0,100,0,0
95294,-57.1428571428571,4,1,0,100,0,0

[Colours]
Combo1 : 133,165,182
Combo2 : 61,54,41
Combo3 : 128,0,0
Combo4 : 62,0,62

[HitObjects]
48,184,13078,1,0,0:0:0:0:
264,88,13340,1,0,0:0:0:0:
280,120,13427,1,8,0:0:0:0:
224,232,13689,1,0,0:0:0:0:
192,248,13776,1,0,0:0:0:0:
16,80,14037,6,0,B|56:384,2,292.5,0|8|0,0:0|0:0|0:0,0:0:0:0:
128,0,15782,37,0,0:0:0:0:
168,0,15869,1,0,0:0:0:0:
272,0,16130,1,0,0:0:0:0:
272,40,16218,1,8,0:0:0:0:
272,136,16479,1,0,0:0:0:0:
88,136,16785,1,0,0:0:0:0:
272,136,17133,6,0,B|496:136,1,211.25,0|8,0:0|0:0,0:0:0:0:
272,136,18049,1,0,0:0:0:0:
483,136,18398,1,0,0:0:0:0:
296,128,18616,37,0,0:0:0:0:
256,128,18747,1,0,0:0:0:0:
160,128,19096,1,8,0:0:0:0:
160,48,19444,1,0,0:0:0:0:
376,48,19793,1,0,0:0:0:0:
376,128,20142,1,0,0:0:0:0:
160,208,20491,1,8,0:0:0:0:
160,288,20709,1,0,0:0:0:0:
160,328,20840,1,0,0:0:0:0:
240,328,21058,1,0,0:0:0:0:
280,328,21189,6,0,B|512:328,3,227.499989829958,4|8|0|8,0:0|0:0|0:0|0:0,0:0:0:0:
376,288,22584,22,0,B|272:360|160:288,3,227.499989829958,4|8|0|8,0:0|0:0|0:0|0:0,0:0:0:0:
408,128,24285,5,0,0:0:0:0:
512,128,24503,1,0,0:0:0:0:
512,168,24633,1,8,0:0:0:0:
304,128,24851,1,0,0:0:0:0:
304,88,24982,1,0,0:0:0:0:
200,40,25200,6,0,B|496:40,2,292.5,0|8|0,0:0|0:0|0:0,0:0:0:0:
360,152,26988,37,0,0:0:0:0:
320,152,27119,1,0,0:0:0:0:
152,184,27337,1,0,0:0:0:0:
152,224,27468,1,8,0:0:0:0:
344,288,27729,1,0,0:0:0:0:
200,384,28035,1,0,0:0:0:0:
344,384,28427,6,0,B|512:384,1,162.5,0|8,0:0|0:0,0:0:0:0:
344,384,29212,1,0,0:0:0:0:
507,384,29561,1,0,0:0:0:0:
360,280,29735,37,0,0:0:0:0:
336,256,29866,1,0,0:0:0:0:
240,160,30084,1,0,0:0:0:0:
216,136,30215,1,8,0:0:0:0:
184,208,30433,1,0,0:0:0:0:
224,208,30564,1,0,0:0:0:0:
352,208,30782,1,0,0:0:0:0:
392,208,30912,1,8,0:0:0:0:
360,136,31130,1,0,0:0:0:0:
336,160,31261,1,0,0:0:0:0:
240,256,31479,5,0,0:0:0:0:
216,280,31610,1,4,0:0:0:0:
136,360,31959,37,0,0:0:0:0:
440,360,32177,1,8,0:0:0:0:
32,208,32526,22,0,B|148:138,1,130,0|8,0:0|0:0,0:0:0:0:
224,90,33223,1,0,0:0:0:0:
260,69,33354,1,0,0:0:0:0:
342,19,33572,1,8,0:0:0:0:
72,256,33921,2,0,B|200:256,2,130,0|8|0,0:0|0:0|0:0,0:0:0:0:
272,296,35317,21,0,0:0:0:0:
312,296,35404,1,0,0:0:0:0:
432,296,35622,1,4,0:0:0:0:
432,104,46872,53,0,0:0:0:0:
192,224,47222,6,0,B|336:152,1,142.187493643724,8|0,0:0|0:0,0:0:0:0:
80,280,47775,37,0,0:0:0:0:
80,104,48248,1,0,0:0:0:0:
320,160,48617,6,0,B|176:232,1,142.187493643724,8|0,0:0|0:0,0:0:0:0:
432,280,49151,37,0,0:0:0:0:
256,336,49623,1,0,0:0:0:0:
192,224,49969,6,0,B|320:160,1,142.187493643724,8|0,0:0|0:0,0:0:0:0:
256,48,50526,37,0,0:0:0:0:
128,32,52367,6,0,B|128:280,1,227.499989829958,0|8,0:0|0:0,0:0:0:0:
24,320,52933,37,0,0:0:0:0:
232,320,53277,1,0,0:0:0:0:
384,352,53762,6,0,B|384:120,1,227.499989829958,0|8,0:0|0:0,0:0:0:0:
488,64,54308,37,0,0:0:0:0:
280,64,54652,1,0,0:0:0:0:
256,72,55114,6,0,B|256:312,1,227.499989829958,0|8,0:0|0:0,0:0:0:0:
152,192,55684,37,0,0:0:0:0:
360,192,56027,1,0,0:0:0:0:
224,40,57876,1,0,0:0:0:0:
64,200,58219,1,8,0:0:0:0:
224,184,58428,6,0,B|64:344,1,227.499989829958
288,352,59251,37,0,0:0:0:0:
456,184,59595,1,8,0:0:0:0:
288,200,59823,6,0,B|448:40,1,227.499989829958
259,59,60626,37,0,0:0:0:0:
112,200,60970,1,8,0:0:0:0:
400,200,61219,6,0,B|248:48,1,199.062491101213
64,344,63377,37,0,0:0:0:0:
176,344,63721,1,8,0:0:0:0:
64,152,63936,1,0,0:0:0:0:
176,344,64271,6,0,B|336:344|456:224,1,312.812486016192
456,40,65099,37,8,0:0:0:0:
456,224,65311,1,0,0:0:0:0:
344,40,65666,6,0,B|176:40|56:160,1,312.812486016192
64,344,66472,37,8,0:0:0:0:
62,154,66686,1,0,0:0:0:0:
256,192,66974,12,4,67498,0:0:0:0:
352,24,83109,53,0,0:0:0:0:
512,56,83327,1,0,0:0:0:0:
496,88,83458,1,8,0:0:0:0:
240,152,83676,1,0,0:0:0:0:
272,168,83807,1,0,0:0:0:0:
512,240,84025,6,0,B|224:264,2,276.25,0|8|0,0:0|0:0|0:0,0:0:0:0:
176,280,85723,37,0,0:0:0:0:
136,280,85854,1,0,0:0:0:0:
24,312,86072,1,0,0:0:0:0:
24,352,86203,1,8,0:0:0:0:
152,200,86554,1,0,0:0:0:0:
152,352,86772,6,0,B|480:352,1,325,0|8,0:0|0:0,0:0:0:0:
152,352,87993,1,0,0:0:0:0:
477,352,88342,1,0,0:0:0:0:
328,272,88645,37,0,0:0:0:0:
32,272,88996,6,0,B|280:272,1,227.499989829958,8|0,0:0|0:0,0:0:0:0:
352,144,89737,21,2,0:0:0:0:
296,216,89955,1,0,0:0:0:0:
312,248,90086,1,0,0:0:0:0:
408,216,90304,1,0,0:0:0:0:
392,248,90435,1,2,0:0:0:0:
48,208,90653,37,2,0:0:0:0:
88,208,90784,1,2,0:0:0:0:
192,208,91002,1,0,0:0:0:0:
232,208,91132,1,2,0:0:0:0:
344,208,91394,21,0,0:0:0:0:
456,208,91743,1,2,0:0:0:0:
56,272,92092,1,2,0:0:0:0:
184,272,92441,1,6,0:0:0:0:
328,272,92789,1,0,0:0:0:0:
456,272,93138,1,6,0:0:0:0:
56,120,93487,5,0,0:0:0:0:
456,120,93836,1,6,0:0:0:0:
400,296,95667,22,0,B|112:296,1,284.374987287447,0|0,0:0|0:0,0:0:0:0:
72,296,96278,5,0,0:0:0:0:
440,296,96627,5,4,0:0:0:0:
144,296,98981,38,0,B|384:296,1,227.499989829958,0|8,0:0|0:0,0:0:0:0:
256,192,99679,12,4,100726,0:0:0:0:
