osu file format v12

[General]
AudioFilename: 06 - So You Did It Again.mp3
AudioLeadIn: 0
PreviewTime: -1
Countdown: 1
SampleSet: Normal
StackLeniency: 0.7
Mode: 0
LetterboxInBreaks: 1

[Editor]
Bookmarks: 11988,16828,19837,23543,25985,28253,30912,45433,51582,57076,62222,81844,84112,87688
DistanceSpacing: 0.8
BeatDivisor: 8
GridSize: 8

[Metadata]
Title:So You Did It Again
TitleUnicode:So You Did It Again
Artist:Ane Brun
ArtistUnicode:Ane Brun
Creator:Niektory
Version:Hard
Source:
Tags:
BeatmapID:124991
BeatmapSetID:26065

[Difficulty]
HPDrainRate:7
CircleSize:5
OverallDifficulty:4
ApproachRate:8
SliderMultiplier:1.3
SliderTickRate:1

[Events]
//Background and Video events
Video,0,"so you did it again.avi"
0,0,"bg.jpg",0,0
//Break Periods
2,35822,46122
2,67803,82359
//Storyboard Layer 0 (Background)
//Storyboard Layer 1 (Fail)
//Storyboard Layer 2 (Pass)
//Storyboard Layer 3 (Foreground)
//Storyboard Sound Samples
//Background Colour Transformations
3,100,173,164,152

[TimingPoints]
12817,348.837209302326,4,1,0,100,1,0
19837,-100,4,1,0,100,0,0
24350,-100,4,1,0,100,0,0
46873.2000669413,348.837209302326,4,1,0,100,1,0
46973.2000669413,-100,4,1,0,100,0,0
82760.8918183153,348.837209302326,4,1,0,100,1,0
87688,-100,4,1,0,100,0,0
89617,-100,4,2,0,100,0,0
95294,-100,4,1,0,100,0,0

[Colours]
Combo1 : 133,165,182
Combo2 : 61,54,41
Combo3 : 128,0,0
Combo4 : 62,0,62

[HitObjects]
48,184,13078,6,0,L|144:136,1,97.5
136,224,13427,2,0,L|232:176,1,97.5,8|0,0:0|0:0,0:0:0:0:
224,104,13776,1,0,0:0:0:0:
296,144,14037,1,0,0:0:0:0:
208,264,14386,1,0,0:0:0:0:
208,264,14473,1,0,0:0:0:0:
128,304,14779,5,0,0:0:0:0:
128,304,14866,2,0,L|108:168,2,130,8|0|8,0:0|0:0|0:0,0:0:0:0:
216,336,15782,37,0,0:0:0:0:
216,336,15869,1,0,0:0:0:0:
304,304,16130,1,0,0:0:0:0:
304,304,16218,2,0,L|304:200,1,97.5,8|0,0:0|0:0,0:0:0:0:
304,136,16785,6,0,L|440:136,1,130
434,136,17221,1,0,0:0:0:0:
504,136,17526,1,0,0:0:0:0:
504,136,17613,2,0,L|504:280,1,130,8|0,0:0|0:0,0:0:0:0:
504,136,18398,1,8,0:0:0:0:
504,48,18616,37,0,0:0:0:0:
504,48,18747,1,0,0:0:0:0:
360,48,19096,2,0,L|264:144,1,130,8|0,0:0|0:0,0:0:0:0:
176,120,19793,2,0,L|272:216,1,130
328,232,20491,2,0,L|264:296,1,81.25,8|0,0:0|0:0,0:0:0:0:
272,288,20840,1,0,0:0:0:0:
344,328,21058,1,0,0:0:0:0:
344,328,21189,6,0,B|480:328,3,130,4|0|4|0,0:0|0:0|0:0|0:0,0:0:0:0:
320,272,22584,22,0,B|256:304|192:272,3,130,4|0|4|0,0:0|0:0|0:0|0:0,0:0:0:0:
408,192,24285,6,0,L|504:192,1,81.25
448,128,24633,2,0,L|352:128,1,81.25,8|0,0:0|0:0,0:0:0:0:
368,128,24982,1,0,0:0:0:0:
408,64,25200,1,0,0:0:0:0:
328,64,25549,5,0,0:0:0:0:
328,64,25680,1,0,0:0:0:0:
248,64,25942,1,0,0:0:0:0:
248,64,26072,2,0,L|384:64,2,130,8|0|8,0:0|0:0|0:0,0:0:0:0:
360,152,26988,37,0,0:0:0:0:
360,152,27119,2,0,L|272:152,1,81.25
200,152,27468,2,0,L|200:256,1,97.5,8|0,0:0|0:0,0:0:0:0:
200,384,28035,2,0,L|352:384,1,146.25
344,384,28427,6,0,B|512:384,1,162.5,0|8,0:0|0:0,0:0:0:0:
504,208,29212,1,0,0:0:0:0:
432,280,29561,1,8,0:0:0:0:
336,280,29735,38,0,L|288:280,1,48.75
200,280,30084,2,0,L|200:224,1,48.75,0|8,0:0|0:0,0:0:0:0:
200,144,30433,2,0,L|256:144,1,48.75
336,144,30782,2,0,L|336:200,1,48.75,0|8,0:0|0:0,0:0:0:0:
336,280,31130,2,0,L|336:336,1,48.75
248,328,31479,6,0,L|192:328,1,48.75,0|4,0:0|0:0,0:0:0:0:
112,328,31959,38,0,L|24:328,1,81.25
32,208,32526,22,0,B|148:138,1,130,0|8,0:0|0:0,0:0:0:0:
224,88,33223,1,0,0:0:0:0:
224,88,33354,2,0,L|298:42,1,81.25
432,160,33921,2,0,B|432:296,2,130,0|8|0,0:0|0:0|0:0,0:0:0:0:
344,296,35317,21,0,0:0:0:0:
344,296,35404,2,0,L|256:296,1,81.25,0|4,0:0|0:0,0:0:0:0:
432,104,46872,53,0,0:0:0:0:
292,174,47222,6,0,B|212:214,1,81.25,8|0,0:0|0:0,0:0:0:0:
80,280,47775,37,0,0:0:0:0:
80,104,48248,1,0,0:0:0:0:
293,174,48617,6,0,B|213:214,1,81.25,8|0,0:0|0:0,0:0:0:0:
432,280,49151,37,0,0:0:0:0:
256,336,49623,1,0,0:0:0:0:
218,211,49969,6,0,B|295:173,1,81.25,8|0,0:0|0:0,0:0:0:0:
256,48,50526,37,0,0:0:0:0:
88,32,52367,6,0,B|88:256,1,211.25,0|8,0:0|0:0,0:0:0:0:
256,192,53277,37,0,0:0:0:0:
424,352,53762,6,0,B|424:128,1,211.25,0|8,0:0|0:0,0:0:0:0:
256,192,54652,37,0,0:0:0:0:
256,72,55114,6,0,B|256:296,1,211.25,0|8,0:0|0:0,0:0:0:0:
256,72,56027,37,0,0:0:0:0:
224,40,57876,1,0,0:0:0:0:
136,128,58219,1,8,0:0:0:0:
224,216,58428,6,0,B|128:312,1,130
288,344,59251,37,0,0:0:0:0:
376,256,59595,1,8,0:0:0:0:
288,168,59823,6,0,B|384:72,1,130
256,40,60626,37,0,0:0:0:0:
256,192,60970,1,8,0:0:0:0:
400,168,61219,6,0,B|304:72,1,130
64,152,63399,38,0,L|64:280,1,113.75,0|0,0:0|0:0,0:0:0:0:
64,344,63936,1,8,0:0:0:0:
176,344,64271,6,0,B|336:344|456:224,1,312.812486016192
456,144,65317,37,8,0:0:0:0:
344,40,65666,6,0,B|176:40|56:160,1,308.75
64,232,66686,37,8,0:0:0:0:
256,192,66974,12,4,67498,0:0:0:0:
304,88,83109,54,0,L|392:88,1,81.25
432,160,83458,2,0,L|344:160,1,81.25
280,88,83807,1,0,0:0:0:0:
208,160,84025,1,0,0:0:0:0:
296,248,84374,5,0,0:0:0:0:
296,248,84461,1,0,0:0:0:0:
368,240,84723,1,0,0:0:0:0:
368,240,84810,2,0,L|504:232,2,130
200,256,85723,37,0,0:0:0:0:
200,256,85854,1,0,0:0:0:0:
128,256,86072,1,0,0:0:0:0:
128,256,86203,1,8,0:0:0:0:
32,352,86554,1,0,0:0:0:0:
152,352,86772,6,0,B|480:352,1,325,0|8,0:0|0:0,0:0:0:0:
480,240,87993,1,0,0:0:0:0:
360,240,88342,1,0,0:0:0:0:
248,160,88645,37,0,0:0:0:0:
152,240,88996,6,0,B|288:240,1,130,8|0,0:0|0:0,0:0:0:0:
352,144,89737,21,2,0:0:0:0:
296,216,89955,2,0,L|320:264,1,48.75
387,259,90304,2,0,L|416:208,1,48.75
232,208,90653,38,0,L|176:208,1,48.75
88,208,91002,2,0,L|40:208,1,48.75
256,208,91394,21,0,0:0:0:0:
456,208,91743,1,2,0:0:0:0:
456,272,92092,1,2,0:0:0:0:
328,272,92441,1,6,0:0:0:0:
184,272,92789,1,0,0:0:0:0:
56,272,93138,1,6,0:0:0:0:
56,120,93487,5,0,0:0:0:0:
456,120,93836,1,6,0:0:0:0:
328,296,95667,22,0,B|176:296,1,146.25,0|0,0:0|0:0,0:0:0:0:
72,296,96278,5,0,0:0:0:0:
440,296,96627,5,4,0:0:0:0:
192,296,98981,38,0,B|336:296,1,130,0|8,0:0|0:0,0:0:0:0:
256,192,99679,12,4,100726,0:0:0:0:
