osu file format v12

[General]
AudioFilename: virtual
AudioLeadIn: 0
PreviewTime: 0
Countdown: 0
SampleSet: Soft
StackLeniency: 0.4
Mode: 3
LetterboxInBreaks: 1
SpecialStyle: 0
WidescreenStoryboard: 0

[Editor]
DistanceSpacing: 1
BeatDivisor: 4
GridSize: 8

[Metadata]
Title:L.D.
TitleUnicode:L.D.
Artist:Andy Lee arranged by Saka-ROW
ArtistUnicode:Andy Lee arranged by Saka-ROW組
Creator:AILK
Version:OJ Lv.7
Source:bms
Tags:bms みんな大好きL.D.
BeatmapID:372164
BeatmapSetID:150912

[Difficulty]
HPDrainRate:10
CircleSize:7
OverallDifficulty:7
ApproachRate:7
SliderMultiplier:0.4
SliderTickRate:1

[Events]
//Background and Video events
//Break Periods
//Storyboard Layer 0 (Background)
//Storyboard Layer 1 (Fail)
//Storyboard Layer 2 (Pass)
//Storyboard Layer 3 (Foreground)
//Storyboard Sound Samples
Sample,1500,0,"99.wav",85
Sample,31312,0,"01.wav",100
Sample,78375,0,"01.wav",85
//Background Colour Transformations
3,100,163,162,255

[TimingPoints]
0,375,4,2,0,70,1,0

[HitObjects]
416,192,7875,1,0,0:0:0:100:02.wav
416,192,8625,1,0,0:0:0:100:02.wav
416,192,9375,1,0,0:0:0:100:02.wav
416,192,10125,1,0,0:0:0:100:02.wav
416,192,10500,1,0,0:0:0:100:02.wav
416,192,10875,1,0,0:0:0:100:02.wav
416,192,11250,1,0,0:0:0:100:02.wav
416,192,11437,1,0,0:0:0:100:02.wav
416,192,11812,1,0,0:0:0:100:02.wav
32,192,13500,1,0,0:0:0:100:01.wav
96,192,13500,1,0,0:0:0:100:01.wav
160,192,13500,1,0,0:0:0:100:01.wav
288,192,13500,1,0,0:0:0:100:01.wav
352,192,13500,1,0,0:0:0:100:01.wav
32,192,13593,1,0,0:0:0:100:01.wav
32,192,13687,1,0,0:0:0:100:01.wav
32,192,13781,1,0,0:0:0:100:01.wav
32,192,13875,1,0,0:0:0:100:01.wav
288,192,14250,1,0,0:0:0:100:01.wav
352,192,14250,1,0,0:0:0:100:01.wav
416,192,14250,1,0,0:0:0:100:01.wav
160,192,14343,1,0,0:0:0:100:01.wav
480,192,14343,1,0,0:0:0:100:01.wav
160,192,14437,1,0,0:0:0:100:01.wav
480,192,14437,1,0,0:0:0:100:01.wav
160,192,14531,1,0,0:0:0:100:01.wav
480,192,14531,1,0,0:0:0:100:01.wav
288,192,14625,1,0,0:0:0:100:01.wav
352,192,14625,1,0,0:0:0:100:01.wav
416,192,14625,1,0,0:0:0:100:01.wav
160,192,15000,1,0,0:0:0:100:01.wav
96,192,15093,1,0,0:0:0:100:01.wav
288,192,15093,1,0,0:0:0:100:01.wav
32,192,15187,1,0,0:0:0:100:01.wav
352,192,15187,1,0,0:0:0:100:01.wav
32,192,15281,1,0,0:0:0:100:01.wav
352,192,15281,1,0,0:0:0:100:01.wav
32,192,15375,1,0,0:0:0:100:01.wav
352,192,15375,1,0,0:0:0:100:01.wav
160,192,15750,1,0,0:0:0:100:01.wav
288,192,15750,1,0,0:0:0:100:01.wav
352,192,15750,1,0,0:0:0:100:01.wav
416,192,15750,1,0,0:0:0:100:01.wav
480,192,15750,1,0,0:0:0:100:01.wav
160,192,15843,1,0,0:0:0:100:01.wav
160,192,15937,1,0,0:0:0:100:01.wav
288,192,15937,1,0,0:0:0:100:01.wav
352,192,15937,1,0,0:0:0:100:01.wav
416,192,15937,1,0,0:0:0:100:01.wav
160,192,16031,1,0,0:0:0:100:01.wav
160,192,16125,1,0,0:0:0:100:01.wav
288,192,16125,1,0,0:0:0:100:01.wav
352,192,16125,1,0,0:0:0:100:01.wav
416,192,16125,1,0,0:0:0:100:01.wav
480,192,16125,1,0,0:0:0:100:01.wav
32,192,16500,1,0,0:0:0:100:01.wav
96,192,16500,1,0,0:0:0:100:01.wav
160,192,16500,1,0,0:0:0:100:01.wav
288,192,16500,1,0,0:0:0:100:01.wav
352,192,16500,1,0,0:0:0:100:01.wav
32,192,16593,1,0,0:0:0:100:01.wav
32,192,16687,1,0,0:0:0:100:01.wav
32,192,16781,1,0,0:0:0:100:01.wav
32,192,16875,1,0,0:0:0:100:01.wav
352,192,17250,1,0,0:0:0:100:01.wav
352,192,17343,1,0,0:0:0:100:01.wav
288,192,17437,1,0,0:0:0:100:01.wav
416,192,17437,1,0,0:0:0:100:01.wav
160,192,17531,1,0,0:0:0:100:01.wav
480,192,17531,1,0,0:0:0:100:01.wav
160,192,17625,1,0,0:0:0:100:01.wav
480,192,17625,1,0,0:0:0:100:01.wav
160,192,18000,1,0,0:0:0:100:01.wav
96,192,18093,1,0,0:0:0:100:01.wav
160,192,18093,1,0,0:0:0:100:01.wav
288,192,18093,1,0,0:0:0:100:01.wav
32,192,18187,1,0,0:0:0:100:01.wav
96,192,18187,1,0,0:0:0:100:01.wav
160,192,18187,1,0,0:0:0:100:01.wav
288,192,18187,1,0,0:0:0:100:01.wav
352,192,18187,1,0,0:0:0:100:01.wav
32,192,18281,1,0,0:0:0:100:01.wav
96,192,18281,1,0,0:0:0:100:01.wav
160,192,18281,1,0,0:0:0:100:01.wav
288,192,18281,1,0,0:0:0:100:01.wav
352,192,18281,1,0,0:0:0:100:01.wav
96,192,18375,1,0,0:0:0:100:01.wav
288,192,18375,1,0,0:0:0:100:01.wav
352,192,18750,1,0,0:0:0:100:01.wav
288,192,18843,1,0,0:0:0:100:01.wav
352,192,18843,1,0,0:0:0:100:01.wav
416,192,18843,1,0,0:0:0:100:01.wav
160,192,18937,1,0,0:0:0:100:01.wav
288,192,18937,1,0,0:0:0:100:01.wav
352,192,18937,1,0,0:0:0:100:01.wav
416,192,18937,1,0,0:0:0:100:01.wav
480,192,18937,1,0,0:0:0:100:01.wav
160,192,19031,1,0,0:0:0:100:01.wav
288,192,19031,1,0,0:0:0:100:01.wav
352,192,19031,1,0,0:0:0:100:01.wav
416,192,19031,1,0,0:0:0:100:01.wav
480,192,19031,1,0,0:0:0:100:01.wav
288,192,19125,1,0,0:0:0:100:01.wav
416,192,19125,1,0,0:0:0:100:01.wav
32,192,19500,1,0,0:0:0:100:01.wav
96,192,19500,1,0,0:0:0:100:01.wav
160,192,19500,1,0,0:0:0:100:01.wav
288,192,19500,1,0,0:0:0:100:01.wav
352,192,19500,1,0,0:0:0:100:01.wav
32,192,19593,1,0,0:0:0:100:01.wav
32,192,19687,1,0,0:0:0:100:01.wav
32,192,19781,1,0,0:0:0:100:01.wav
32,192,19875,1,0,0:0:0:100:01.wav
288,192,20250,1,0,0:0:0:100:01.wav
352,192,20250,1,0,0:0:0:100:01.wav
416,192,20250,1,0,0:0:0:100:01.wav
160,192,20343,1,0,0:0:0:100:01.wav
480,192,20343,1,0,0:0:0:100:01.wav
160,192,20437,1,0,0:0:0:100:01.wav
480,192,20437,1,0,0:0:0:100:01.wav
160,192,20531,1,0,0:0:0:100:01.wav
480,192,20531,1,0,0:0:0:100:01.wav
288,192,20625,1,0,0:0:0:100:01.wav
352,192,20625,1,0,0:0:0:100:01.wav
416,192,20625,1,0,0:0:0:100:01.wav
160,192,21000,1,0,0:0:0:100:01.wav
96,192,21093,1,0,0:0:0:100:01.wav
288,192,21093,1,0,0:0:0:100:01.wav
32,192,21187,1,0,0:0:0:100:01.wav
352,192,21187,1,0,0:0:0:100:01.wav
32,192,21281,1,0,0:0:0:100:01.wav
352,192,21281,1,0,0:0:0:100:01.wav
32,192,21375,1,0,0:0:0:100:01.wav
352,192,21375,1,0,0:0:0:100:01.wav
160,192,21750,1,0,0:0:0:100:01.wav
288,192,21750,1,0,0:0:0:100:01.wav
352,192,21750,1,0,0:0:0:100:01.wav
416,192,21750,1,0,0:0:0:100:01.wav
480,192,21750,1,0,0:0:0:100:01.wav
160,192,21843,1,0,0:0:0:100:01.wav
160,192,21937,1,0,0:0:0:100:01.wav
288,192,21937,1,0,0:0:0:100:01.wav
352,192,21937,1,0,0:0:0:100:01.wav
416,192,21937,1,0,0:0:0:100:01.wav
160,192,22031,1,0,0:0:0:100:01.wav
160,192,22125,1,0,0:0:0:100:01.wav
288,192,22125,1,0,0:0:0:100:01.wav
352,192,22125,1,0,0:0:0:100:01.wav
416,192,22125,1,0,0:0:0:100:01.wav
480,192,22125,1,0,0:0:0:100:01.wav
32,192,22500,1,0,0:0:0:100:01.wav
96,192,22500,1,0,0:0:0:100:01.wav
160,192,22500,1,0,0:0:0:100:01.wav
288,192,22500,1,0,0:0:0:100:01.wav
352,192,22500,1,0,0:0:0:100:01.wav
32,192,22593,1,0,0:0:0:100:01.wav
32,192,22687,1,0,0:0:0:100:01.wav
32,192,22781,1,0,0:0:0:100:01.wav
32,192,22875,1,0,0:0:0:100:01.wav
352,192,23250,1,0,0:0:0:100:01.wav
352,192,23343,1,0,0:0:0:100:01.wav
288,192,23437,1,0,0:0:0:100:01.wav
416,192,23437,1,0,0:0:0:100:01.wav
160,192,23531,1,0,0:0:0:100:01.wav
480,192,23531,1,0,0:0:0:100:01.wav
160,192,23625,1,0,0:0:0:100:01.wav
480,192,23625,1,0,0:0:0:100:01.wav
32,192,24000,1,0,0:0:0:100:01.wav
160,192,24000,1,0,0:0:0:100:01.wav
352,192,24000,1,0,0:0:0:100:01.wav
480,192,24000,1,0,0:0:0:100:01.wav
256,192,24000,1,0,0:0:0:100:01.wav
32,192,24093,1,0,0:0:0:100:01.wav
160,192,24093,1,0,0:0:0:100:01.wav
352,192,24093,1,0,0:0:0:100:01.wav
480,192,24093,1,0,0:0:0:100:01.wav
256,192,24093,1,0,0:0:0:100:01.wav
32,192,24281,1,0,0:0:0:100:01.wav
160,192,24281,1,0,0:0:0:100:01.wav
352,192,24281,1,0,0:0:0:100:01.wav
480,192,24281,1,0,0:0:0:100:01.wav
256,192,24281,1,0,0:0:0:100:01.wav
32,192,24468,1,0,0:0:0:100:01.wav
160,192,24468,1,0,0:0:0:100:01.wav
352,192,24468,1,0,0:0:0:100:01.wav
480,192,24468,1,0,0:0:0:100:01.wav
256,192,24468,1,0,0:0:0:100:01.wav
32,192,24656,1,0,0:0:0:100:01.wav
160,192,24656,1,0,0:0:0:100:01.wav
352,192,24656,1,0,0:0:0:100:01.wav
480,192,24656,1,0,0:0:0:100:01.wav
256,192,24656,1,0,0:0:0:100:01.wav
32,192,24750,1,0,0:0:0:100:01.wav
160,192,24750,1,0,0:0:0:100:01.wav
352,192,24750,1,0,0:0:0:100:01.wav
480,192,24750,1,0,0:0:0:100:01.wav
256,192,24750,1,0,0:0:0:100:01.wav
32,192,25500,1,0,0:0:0:100:01.wav
96,192,25500,1,0,0:0:0:100:01.wav
160,192,25500,1,0,0:0:0:100:01.wav
288,192,25500,1,0,0:0:0:100:01.wav
352,192,25500,1,0,0:0:0:100:01.wav
416,192,25500,1,0,0:0:0:100:01.wav
480,192,25500,1,0,0:0:0:100:01.wav
32,192,25593,1,0,0:0:0:100:01.wav
32,192,25687,1,0,0:0:0:100:01.wav
32,192,25781,1,0,0:0:0:100:01.wav
32,192,25875,1,0,0:0:0:100:01.wav
32,192,25968,1,0,0:0:0:100:01.wav
32,192,26062,1,0,0:0:0:100:01.wav
36,192,26156,1,0,0:0:0:100:01.wav
36,192,26625,1,0,0:0:0:100:01.wav
36,192,26718,1,0,0:0:0:100:01.wav
36,192,26812,1,0,0:0:0:100:01.wav
288,192,27000,1,0,0:0:0:100:01.wav
160,192,27093,1,0,0:0:0:100:01.wav
352,192,27093,1,0,0:0:0:100:01.wav
96,192,27187,1,0,0:0:0:100:01.wav
416,192,27187,1,0,0:0:0:100:01.wav
32,192,27281,1,0,0:0:0:100:01.wav
480,192,27281,1,0,0:0:0:100:01.wav
32,192,27375,1,0,0:0:0:100:01.wav
480,192,27375,1,0,0:0:0:100:01.wav
32,192,27468,1,0,0:0:0:100:01.wav
480,192,27468,1,0,0:0:0:100:01.wav
96,192,27562,1,0,0:0:0:100:01.wav
288,192,27562,1,0,0:0:0:100:01.wav
416,192,27562,1,0,0:0:0:100:01.wav
160,192,27656,1,0,0:0:0:100:01.wav
352,192,27656,1,0,0:0:0:100:01.wav
36,192,28125,1,0,0:0:0:100:01.wav
36,192,28218,1,0,0:0:0:100:01.wav
36,192,28312,1,0,0:0:0:100:01.wav
160,192,28500,1,0,0:0:0:100:01.wav
288,192,28500,1,0,0:0:0:100:01.wav
352,192,28500,1,0,0:0:0:100:01.wav
96,192,28593,1,0,0:0:0:100:01.wav
416,192,28593,1,0,0:0:0:100:01.wav
32,192,28687,1,0,0:0:0:100:01.wav
480,192,28687,1,0,0:0:0:100:01.wav
32,192,28781,1,0,0:0:0:100:01.wav
480,192,28781,1,0,0:0:0:100:01.wav
32,192,28875,1,0,0:0:0:100:01.wav
480,192,28875,1,0,0:0:0:100:01.wav
32,192,28968,1,0,0:0:0:100:01.wav
480,192,28968,1,0,0:0:0:100:01.wav
32,192,29062,1,0,0:0:0:100:01.wav
480,192,29062,1,0,0:0:0:100:01.wav
96,192,29156,1,0,0:0:0:100:01.wav
416,192,29156,1,0,0:0:0:100:01.wav
160,192,29250,1,0,0:0:0:100:01.wav
288,192,29250,1,0,0:0:0:100:01.wav
352,192,29250,1,0,0:0:0:100:01.wav
36,192,29625,1,0,0:0:0:100:01.wav
36,192,29718,1,0,0:0:0:100:01.wav
36,192,29812,1,0,0:0:0:100:01.wav
288,192,30000,1,0,0:0:0:100:01.wav
160,192,30093,1,0,0:0:0:100:01.wav
352,192,30093,1,0,0:0:0:100:01.wav
96,192,30187,1,0,0:0:0:100:01.wav
416,192,30187,1,0,0:0:0:100:01.wav
32,192,30281,1,0,0:0:0:100:01.wav
480,192,30281,1,0,0:0:0:100:01.wav
32,192,30375,1,0,0:0:0:100:01.wav
480,192,30375,1,0,0:0:0:100:01.wav
32,192,30468,1,0,0:0:0:100:01.wav
480,192,30468,1,0,0:0:0:100:01.wav
96,192,30562,1,0,0:0:0:100:01.wav
288,192,30562,1,0,0:0:0:100:01.wav
416,192,30562,1,0,0:0:0:100:01.wav
160,192,30656,1,0,0:0:0:100:01.wav
352,192,30656,1,0,0:0:0:100:01.wav
36,192,31125,1,0,0:0:0:100:01.wav
36,192,31218,1,0,0:0:0:100:01.wav
36,192,31312,1,0,0:0:0:100:01.wav
288,192,31500,1,0,0:0:0:100:01.wav
288,192,31593,1,0,0:0:0:100:01.wav
160,192,31687,1,0,0:0:0:100:01.wav
352,192,31687,1,0,0:0:0:100:01.wav
160,192,31781,1,0,0:0:0:100:01.wav
352,192,31781,1,0,0:0:0:100:01.wav
96,192,31875,1,0,0:0:0:100:01.wav
416,192,31875,1,0,0:0:0:100:01.wav
96,192,31968,1,0,0:0:0:100:01.wav
416,192,31968,1,0,0:0:0:100:01.wav
32,192,32062,1,0,0:0:0:100:01.wav
480,192,32062,1,0,0:0:0:100:01.wav
32,192,32156,1,0,0:0:0:100:01.wav
480,192,32156,1,0,0:0:0:100:01.wav
36,192,32625,1,0,0:0:0:100:01.wav
36,192,32718,1,0,0:0:0:100:01.wav
36,192,32812,1,0,0:0:0:100:01.wav
288,192,33000,1,0,0:0:0:100:01.wav
160,192,33093,1,0,0:0:0:100:01.wav
352,192,33093,1,0,0:0:0:100:01.wav
96,192,33187,1,0,0:0:0:100:01.wav
416,192,33187,1,0,0:0:0:100:01.wav
32,192,33281,1,0,0:0:0:100:01.wav
480,192,33281,1,0,0:0:0:100:01.wav
32,192,33375,1,0,0:0:0:100:01.wav
480,192,33375,1,0,0:0:0:100:01.wav
32,192,33468,1,0,0:0:0:100:01.wav
480,192,33468,1,0,0:0:0:100:01.wav
96,192,33562,1,0,0:0:0:100:01.wav
288,192,33562,1,0,0:0:0:100:01.wav
416,192,33562,1,0,0:0:0:100:01.wav
160,192,33656,1,0,0:0:0:100:01.wav
352,192,33656,1,0,0:0:0:100:01.wav
36,192,34125,1,0,0:0:0:100:01.wav
36,192,34218,1,0,0:0:0:100:01.wav
36,192,34312,1,0,0:0:0:100:01.wav
32,192,34500,1,0,0:0:0:100:01.wav
96,192,34500,1,0,0:0:0:100:01.wav
160,192,34500,1,0,0:0:0:100:01.wav
288,192,34500,1,0,0:0:0:100:01.wav
352,192,34500,1,0,0:0:0:100:01.wav
416,192,34500,1,0,0:0:0:100:01.wav
480,192,34500,1,0,0:0:0:100:01.wav
32,192,34593,1,0,0:0:0:100:01.wav
32,192,34687,1,0,0:0:0:100:01.wav
32,192,34781,1,0,0:0:0:100:01.wav
32,192,34875,1,0,0:0:0:100:01.wav
96,192,34875,1,0,0:0:0:100:01.wav
160,192,34875,1,0,0:0:0:100:01.wav
288,192,34875,1,0,0:0:0:100:01.wav
352,192,34875,1,0,0:0:0:100:01.wav
416,192,34875,1,0,0:0:0:100:01.wav
32,192,34968,1,0,0:0:0:100:01.wav
32,192,35062,1,0,0:0:0:100:01.wav
32,192,35156,1,0,0:0:0:100:01.wav
32,192,35250,1,0,0:0:0:100:01.wav
96,192,35250,1,0,0:0:0:100:01.wav
160,192,35250,1,0,0:0:0:100:01.wav
288,192,35250,1,0,0:0:0:100:01.wav
352,192,35250,1,0,0:0:0:100:01.wav
416,192,35250,1,0,0:0:0:100:01.wav
480,192,35250,1,0,0:0:0:100:01.wav
36,192,35625,1,0,0:0:0:100:01.wav
36,192,35718,1,0,0:0:0:100:01.wav
36,192,35812,1,0,0:0:0:100:01.wav
288,192,36000,1,0,0:0:0:100:01.wav
160,192,36093,1,0,0:0:0:100:01.wav
352,192,36093,1,0,0:0:0:100:01.wav
96,192,36187,1,0,0:0:0:100:01.wav
416,192,36187,1,0,0:0:0:100:01.wav
32,192,36281,1,0,0:0:0:100:01.wav
480,192,36281,1,0,0:0:0:100:01.wav
32,192,36375,1,0,0:0:0:100:01.wav
480,192,36375,1,0,0:0:0:100:01.wav
32,192,36468,1,0,0:0:0:100:01.wav
480,192,36468,1,0,0:0:0:100:01.wav
96,192,36562,1,0,0:0:0:100:01.wav
288,192,36562,1,0,0:0:0:100:01.wav
416,192,36562,1,0,0:0:0:100:01.wav
160,192,36656,1,0,0:0:0:100:01.wav
352,192,36656,1,0,0:0:0:100:01.wav
36,192,36937,1,0,0:0:0:100:01.wav
36,192,36984,1,0,0:0:0:100:01.wav
36,192,37031,1,0,0:0:0:100:01.wav
416,192,37875,1,0,0:0:0:100:02.wav
416,192,38625,1,0,0:0:0:100:02.wav
416,192,39375,1,0,0:0:0:100:02.wav
416,192,40125,1,0,0:0:0:100:02.wav
416,192,40875,1,0,0:0:0:100:02.wav
416,192,41625,1,0,0:0:0:100:02.wav
416,192,42375,1,0,0:0:0:100:02.wav
416,192,43125,1,0,0:0:0:100:02.wav
416,192,43875,1,0,0:0:0:100:02.wav
416,192,44625,1,0,0:0:0:100:02.wav
416,192,45375,1,0,0:0:0:100:02.wav
416,192,46125,1,0,0:0:0:100:02.wav
416,192,46875,1,0,0:0:0:100:02.wav
416,192,47250,1,0,0:0:0:100:02.wav
416,192,47625,1,0,0:0:0:100:02.wav
416,192,48000,1,0,0:0:0:100:02.wav
32,192,49500,1,0,0:0:0:100:01.wav
96,192,49500,1,0,0:0:0:100:01.wav
160,192,49500,1,0,0:0:0:100:01.wav
288,192,49500,1,0,0:0:0:100:01.wav
352,192,49500,1,0,0:0:0:100:01.wav
32,192,49546,1,0,0:0:0:100:01.wav
32,192,49593,1,0,0:0:0:100:01.wav
32,192,49640,1,0,0:0:0:100:01.wav
32,192,49687,1,0,0:0:0:100:01.wav
32,192,49734,1,0,0:0:0:100:01.wav
32,192,49781,1,0,0:0:0:100:01.wav
288,192,49875,1,0,0:0:0:100:01.wav
352,192,49875,1,0,0:0:0:100:01.wav
416,192,49875,1,0,0:0:0:100:01.wav
160,192,49921,1,0,0:0:0:100:01.wav
480,192,49921,1,0,0:0:0:100:01.wav
160,192,49968,1,0,0:0:0:100:01.wav
480,192,49968,1,0,0:0:0:100:01.wav
160,192,50015,1,0,0:0:0:100:01.wav
480,192,50015,1,0,0:0:0:100:01.wav
160,192,50062,1,0,0:0:0:100:01.wav
480,192,50062,1,0,0:0:0:100:01.wav
160,192,50109,1,0,0:0:0:100:01.wav
480,192,50109,1,0,0:0:0:100:01.wav
288,192,50156,1,0,0:0:0:100:01.wav
352,192,50156,1,0,0:0:0:100:01.wav
416,192,50156,1,0,0:0:0:100:01.wav
182,192,50250,1,0,0:0:0:100:01.wav
182,192,50296,1,0,0:0:0:100:01.wav
96,192,50343,1,0,0:0:0:100:01.wav
288,192,50343,1,0,0:0:0:100:01.wav
96,192,50390,1,0,0:0:0:100:01.wav
288,192,50390,1,0,0:0:0:100:01.wav
32,192,50437,1,0,0:0:0:100:01.wav
352,192,50437,1,0,0:0:0:100:01.wav
32,192,50484,1,0,0:0:0:100:01.wav
352,192,50484,1,0,0:0:0:100:01.wav
32,192,50531,1,0,0:0:0:100:01.wav
352,192,50531,1,0,0:0:0:100:01.wav
160,192,50625,1,0,0:0:0:100:01.wav
288,192,50625,1,0,0:0:0:100:01.wav
352,192,50625,1,0,0:0:0:100:01.wav
416,192,50625,1,0,0:0:0:100:01.wav
480,192,50625,1,0,0:0:0:100:01.wav
160,192,50671,1,0,0:0:0:100:01.wav
160,192,50718,1,0,0:0:0:100:01.wav
160,192,50765,1,0,0:0:0:100:01.wav
288,192,50765,1,0,0:0:0:100:01.wav
352,192,50765,1,0,0:0:0:100:01.wav
416,192,50765,1,0,0:0:0:100:01.wav
160,192,50812,1,0,0:0:0:100:01.wav
160,192,50859,1,0,0:0:0:100:01.wav
160,192,50906,1,0,0:0:0:100:01.wav
288,192,50906,1,0,0:0:0:100:01.wav
352,192,50906,1,0,0:0:0:100:01.wav
416,192,50906,1,0,0:0:0:100:01.wav
480,192,50906,1,0,0:0:0:100:01.wav
32,192,51000,1,0,0:0:0:100:01.wav
96,192,51000,1,0,0:0:0:100:01.wav
160,192,51000,1,0,0:0:0:100:01.wav
288,192,51000,1,0,0:0:0:100:01.wav
352,192,51000,1,0,0:0:0:100:01.wav
32,192,51046,1,0,0:0:0:100:01.wav
32,192,51093,1,0,0:0:0:100:01.wav
32,192,51140,1,0,0:0:0:100:01.wav
32,192,51187,1,0,0:0:0:100:01.wav
32,192,51234,1,0,0:0:0:100:01.wav
32,192,51281,1,0,0:0:0:100:01.wav
352,192,51375,1,0,0:0:0:100:01.wav
352,192,51421,1,0,0:0:0:100:01.wav
352,192,51468,1,0,0:0:0:100:01.wav
288,192,51515,1,0,0:0:0:100:01.wav
416,192,51515,1,0,0:0:0:100:01.wav
288,192,51562,1,0,0:0:0:100:01.wav
416,192,51562,1,0,0:0:0:100:01.wav
160,192,51609,1,0,0:0:0:100:01.wav
480,192,51609,1,0,0:0:0:100:01.wav
160,192,51656,1,0,0:0:0:100:01.wav
480,192,51656,1,0,0:0:0:100:01.wav
160,192,51750,1,0,0:0:0:100:01.wav
256,192,51796,1,0,0:0:0:100:01.wav
109,192,51796,1,0,0:0:0:100:01.wav
32,192,51843,1,0,0:0:0:100:01.wav
352,192,51843,1,0,0:0:0:100:01.wav
32,192,51890,1,0,0:0:0:100:01.wav
352,192,51890,1,0,0:0:0:100:01.wav
32,192,51937,1,0,0:0:0:100:01.wav
352,192,51937,1,0,0:0:0:100:01.wav
32,192,51984,1,0,0:0:0:100:01.wav
160,192,51984,1,0,0:0:0:100:01.wav
352,192,51984,1,0,0:0:0:100:01.wav
96,192,52031,1,0,0:0:0:100:01.wav
288,192,52031,1,0,0:0:0:100:01.wav
160,192,52125,1,0,0:0:0:100:01.wav
288,192,52125,1,0,0:0:0:100:01.wav
352,192,52125,1,0,0:0:0:100:01.wav
416,192,52125,1,0,0:0:0:100:01.wav
160,192,52171,1,0,0:0:0:100:01.wav
480,192,52171,1,0,0:0:0:100:01.wav
160,192,52218,1,0,0:0:0:100:01.wav
480,192,52218,1,0,0:0:0:100:01.wav
160,192,52265,1,0,0:0:0:100:01.wav
480,192,52265,1,0,0:0:0:100:01.wav
160,192,52312,1,0,0:0:0:100:01.wav
480,192,52312,1,0,0:0:0:100:01.wav
160,192,52359,1,0,0:0:0:100:01.wav
480,192,52359,1,0,0:0:0:100:01.wav
160,192,52406,1,0,0:0:0:100:01.wav
288,192,52406,1,0,0:0:0:100:01.wav
352,192,52406,1,0,0:0:0:100:01.wav
416,192,52406,1,0,0:0:0:100:01.wav
32,192,52500,1,0,0:0:0:100:01.wav
352,192,52500,1,0,0:0:0:100:01.wav
32,192,52546,1,0,0:0:0:100:01.wav
352,192,52546,1,0,0:0:0:100:01.wav
32,192,52593,1,0,0:0:0:100:01.wav
352,192,52593,1,0,0:0:0:100:01.wav
32,192,52640,1,0,0:0:0:100:01.wav
96,192,52640,1,0,0:0:0:100:01.wav
160,192,52640,1,0,0:0:0:100:01.wav
288,192,52640,1,0,0:0:0:100:01.wav
352,192,52640,1,0,0:0:0:100:01.wav
32,192,52687,1,0,0:0:0:100:01.wav
352,192,52687,1,0,0:0:0:100:01.wav
32,192,52734,1,0,0:0:0:100:01.wav
352,192,52734,1,0,0:0:0:100:01.wav
96,192,52781,1,0,0:0:0:100:01.wav
160,192,52781,1,0,0:0:0:100:01.wav
288,192,52781,1,0,0:0:0:100:01.wav
352,192,52875,1,0,0:0:0:100:01.wav
352,192,52921,1,0,0:0:0:100:01.wav
352,192,52968,1,0,0:0:0:100:01.wav
288,192,53015,1,0,0:0:0:100:01.wav
416,192,53015,1,0,0:0:0:100:01.wav
288,192,53062,1,0,0:0:0:100:01.wav
416,192,53062,1,0,0:0:0:100:01.wav
160,192,53109,1,0,0:0:0:100:01.wav
480,192,53109,1,0,0:0:0:100:01.wav
160,192,53156,1,0,0:0:0:100:01.wav
480,192,53156,1,0,0:0:0:100:01.wav
96,192,53250,1,0,0:0:0:100:01.wav
160,192,53250,1,0,0:0:0:100:01.wav
288,192,53250,1,0,0:0:0:100:01.wav
36,192,53296,1,0,0:0:0:100:01.wav
329,192,53296,1,0,0:0:0:100:01.wav
352,192,53343,1,0,0:0:0:100:01.wav
96,192,53390,1,0,0:0:0:100:01.wav
160,192,53390,1,0,0:0:0:100:01.wav
288,192,53390,1,0,0:0:0:100:01.wav
32,192,53437,1,0,0:0:0:100:01.wav
32,192,53484,1,0,0:0:0:100:01.wav
352,192,53484,1,0,0:0:0:100:01.wav
96,192,53531,1,0,0:0:0:100:01.wav
160,192,53531,1,0,0:0:0:100:01.wav
288,192,53531,1,0,0:0:0:100:01.wav
352,192,53625,1,0,0:0:0:100:01.wav
288,192,53671,1,0,0:0:0:100:01.wav
416,192,53671,1,0,0:0:0:100:01.wav
160,192,53718,1,0,0:0:0:100:01.wav
480,192,53718,1,0,0:0:0:100:01.wav
160,192,53765,1,0,0:0:0:100:01.wav
480,192,53765,1,0,0:0:0:100:01.wav
160,192,53812,1,0,0:0:0:100:01.wav
480,192,53812,1,0,0:0:0:100:01.wav
160,192,53859,1,0,0:0:0:100:01.wav
352,192,53859,1,0,0:0:0:100:01.wav
480,192,53859,1,0,0:0:0:100:01.wav
288,192,53906,1,0,0:0:0:100:01.wav
416,192,53906,1,0,0:0:0:100:01.wav
32,192,54000,1,0,0:0:0:100:01.wav
96,192,54000,1,0,0:0:0:100:01.wav
160,192,54000,1,0,0:0:0:100:01.wav
288,192,54000,1,0,0:0:0:100:01.wav
352,192,54000,1,0,0:0:0:100:01.wav
96,192,54046,1,0,0:0:0:100:01.wav
160,192,54093,1,0,0:0:0:100:01.wav
288,192,54140,1,0,0:0:0:100:01.wav
352,192,54187,1,0,0:0:0:100:01.wav
32,192,54234,1,0,0:0:0:100:01.wav
352,192,54234,1,0,0:0:0:100:01.wav
96,192,54281,1,0,0:0:0:100:01.wav
160,192,54281,1,0,0:0:0:100:01.wav
288,192,54281,1,0,0:0:0:100:01.wav
288,192,54375,1,0,0:0:0:100:01.wav
352,192,54375,1,0,0:0:0:100:01.wav
416,192,54375,1,0,0:0:0:100:01.wav
160,192,54421,1,0,0:0:0:100:01.wav
288,192,54421,1,0,0:0:0:100:01.wav
480,192,54421,1,0,0:0:0:100:01.wav
160,192,54468,1,0,0:0:0:100:01.wav
288,192,54468,1,0,0:0:0:100:01.wav
480,192,54468,1,0,0:0:0:100:01.wav
160,192,54515,1,0,0:0:0:100:01.wav
352,192,54515,1,0,0:0:0:100:01.wav
480,192,54515,1,0,0:0:0:100:01.wav
160,192,54562,1,0,0:0:0:100:01.wav
416,192,54562,1,0,0:0:0:100:01.wav
480,192,54562,1,0,0:0:0:100:01.wav
160,192,54609,1,0,0:0:0:100:01.wav
416,192,54609,1,0,0:0:0:100:01.wav
480,192,54609,1,0,0:0:0:100:01.wav
288,192,54656,1,0,0:0:0:100:01.wav
352,192,54656,1,0,0:0:0:100:01.wav
416,192,54656,1,0,0:0:0:100:01.wav
96,192,54750,1,0,0:0:0:100:01.wav
160,192,54750,1,0,0:0:0:100:01.wav
288,192,54750,1,0,0:0:0:100:01.wav
109,192,54796,1,0,0:0:0:100:01.wav
36,192,54796,1,0,0:0:0:100:01.wav
329,192,54796,1,0,0:0:0:100:01.wav
32,192,54843,1,0,0:0:0:100:01.wav
96,192,54843,1,0,0:0:0:100:01.wav
352,192,54843,1,0,0:0:0:100:01.wav
32,192,54890,1,0,0:0:0:100:01.wav
160,192,54890,1,0,0:0:0:100:01.wav
352,192,54890,1,0,0:0:0:100:01.wav
32,192,54937,1,0,0:0:0:100:01.wav
288,192,54937,1,0,0:0:0:100:01.wav
352,192,54937,1,0,0:0:0:100:01.wav
32,192,54984,1,0,0:0:0:100:01.wav
288,192,54984,1,0,0:0:0:100:01.wav
352,192,54984,1,0,0:0:0:100:01.wav
96,192,55031,1,0,0:0:0:100:01.wav
160,192,55031,1,0,0:0:0:100:01.wav
288,192,55031,1,0,0:0:0:100:01.wav
288,192,55125,1,0,0:0:0:100:01.wav
352,192,55125,1,0,0:0:0:100:01.wav
416,192,55125,1,0,0:0:0:100:01.wav
160,192,55171,1,0,0:0:0:100:01.wav
480,192,55171,1,0,0:0:0:100:01.wav
480,192,55218,1,0,0:0:0:100:01.wav
160,192,55265,1,0,0:0:0:100:01.wav
288,192,55265,1,0,0:0:0:100:01.wav
352,192,55265,1,0,0:0:0:100:01.wav
416,192,55265,1,0,0:0:0:100:01.wav
160,192,55312,1,0,0:0:0:100:01.wav
160,192,55359,1,0,0:0:0:100:01.wav
160,192,55406,1,0,0:0:0:100:01.wav
288,192,55406,1,0,0:0:0:100:01.wav
352,192,55406,1,0,0:0:0:100:01.wav
416,192,55406,1,0,0:0:0:100:01.wav
480,192,55406,1,0,0:0:0:100:01.wav
32,192,55500,1,0,0:0:0:100:01.wav
96,192,55500,1,0,0:0:0:100:01.wav
160,192,55500,1,0,0:0:0:100:01.wav
288,192,55500,1,0,0:0:0:100:01.wav
352,192,55500,1,0,0:0:0:100:01.wav
32,192,55546,1,0,0:0:0:100:01.wav
32,192,55593,1,0,0:0:0:100:01.wav
32,192,55640,1,0,0:0:0:100:01.wav
32,192,55687,1,0,0:0:0:100:01.wav
32,192,55734,1,0,0:0:0:100:01.wav
32,192,55781,1,0,0:0:0:100:01.wav
288,192,55875,1,0,0:0:0:100:01.wav
352,192,55875,1,0,0:0:0:100:01.wav
416,192,55875,1,0,0:0:0:100:01.wav
160,192,55921,1,0,0:0:0:100:01.wav
480,192,55921,1,0,0:0:0:100:01.wav
160,192,55968,1,0,0:0:0:100:01.wav
480,192,55968,1,0,0:0:0:100:01.wav
160,192,56015,1,0,0:0:0:100:01.wav
480,192,56015,1,0,0:0:0:100:01.wav
160,192,56062,1,0,0:0:0:100:01.wav
480,192,56062,1,0,0:0:0:100:01.wav
160,192,56109,1,0,0:0:0:100:01.wav
480,192,56109,1,0,0:0:0:100:01.wav
288,192,56156,1,0,0:0:0:100:01.wav
352,192,56156,1,0,0:0:0:100:01.wav
416,192,56156,1,0,0:0:0:100:01.wav
160,192,56250,1,0,0:0:0:100:01.wav
182,192,56296,1,0,0:0:0:100:01.wav
96,192,56343,1,0,0:0:0:100:01.wav
288,192,56343,1,0,0:0:0:100:01.wav
96,192,56390,1,0,0:0:0:100:01.wav
288,192,56390,1,0,0:0:0:100:01.wav
32,192,56437,1,0,0:0:0:100:01.wav
352,192,56437,1,0,0:0:0:100:01.wav
32,192,56484,1,0,0:0:0:100:01.wav
352,192,56484,1,0,0:0:0:100:01.wav
32,192,56531,1,0,0:0:0:100:01.wav
352,192,56531,1,0,0:0:0:100:01.wav
160,192,56625,1,0,0:0:0:100:01.wav
288,192,56625,1,0,0:0:0:100:01.wav
352,192,56625,1,0,0:0:0:100:01.wav
416,192,56625,1,0,0:0:0:100:01.wav
480,192,56625,1,0,0:0:0:100:01.wav
160,192,56671,1,0,0:0:0:100:01.wav
160,192,56718,1,0,0:0:0:100:01.wav
160,192,56765,1,0,0:0:0:100:01.wav
288,192,56765,1,0,0:0:0:100:01.wav
352,192,56765,1,0,0:0:0:100:01.wav
416,192,56765,1,0,0:0:0:100:01.wav
160,192,56812,1,0,0:0:0:100:01.wav
160,192,56859,1,0,0:0:0:100:01.wav
160,192,56906,1,0,0:0:0:100:01.wav
288,192,56906,1,0,0:0:0:100:01.wav
352,192,56906,1,0,0:0:0:100:01.wav
416,192,56906,1,0,0:0:0:100:01.wav
480,192,56906,1,0,0:0:0:100:01.wav
32,192,57000,1,0,0:0:0:100:01.wav
96,192,57000,1,0,0:0:0:100:01.wav
160,192,57000,1,0,0:0:0:100:01.wav
288,192,57000,1,0,0:0:0:100:01.wav
352,192,57000,1,0,0:0:0:100:01.wav
32,192,57046,1,0,0:0:0:100:01.wav
32,192,57093,1,0,0:0:0:100:01.wav
32,192,57140,1,0,0:0:0:100:01.wav
32,192,57187,1,0,0:0:0:100:01.wav
32,192,57234,1,0,0:0:0:100:01.wav
32,192,57281,1,0,0:0:0:100:01.wav
352,192,57375,1,0,0:0:0:100:01.wav
352,192,57421,1,0,0:0:0:100:01.wav
352,192,57468,1,0,0:0:0:100:01.wav
288,192,57515,1,0,0:0:0:100:01.wav
416,192,57515,1,0,0:0:0:100:01.wav
288,192,57562,1,0,0:0:0:100:01.wav
416,192,57562,1,0,0:0:0:100:01.wav
160,192,57609,1,0,0:0:0:100:01.wav
480,192,57609,1,0,0:0:0:100:01.wav
160,192,57656,1,0,0:0:0:100:01.wav
480,192,57656,1,0,0:0:0:100:01.wav
160,192,57750,1,0,0:0:0:100:01.wav
109,192,57796,1,0,0:0:0:100:01.wav
256,192,57796,1,0,0:0:0:100:01.wav
32,192,57843,1,0,0:0:0:100:01.wav
352,192,57843,1,0,0:0:0:100:01.wav
32,192,57890,1,0,0:0:0:100:01.wav
352,192,57890,1,0,0:0:0:100:01.wav
32,192,57937,1,0,0:0:0:100:01.wav
352,192,57937,1,0,0:0:0:100:01.wav
32,192,57984,1,0,0:0:0:100:01.wav
160,192,57984,1,0,0:0:0:100:01.wav
352,192,57984,1,0,0:0:0:100:01.wav
96,192,58031,1,0,0:0:0:100:01.wav
288,192,58031,1,0,0:0:0:100:01.wav
160,192,58125,1,0,0:0:0:100:01.wav
288,192,58125,1,0,0:0:0:100:01.wav
352,192,58125,1,0,0:0:0:100:01.wav
416,192,58125,1,0,0:0:0:100:01.wav
160,192,58171,1,0,0:0:0:100:01.wav
480,192,58171,1,0,0:0:0:100:01.wav
160,192,58218,1,0,0:0:0:100:01.wav
480,192,58218,1,0,0:0:0:100:01.wav
160,192,58265,1,0,0:0:0:100:01.wav
480,192,58265,1,0,0:0:0:100:01.wav
160,192,58312,1,0,0:0:0:100:01.wav
480,192,58312,1,0,0:0:0:100:01.wav
160,192,58359,1,0,0:0:0:100:01.wav
480,192,58359,1,0,0:0:0:100:01.wav
160,192,58406,1,0,0:0:0:100:01.wav
288,192,58406,1,0,0:0:0:100:01.wav
352,192,58406,1,0,0:0:0:100:01.wav
416,192,58406,1,0,0:0:0:100:01.wav
32,192,58500,1,0,0:0:0:100:01.wav
352,192,58500,1,0,0:0:0:100:01.wav
32,192,58546,1,0,0:0:0:100:01.wav
352,192,58546,1,0,0:0:0:100:01.wav
32,192,58593,1,0,0:0:0:100:01.wav
352,192,58593,1,0,0:0:0:100:01.wav
32,192,58640,1,0,0:0:0:100:01.wav
96,192,58640,1,0,0:0:0:100:01.wav
160,192,58640,1,0,0:0:0:100:01.wav
288,192,58640,1,0,0:0:0:100:01.wav
352,192,58640,1,0,0:0:0:100:01.wav
32,192,58687,1,0,0:0:0:100:01.wav
352,192,58687,1,0,0:0:0:100:01.wav
32,192,58734,1,0,0:0:0:100:01.wav
352,192,58734,1,0,0:0:0:100:01.wav
96,192,58781,1,0,0:0:0:100:01.wav
160,192,58781,1,0,0:0:0:100:01.wav
288,192,58781,1,0,0:0:0:100:01.wav
352,192,58875,1,0,0:0:0:100:01.wav
352,192,58921,1,0,0:0:0:100:01.wav
352,192,58968,1,0,0:0:0:100:01.wav
288,192,59015,1,0,0:0:0:100:01.wav
416,192,59015,1,0,0:0:0:100:01.wav
288,192,59062,1,0,0:0:0:100:01.wav
416,192,59062,1,0,0:0:0:100:01.wav
160,192,59109,1,0,0:0:0:100:01.wav
480,192,59109,1,0,0:0:0:100:01.wav
160,192,59156,1,0,0:0:0:100:01.wav
480,192,59156,1,0,0:0:0:100:01.wav
96,192,59250,1,0,0:0:0:100:01.wav
160,192,59250,1,0,0:0:0:100:01.wav
288,192,59250,1,0,0:0:0:100:01.wav
36,192,59296,1,0,0:0:0:100:01.wav
329,192,59296,1,0,0:0:0:100:01.wav
352,192,59343,1,0,0:0:0:100:01.wav
96,192,59390,1,0,0:0:0:100:01.wav
160,192,59390,1,0,0:0:0:100:01.wav
288,192,59390,1,0,0:0:0:100:01.wav
32,192,59437,1,0,0:0:0:100:01.wav
32,192,59484,1,0,0:0:0:100:01.wav
352,192,59484,1,0,0:0:0:100:01.wav
96,192,59531,1,0,0:0:0:100:01.wav
160,192,59531,1,0,0:0:0:100:01.wav
288,192,59531,1,0,0:0:0:100:01.wav
352,192,59625,1,0,0:0:0:100:01.wav
288,192,59671,1,0,0:0:0:100:01.wav
416,192,59671,1,0,0:0:0:100:01.wav
160,192,59718,1,0,0:0:0:100:01.wav
480,192,59718,1,0,0:0:0:100:01.wav
160,192,59765,1,0,0:0:0:100:01.wav
480,192,59765,1,0,0:0:0:100:01.wav
160,192,59812,1,0,0:0:0:100:01.wav
480,192,59812,1,0,0:0:0:100:01.wav
160,192,59859,1,0,0:0:0:100:01.wav
352,192,59859,1,0,0:0:0:100:01.wav
480,192,59859,1,0,0:0:0:100:01.wav
288,192,59906,1,0,0:0:0:100:01.wav
416,192,59906,1,0,0:0:0:100:01.wav
32,192,60000,1,0,0:0:0:100:01.wav
96,192,60000,1,0,0:0:0:100:01.wav
160,192,60000,1,0,0:0:0:100:01.wav
288,192,60000,1,0,0:0:0:100:01.wav
352,192,60000,1,0,0:0:0:100:01.wav
96,192,60046,1,0,0:0:0:100:01.wav
160,192,60093,1,0,0:0:0:100:01.wav
288,192,60140,1,0,0:0:0:100:01.wav
352,192,60187,1,0,0:0:0:100:01.wav
32,192,60234,1,0,0:0:0:100:01.wav
352,192,60234,1,0,0:0:0:100:01.wav
96,192,60281,1,0,0:0:0:100:01.wav
160,192,60281,1,0,0:0:0:100:01.wav
288,192,60281,1,0,0:0:0:100:01.wav
288,192,60375,1,0,0:0:0:100:01.wav
352,192,60375,1,0,0:0:0:100:01.wav
416,192,60375,1,0,0:0:0:100:01.wav
160,192,60421,1,0,0:0:0:100:01.wav
288,192,60421,1,0,0:0:0:100:01.wav
480,192,60421,1,0,0:0:0:100:01.wav
160,192,60468,1,0,0:0:0:100:01.wav
288,192,60468,1,0,0:0:0:100:01.wav
480,192,60468,1,0,0:0:0:100:01.wav
160,192,60515,1,0,0:0:0:100:01.wav
352,192,60515,1,0,0:0:0:100:01.wav
480,192,60515,1,0,0:0:0:100:01.wav
160,192,60562,1,0,0:0:0:100:01.wav
416,192,60562,1,0,0:0:0:100:01.wav
480,192,60562,1,0,0:0:0:100:01.wav
160,192,60609,1,0,0:0:0:100:01.wav
416,192,60609,1,0,0:0:0:100:01.wav
480,192,60609,1,0,0:0:0:100:01.wav
288,192,60656,1,0,0:0:0:100:01.wav
352,192,60656,1,0,0:0:0:100:01.wav
416,192,60656,1,0,0:0:0:100:01.wav
96,192,60750,1,0,0:0:0:100:01.wav
160,192,60750,1,0,0:0:0:100:01.wav
288,192,60750,1,0,0:0:0:100:01.wav
109,192,60796,1,0,0:0:0:100:01.wav
36,192,60796,1,0,0:0:0:100:01.wav
329,192,60796,1,0,0:0:0:100:01.wav
32,192,60843,1,0,0:0:0:100:01.wav
96,192,60843,1,0,0:0:0:100:01.wav
352,192,60843,1,0,0:0:0:100:01.wav
32,192,60890,1,0,0:0:0:100:01.wav
160,192,60890,1,0,0:0:0:100:01.wav
352,192,60890,1,0,0:0:0:100:01.wav
32,192,60937,1,0,0:0:0:100:01.wav
288,192,60937,1,0,0:0:0:100:01.wav
352,192,60937,1,0,0:0:0:100:01.wav
32,192,60984,1,0,0:0:0:100:01.wav
288,192,60984,1,0,0:0:0:100:01.wav
352,192,60984,1,0,0:0:0:100:01.wav
96,192,61031,1,0,0:0:0:100:01.wav
160,192,61031,1,0,0:0:0:100:01.wav
288,192,61031,1,0,0:0:0:100:01.wav
288,192,61125,1,0,0:0:0:100:01.wav
352,192,61125,1,0,0:0:0:100:01.wav
416,192,61125,1,0,0:0:0:100:01.wav
160,192,61171,1,0,0:0:0:100:01.wav
480,192,61171,1,0,0:0:0:100:01.wav
480,192,61218,1,0,0:0:0:100:01.wav
160,192,61265,1,0,0:0:0:100:01.wav
288,192,61265,1,0,0:0:0:100:01.wav
352,192,61265,1,0,0:0:0:100:01.wav
416,192,61265,1,0,0:0:0:100:01.wav
160,192,61312,1,0,0:0:0:100:01.wav
160,192,61359,1,0,0:0:0:100:01.wav
160,192,61406,1,0,0:0:0:100:01.wav
288,192,61406,1,0,0:0:0:100:01.wav
352,192,61406,1,0,0:0:0:100:01.wav
416,192,61406,1,0,0:0:0:100:01.wav
480,192,61406,1,0,0:0:0:100:01.wav
416,192,61875,1,0,0:0:0:100:02.wav
36,192,62250,1,0,0:0:0:100:01.wav
416,192,62625,1,0,0:0:0:100:02.wav
36,192,63000,1,0,0:0:0:100:01.wav
416,192,63375,1,0,0:0:0:100:02.wav
416,192,63750,1,0,0:0:0:100:02.wav
36,192,63750,1,0,0:0:0:100:01.wav
416,192,64125,1,0,0:0:0:100:02.wav
416,192,64875,1,0,0:0:0:100:02.wav
36,192,65250,1,0,0:0:0:100:01.wav
416,192,65625,1,0,0:0:0:100:02.wav
36,192,66000,1,0,0:0:0:100:01.wav
416,192,66375,1,0,0:0:0:100:02.wav
416,192,66750,1,0,0:0:0:100:02.wav
36,192,66750,1,0,0:0:0:100:01.wav
416,192,67125,1,0,0:0:0:100:02.wav
36,192,67125,1,0,0:0:0:100:01.wav
32,192,67500,1,0,0:0:0:100:01.wav
96,192,67500,1,0,0:0:0:100:01.wav
160,192,67500,1,0,0:0:0:100:01.wav
288,192,67500,1,0,0:0:0:100:01.wav
352,192,67500,1,0,0:0:0:100:01.wav
416,192,67500,1,0,0:0:0:100:01.wav
480,192,67500,1,0,0:0:0:100:01.wav
32,192,67593,1,0,0:0:0:100:01.wav
32,192,67687,1,0,0:0:0:100:01.wav
32,192,67781,1,0,0:0:0:100:01.wav
32,192,67875,1,0,0:0:0:100:01.wav
32,192,67968,1,0,0:0:0:100:01.wav
32,192,68062,1,0,0:0:0:100:01.wav
32,192,68156,1,0,0:0:0:100:01.wav
288,192,69000,1,0,0:0:0:100:01.wav
160,192,69093,1,0,0:0:0:100:01.wav
352,192,69093,1,0,0:0:0:100:01.wav
96,192,69187,1,0,0:0:0:100:01.wav
416,192,69187,1,0,0:0:0:100:01.wav
32,192,69281,1,0,0:0:0:100:01.wav
480,192,69281,1,0,0:0:0:100:01.wav
32,192,69375,1,0,0:0:0:100:01.wav
480,192,69375,1,0,0:0:0:100:01.wav
32,192,69468,1,0,0:0:0:100:01.wav
480,192,69468,1,0,0:0:0:100:01.wav
96,192,69562,1,0,0:0:0:100:01.wav
288,192,69562,1,0,0:0:0:100:01.wav
416,192,69562,1,0,0:0:0:100:01.wav
160,192,69656,1,0,0:0:0:100:01.wav
352,192,69656,1,0,0:0:0:100:01.wav
160,192,70500,1,0,0:0:0:100:01.wav
288,192,70500,1,0,0:0:0:100:01.wav
352,192,70500,1,0,0:0:0:100:01.wav
96,192,70593,1,0,0:0:0:100:01.wav
416,192,70593,1,0,0:0:0:100:01.wav
32,192,70687,1,0,0:0:0:100:01.wav
480,192,70687,1,0,0:0:0:100:01.wav
32,192,70781,1,0,0:0:0:100:01.wav
480,192,70781,1,0,0:0:0:100:01.wav
32,192,70875,1,0,0:0:0:100:01.wav
480,192,70875,1,0,0:0:0:100:01.wav
32,192,70968,1,0,0:0:0:100:01.wav
480,192,70968,1,0,0:0:0:100:01.wav
32,192,71062,1,0,0:0:0:100:01.wav
480,192,71062,1,0,0:0:0:100:01.wav
96,192,71156,1,0,0:0:0:100:01.wav
416,192,71156,1,0,0:0:0:100:01.wav
160,192,71250,1,0,0:0:0:100:01.wav
288,192,71250,1,0,0:0:0:100:01.wav
352,192,71250,1,0,0:0:0:100:01.wav
288,192,72000,1,0,0:0:0:100:01.wav
160,192,72093,1,0,0:0:0:100:01.wav
352,192,72093,1,0,0:0:0:100:01.wav
96,192,72187,1,0,0:0:0:100:01.wav
416,192,72187,1,0,0:0:0:100:01.wav
32,192,72281,1,0,0:0:0:100:01.wav
480,192,72281,1,0,0:0:0:100:01.wav
32,192,72375,1,0,0:0:0:100:01.wav
480,192,72375,1,0,0:0:0:100:01.wav
32,192,72468,1,0,0:0:0:100:01.wav
480,192,72468,1,0,0:0:0:100:01.wav
96,192,72562,1,0,0:0:0:100:01.wav
288,192,72562,1,0,0:0:0:100:01.wav
416,192,72562,1,0,0:0:0:100:01.wav
160,192,72656,1,0,0:0:0:100:01.wav
352,192,72656,1,0,0:0:0:100:01.wav
288,192,73500,1,0,0:0:0:100:01.wav
288,192,73593,1,0,0:0:0:100:01.wav
160,192,73687,1,0,0:0:0:100:01.wav
352,192,73687,1,0,0:0:0:100:01.wav
160,192,73781,1,0,0:0:0:100:01.wav
352,192,73781,1,0,0:0:0:100:01.wav
96,192,73875,1,0,0:0:0:100:01.wav
416,192,73875,1,0,0:0:0:100:01.wav
96,192,73968,1,0,0:0:0:100:01.wav
416,192,73968,1,0,0:0:0:100:01.wav
32,192,74062,1,0,0:0:0:100:01.wav
480,192,74062,1,0,0:0:0:100:01.wav
32,192,74156,1,0,0:0:0:100:01.wav
480,192,74156,1,0,0:0:0:100:01.wav
288,192,75000,128,0,75562:0:0:0:100:01.wav
160,192,75093,128,0,75656:0:0:0:100:01.wav
352,192,75093,128,0,75656:0:0:0:100:01.wav
96,192,75187,128,0,75562:0:0:0:100:01.wav
416,192,75187,128,0,75562:0:0:0:100:01.wav
32,192,75281,128,0,75468:0:0:0:100:01.wav
480,192,75281,128,0,75468:0:0:0:100:01.wav
32,192,76500,1,0,0:0:0:100:01.wav
96,192,76500,1,0,0:0:0:100:01.wav
160,192,76500,1,0,0:0:0:100:01.wav
288,192,76500,1,0,0:0:0:100:01.wav
352,192,76500,1,0,0:0:0:100:01.wav
416,192,76500,1,0,0:0:0:100:01.wav
480,192,76500,1,0,0:0:0:100:01.wav
32,192,76593,1,0,0:0:0:100:01.wav
32,192,76687,1,0,0:0:0:100:01.wav
32,192,76781,1,0,0:0:0:100:01.wav
32,192,76875,1,0,0:0:0:100:01.wav
96,192,76875,1,0,0:0:0:100:01.wav
160,192,76875,1,0,0:0:0:100:01.wav
288,192,76875,1,0,0:0:0:100:01.wav
352,192,76875,1,0,0:0:0:100:01.wav
416,192,76875,1,0,0:0:0:100:01.wav
32,192,76968,1,0,0:0:0:100:01.wav
32,192,77062,1,0,0:0:0:100:01.wav
32,192,77156,1,0,0:0:0:100:01.wav
32,192,77250,1,0,0:0:0:100:01.wav
96,192,77250,1,0,0:0:0:100:01.wav
160,192,77250,1,0,0:0:0:100:01.wav
288,192,77250,1,0,0:0:0:100:01.wav
352,192,77250,1,0,0:0:0:100:01.wav
416,192,77250,1,0,0:0:0:100:01.wav
480,192,77250,1,0,0:0:0:100:01.wav
288,192,78000,1,0,0:0:0:100:01.wav
160,192,78093,1,0,0:0:0:100:01.wav
288,192,78093,1,0,0:0:0:100:01.wav
352,192,78093,1,0,0:0:0:100:01.wav
96,192,78187,1,0,0:0:0:100:01.wav
160,192,78187,1,0,0:0:0:100:01.wav
288,192,78187,1,0,0:0:0:100:01.wav
352,192,78187,1,0,0:0:0:100:01.wav
416,192,78187,1,0,0:0:0:100:01.wav
32,192,78281,1,0,0:0:0:100:01.wav
96,192,78281,1,0,0:0:0:100:01.wav
160,192,78281,1,0,0:0:0:100:01.wav
288,192,78281,1,0,0:0:0:100:01.wav
352,192,78281,1,0,0:0:0:100:01.wav
416,192,78281,1,0,0:0:0:100:01.wav
480,192,78281,1,0,0:0:0:100:01.wav
32,192,78375,1,0,0:0:0:100:01.wav
96,192,78375,1,0,0:0:0:100:01.wav
160,192,78375,1,0,0:0:0:100:01.wav
288,192,78375,1,0,0:0:0:100:01.wav
352,192,78375,1,0,0:0:0:100:01.wav
416,192,78375,1,0,0:0:0:100:01.wav
480,192,78375,1,0,0:0:0:100:01.wav
32,192,78468,1,0,0:0:0:100:01.wav
96,192,78468,1,0,0:0:0:100:01.wav
160,192,78468,1,0,0:0:0:100:01.wav
288,192,78468,1,0,0:0:0:100:01.wav
352,192,78468,1,0,0:0:0:100:01.wav
416,192,78468,1,0,0:0:0:100:01.wav
480,192,78468,1,0,0:0:0:100:01.wav
96,192,78562,1,0,0:0:0:100:01.wav
160,192,78562,1,0,0:0:0:100:01.wav
288,192,78562,1,0,0:0:0:100:01.wav
352,192,78562,1,0,0:0:0:100:01.wav
416,192,78562,1,0,0:0:0:100:01.wav
160,192,78656,1,0,0:0:0:100:01.wav
352,192,78656,1,0,0:0:0:100:01.wav
416,192,79875,1,0,0:0:0:100:02.wav
36,192,80250,1,0,0:0:0:100:01.wav
416,192,80625,1,0,0:0:0:100:02.wav
416,192,81375,1,0,0:0:0:100:02.wav
36,192,81750,1,0,0:0:0:100:01.wav
416,192,82125,1,0,0:0:0:100:02.wav
416,192,82875,1,0,0:0:0:100:02.wav
36,192,83250,1,0,0:0:0:100:01.wav
416,192,83625,1,0,0:0:0:100:02.wav
416,192,84375,1,0,0:0:0:100:02.wav
36,192,84750,1,0,0:0:0:100:01.wav
416,192,85125,1,0,0:0:0:100:02.wav
36,192,85500,1,0,0:0:0:100:01.wav
416,192,85875,1,0,0:0:0:100:02.wav
36,192,86250,1,0,0:0:0:100:01.wav
416,192,86625,1,0,0:0:0:100:02.wav
36,192,87000,1,0,0:0:0:100:01.wav
416,192,87375,1,0,0:0:0:100:02.wav
36,192,87750,1,0,0:0:0:100:01.wav
416,192,88125,1,0,0:0:0:100:02.wav
36,192,88500,1,0,0:0:0:100:01.wav
416,192,88875,1,0,0:0:0:100:02.wav
36,192,89250,1,0,0:0:0:100:01.wav
416,192,89625,1,0,0:0:0:100:02.wav
416,192,90000,1,0,0:0:0:100:02.wav
36,192,90000,1,0,0:0:0:100:01.wav
32,192,91500,1,0,0:0:0:100:01.wav
96,192,91500,1,0,0:0:0:100:01.wav
160,192,91500,1,0,0:0:0:100:01.wav
288,192,91500,1,0,0:0:0:100:01.wav
352,192,91500,1,0,0:0:0:100:01.wav
32,192,91546,1,0,0:0:0:100:01.wav
32,192,91593,1,0,0:0:0:100:01.wav
32,192,91640,1,0,0:0:0:100:01.wav
32,192,91687,1,0,0:0:0:100:01.wav
32,192,91734,1,0,0:0:0:100:01.wav
32,192,91781,1,0,0:0:0:100:01.wav
288,192,91875,1,0,0:0:0:100:01.wav
352,192,91875,1,0,0:0:0:100:01.wav
416,192,91875,1,0,0:0:0:100:01.wav
160,192,91921,1,0,0:0:0:100:01.wav
480,192,91921,1,0,0:0:0:100:01.wav
160,192,91968,1,0,0:0:0:100:01.wav
480,192,91968,1,0,0:0:0:100:01.wav
160,192,92015,1,0,0:0:0:100:01.wav
480,192,92015,1,0,0:0:0:100:01.wav
160,192,92062,1,0,0:0:0:100:01.wav
480,192,92062,1,0,0:0:0:100:01.wav
160,192,92109,1,0,0:0:0:100:01.wav
480,192,92109,1,0,0:0:0:100:01.wav
288,192,92156,1,0,0:0:0:100:01.wav
352,192,92156,1,0,0:0:0:100:01.wav
416,192,92156,1,0,0:0:0:100:01.wav
160,192,92250,1,0,0:0:0:100:01.wav
182,192,92296,1,0,0:0:0:100:01.wav
96,192,92343,1,0,0:0:0:100:01.wav
288,192,92343,1,0,0:0:0:100:01.wav
96,192,92390,1,0,0:0:0:100:01.wav
288,192,92390,1,0,0:0:0:100:01.wav
32,192,92437,1,0,0:0:0:100:01.wav
352,192,92437,1,0,0:0:0:100:01.wav
32,192,92484,1,0,0:0:0:100:01.wav
352,192,92484,1,0,0:0:0:100:01.wav
32,192,92531,1,0,0:0:0:100:01.wav
352,192,92531,1,0,0:0:0:100:01.wav
160,192,92625,1,0,0:0:0:100:01.wav
288,192,92625,1,0,0:0:0:100:01.wav
352,192,92625,1,0,0:0:0:100:01.wav
416,192,92625,1,0,0:0:0:100:01.wav
480,192,92625,1,0,0:0:0:100:01.wav
160,192,92671,1,0,0:0:0:100:01.wav
160,192,92718,1,0,0:0:0:100:01.wav
160,192,92765,1,0,0:0:0:100:01.wav
288,192,92765,1,0,0:0:0:100:01.wav
352,192,92765,1,0,0:0:0:100:01.wav
416,192,92765,1,0,0:0:0:100:01.wav
160,192,92812,1,0,0:0:0:100:01.wav
160,192,92859,1,0,0:0:0:100:01.wav
160,192,92906,1,0,0:0:0:100:01.wav
288,192,92906,1,0,0:0:0:100:01.wav
352,192,92906,1,0,0:0:0:100:01.wav
416,192,92906,1,0,0:0:0:100:01.wav
480,192,92906,1,0,0:0:0:100:01.wav
32,192,93000,1,0,0:0:0:100:01.wav
96,192,93000,1,0,0:0:0:100:01.wav
160,192,93000,1,0,0:0:0:100:01.wav
288,192,93000,1,0,0:0:0:100:01.wav
352,192,93000,1,0,0:0:0:100:01.wav
32,192,93046,1,0,0:0:0:100:01.wav
32,192,93093,1,0,0:0:0:100:01.wav
32,192,93140,1,0,0:0:0:100:01.wav
32,192,93187,1,0,0:0:0:100:01.wav
32,192,93234,1,0,0:0:0:100:01.wav
32,192,93281,1,0,0:0:0:100:01.wav
352,192,93375,1,0,0:0:0:100:01.wav
352,192,93421,1,0,0:0:0:100:01.wav
352,192,93468,1,0,0:0:0:100:01.wav
288,192,93515,1,0,0:0:0:100:01.wav
416,192,93515,1,0,0:0:0:100:01.wav
288,192,93562,1,0,0:0:0:100:01.wav
416,192,93562,1,0,0:0:0:100:01.wav
160,192,93609,1,0,0:0:0:100:01.wav
480,192,93609,1,0,0:0:0:100:01.wav
160,192,93656,1,0,0:0:0:100:01.wav
480,192,93656,1,0,0:0:0:100:01.wav
160,192,93750,1,0,0:0:0:100:01.wav
109,192,93796,1,0,0:0:0:100:01.wav
256,192,93796,1,0,0:0:0:100:01.wav
32,192,93843,1,0,0:0:0:100:01.wav
352,192,93843,1,0,0:0:0:100:01.wav
32,192,93890,1,0,0:0:0:100:01.wav
352,192,93890,1,0,0:0:0:100:01.wav
32,192,93937,1,0,0:0:0:100:01.wav
352,192,93937,1,0,0:0:0:100:01.wav
32,192,93984,1,0,0:0:0:100:01.wav
160,192,93984,1,0,0:0:0:100:01.wav
352,192,93984,1,0,0:0:0:100:01.wav
96,192,94031,1,0,0:0:0:100:01.wav
288,192,94031,1,0,0:0:0:100:01.wav
160,192,94125,1,0,0:0:0:100:01.wav
288,192,94125,1,0,0:0:0:100:01.wav
352,192,94125,1,0,0:0:0:100:01.wav
416,192,94125,1,0,0:0:0:100:01.wav
160,192,94171,1,0,0:0:0:100:01.wav
480,192,94171,1,0,0:0:0:100:01.wav
160,192,94218,1,0,0:0:0:100:01.wav
480,192,94218,1,0,0:0:0:100:01.wav
160,192,94265,1,0,0:0:0:100:01.wav
480,192,94265,1,0,0:0:0:100:01.wav
160,192,94312,1,0,0:0:0:100:01.wav
480,192,94312,1,0,0:0:0:100:01.wav
160,192,94359,1,0,0:0:0:100:01.wav
480,192,94359,1,0,0:0:0:100:01.wav
160,192,94406,1,0,0:0:0:100:01.wav
288,192,94406,1,0,0:0:0:100:01.wav
352,192,94406,1,0,0:0:0:100:01.wav
416,192,94406,1,0,0:0:0:100:01.wav
32,192,94500,1,0,0:0:0:100:01.wav
352,192,94500,1,0,0:0:0:100:01.wav
32,192,94546,1,0,0:0:0:100:01.wav
352,192,94546,1,0,0:0:0:100:01.wav
32,192,94593,1,0,0:0:0:100:01.wav
352,192,94593,1,0,0:0:0:100:01.wav
32,192,94640,1,0,0:0:0:100:01.wav
96,192,94640,1,0,0:0:0:100:01.wav
160,192,94640,1,0,0:0:0:100:01.wav
288,192,94640,1,0,0:0:0:100:01.wav
352,192,94640,1,0,0:0:0:100:01.wav
32,192,94687,1,0,0:0:0:100:01.wav
352,192,94687,1,0,0:0:0:100:01.wav
32,192,94734,1,0,0:0:0:100:01.wav
352,192,94734,1,0,0:0:0:100:01.wav
96,192,94781,1,0,0:0:0:100:01.wav
160,192,94781,1,0,0:0:0:100:01.wav
288,192,94781,1,0,0:0:0:100:01.wav
352,192,94875,1,0,0:0:0:100:01.wav
352,192,94921,1,0,0:0:0:100:01.wav
352,192,94968,1,0,0:0:0:100:01.wav
288,192,95015,1,0,0:0:0:100:01.wav
416,192,95015,1,0,0:0:0:100:01.wav
288,192,95062,1,0,0:0:0:100:01.wav
416,192,95062,1,0,0:0:0:100:01.wav
160,192,95109,1,0,0:0:0:100:01.wav
480,192,95109,1,0,0:0:0:100:01.wav
160,192,95156,1,0,0:0:0:100:01.wav
480,192,95156,1,0,0:0:0:100:01.wav
96,192,95250,1,0,0:0:0:100:01.wav
160,192,95250,1,0,0:0:0:100:01.wav
288,192,95250,1,0,0:0:0:100:01.wav
36,192,95296,1,0,0:0:0:100:01.wav
329,192,95296,1,0,0:0:0:100:01.wav
352,192,95343,1,0,0:0:0:100:01.wav
96,192,95390,1,0,0:0:0:100:01.wav
160,192,95390,1,0,0:0:0:100:01.wav
288,192,95390,1,0,0:0:0:100:01.wav
32,192,95437,1,0,0:0:0:100:01.wav
32,192,95484,1,0,0:0:0:100:01.wav
352,192,95484,1,0,0:0:0:100:01.wav
96,192,95531,1,0,0:0:0:100:01.wav
160,192,95531,1,0,0:0:0:100:01.wav
288,192,95531,1,0,0:0:0:100:01.wav
352,192,95625,1,0,0:0:0:100:01.wav
288,192,95671,1,0,0:0:0:100:01.wav
416,192,95671,1,0,0:0:0:100:01.wav
160,192,95718,1,0,0:0:0:100:01.wav
480,192,95718,1,0,0:0:0:100:01.wav
160,192,95765,1,0,0:0:0:100:01.wav
480,192,95765,1,0,0:0:0:100:01.wav
160,192,95812,1,0,0:0:0:100:01.wav
480,192,95812,1,0,0:0:0:100:01.wav
160,192,95859,1,0,0:0:0:100:01.wav
352,192,95859,1,0,0:0:0:100:01.wav
480,192,95859,1,0,0:0:0:100:01.wav
288,192,95906,1,0,0:0:0:100:01.wav
416,192,95906,1,0,0:0:0:100:01.wav
32,192,96000,1,0,0:0:0:100:01.wav
96,192,96000,1,0,0:0:0:100:01.wav
160,192,96000,1,0,0:0:0:100:01.wav
288,192,96000,1,0,0:0:0:100:01.wav
352,192,96000,1,0,0:0:0:100:01.wav
96,192,96046,1,0,0:0:0:100:01.wav
160,192,96093,1,0,0:0:0:100:01.wav
288,192,96140,1,0,0:0:0:100:01.wav
352,192,96187,1,0,0:0:0:100:01.wav
32,192,96234,1,0,0:0:0:100:01.wav
352,192,96234,1,0,0:0:0:100:01.wav
96,192,96281,1,0,0:0:0:100:01.wav
160,192,96281,1,0,0:0:0:100:01.wav
288,192,96281,1,0,0:0:0:100:01.wav
288,192,96375,1,0,0:0:0:100:01.wav
352,192,96375,1,0,0:0:0:100:01.wav
416,192,96375,1,0,0:0:0:100:01.wav
160,192,96421,1,0,0:0:0:100:01.wav
288,192,96421,1,0,0:0:0:100:01.wav
480,192,96421,1,0,0:0:0:100:01.wav
160,192,96468,1,0,0:0:0:100:01.wav
288,192,96468,1,0,0:0:0:100:01.wav
480,192,96468,1,0,0:0:0:100:01.wav
160,192,96515,1,0,0:0:0:100:01.wav
352,192,96515,1,0,0:0:0:100:01.wav
480,192,96515,1,0,0:0:0:100:01.wav
160,192,96562,1,0,0:0:0:100:01.wav
416,192,96562,1,0,0:0:0:100:01.wav
480,192,96562,1,0,0:0:0:100:01.wav
160,192,96609,1,0,0:0:0:100:01.wav
416,192,96609,1,0,0:0:0:100:01.wav
480,192,96609,1,0,0:0:0:100:01.wav
288,192,96656,1,0,0:0:0:100:01.wav
352,192,96656,1,0,0:0:0:100:01.wav
416,192,96656,1,0,0:0:0:100:01.wav
96,192,96750,1,0,0:0:0:100:01.wav
160,192,96750,1,0,0:0:0:100:01.wav
288,192,96750,1,0,0:0:0:100:01.wav
109,192,96796,1,0,0:0:0:100:01.wav
36,192,96796,1,0,0:0:0:100:01.wav
329,192,96796,1,0,0:0:0:100:01.wav
32,192,96843,1,0,0:0:0:100:01.wav
96,192,96843,1,0,0:0:0:100:01.wav
352,192,96843,1,0,0:0:0:100:01.wav
32,192,96890,1,0,0:0:0:100:01.wav
160,192,96890,1,0,0:0:0:100:01.wav
352,192,96890,1,0,0:0:0:100:01.wav
32,192,96937,1,0,0:0:0:100:01.wav
288,192,96937,1,0,0:0:0:100:01.wav
352,192,96937,1,0,0:0:0:100:01.wav
32,192,96984,1,0,0:0:0:100:01.wav
288,192,96984,1,0,0:0:0:100:01.wav
352,192,96984,1,0,0:0:0:100:01.wav
96,192,97031,1,0,0:0:0:100:01.wav
160,192,97031,1,0,0:0:0:100:01.wav
288,192,97031,1,0,0:0:0:100:01.wav
288,192,97125,1,0,0:0:0:100:01.wav
352,192,97125,1,0,0:0:0:100:01.wav
416,192,97125,1,0,0:0:0:100:01.wav
160,192,97171,1,0,0:0:0:100:01.wav
480,192,97171,1,0,0:0:0:100:01.wav
480,192,97218,1,0,0:0:0:100:01.wav
160,192,97265,1,0,0:0:0:100:01.wav
288,192,97265,1,0,0:0:0:100:01.wav
352,192,97265,1,0,0:0:0:100:01.wav
416,192,97265,1,0,0:0:0:100:01.wav
160,192,97312,1,0,0:0:0:100:01.wav
160,192,97359,1,0,0:0:0:100:01.wav
160,192,97406,1,0,0:0:0:100:01.wav
288,192,97406,1,0,0:0:0:100:01.wav
352,192,97406,1,0,0:0:0:100:01.wav
416,192,97406,1,0,0:0:0:100:01.wav
480,192,97406,1,0,0:0:0:100:01.wav
32,192,97500,1,0,0:0:0:100:01.wav
96,192,97500,1,0,0:0:0:100:01.wav
160,192,97500,1,0,0:0:0:100:01.wav
288,192,97500,1,0,0:0:0:100:01.wav
352,192,97500,1,0,0:0:0:100:01.wav
32,192,97546,1,0,0:0:0:100:01.wav
32,192,97593,1,0,0:0:0:100:01.wav
32,192,97640,1,0,0:0:0:100:01.wav
32,192,97687,1,0,0:0:0:100:01.wav
32,192,97734,1,0,0:0:0:100:01.wav
32,192,97781,1,0,0:0:0:100:01.wav
288,192,97875,1,0,0:0:0:100:01.wav
352,192,97875,1,0,0:0:0:100:01.wav
416,192,97875,1,0,0:0:0:100:01.wav
160,192,97921,1,0,0:0:0:100:01.wav
480,192,97921,1,0,0:0:0:100:01.wav
160,192,97968,1,0,0:0:0:100:01.wav
480,192,97968,1,0,0:0:0:100:01.wav
160,192,98015,1,0,0:0:0:100:01.wav
480,192,98015,1,0,0:0:0:100:01.wav
160,192,98062,1,0,0:0:0:100:01.wav
480,192,98062,1,0,0:0:0:100:01.wav
160,192,98109,1,0,0:0:0:100:01.wav
480,192,98109,1,0,0:0:0:100:01.wav
288,192,98156,1,0,0:0:0:100:01.wav
352,192,98156,1,0,0:0:0:100:01.wav
416,192,98156,1,0,0:0:0:100:01.wav
160,192,98250,1,0,0:0:0:100:01.wav
182,192,98296,1,0,0:0:0:100:01.wav
96,192,98343,1,0,0:0:0:100:01.wav
288,192,98343,1,0,0:0:0:100:01.wav
96,192,98390,1,0,0:0:0:100:01.wav
288,192,98390,1,0,0:0:0:100:01.wav
32,192,98437,1,0,0:0:0:100:01.wav
352,192,98437,1,0,0:0:0:100:01.wav
32,192,98484,1,0,0:0:0:100:01.wav
352,192,98484,1,0,0:0:0:100:01.wav
32,192,98531,1,0,0:0:0:100:01.wav
352,192,98531,1,0,0:0:0:100:01.wav
160,192,98625,1,0,0:0:0:100:01.wav
288,192,98625,1,0,0:0:0:100:01.wav
352,192,98625,1,0,0:0:0:100:01.wav
416,192,98625,1,0,0:0:0:100:01.wav
480,192,98625,1,0,0:0:0:100:01.wav
160,192,98671,1,0,0:0:0:100:01.wav
160,192,98718,1,0,0:0:0:100:01.wav
160,192,98765,1,0,0:0:0:100:01.wav
288,192,98765,1,0,0:0:0:100:01.wav
352,192,98765,1,0,0:0:0:100:01.wav
416,192,98765,1,0,0:0:0:100:01.wav
160,192,98812,1,0,0:0:0:100:01.wav
160,192,98859,1,0,0:0:0:100:01.wav
160,192,98906,1,0,0:0:0:100:01.wav
288,192,98906,1,0,0:0:0:100:01.wav
352,192,98906,1,0,0:0:0:100:01.wav
416,192,98906,1,0,0:0:0:100:01.wav
480,192,98906,1,0,0:0:0:100:01.wav
32,192,99000,1,0,0:0:0:100:01.wav
96,192,99000,1,0,0:0:0:100:01.wav
160,192,99000,1,0,0:0:0:100:01.wav
288,192,99000,1,0,0:0:0:100:01.wav
352,192,99000,1,0,0:0:0:100:01.wav
32,192,99046,1,0,0:0:0:100:01.wav
32,192,99093,1,0,0:0:0:100:01.wav
32,192,99140,1,0,0:0:0:100:01.wav
32,192,99187,1,0,0:0:0:100:01.wav
32,192,99234,1,0,0:0:0:100:01.wav
32,192,99281,1,0,0:0:0:100:01.wav
352,192,99375,1,0,0:0:0:100:01.wav
352,192,99421,1,0,0:0:0:100:01.wav
352,192,99468,1,0,0:0:0:100:01.wav
288,192,99515,1,0,0:0:0:100:01.wav
416,192,99515,1,0,0:0:0:100:01.wav
288,192,99562,1,0,0:0:0:100:01.wav
416,192,99562,1,0,0:0:0:100:01.wav
160,192,99609,1,0,0:0:0:100:01.wav
480,192,99609,1,0,0:0:0:100:01.wav
160,192,99656,1,0,0:0:0:100:01.wav
480,192,99656,1,0,0:0:0:100:01.wav
160,192,99750,1,0,0:0:0:100:01.wav
109,192,99796,1,0,0:0:0:100:01.wav
256,192,99796,1,0,0:0:0:100:01.wav
32,192,99843,1,0,0:0:0:100:01.wav
352,192,99843,1,0,0:0:0:100:01.wav
32,192,99890,1,0,0:0:0:100:01.wav
352,192,99890,1,0,0:0:0:100:01.wav
32,192,99937,1,0,0:0:0:100:01.wav
352,192,99937,1,0,0:0:0:100:01.wav
32,192,99984,1,0,0:0:0:100:01.wav
160,192,99984,1,0,0:0:0:100:01.wav
352,192,99984,1,0,0:0:0:100:01.wav
96,192,100031,1,0,0:0:0:100:01.wav
288,192,100031,1,0,0:0:0:100:01.wav
160,192,100125,1,0,0:0:0:100:01.wav
288,192,100125,1,0,0:0:0:100:01.wav
352,192,100125,1,0,0:0:0:100:01.wav
416,192,100125,1,0,0:0:0:100:01.wav
160,192,100171,1,0,0:0:0:100:01.wav
480,192,100171,1,0,0:0:0:100:01.wav
160,192,100218,1,0,0:0:0:100:01.wav
480,192,100218,1,0,0:0:0:100:01.wav
160,192,100265,1,0,0:0:0:100:01.wav
480,192,100265,1,0,0:0:0:100:01.wav
160,192,100312,1,0,0:0:0:100:01.wav
480,192,100312,1,0,0:0:0:100:01.wav
160,192,100359,1,0,0:0:0:100:01.wav
480,192,100359,1,0,0:0:0:100:01.wav
160,192,100406,1,0,0:0:0:100:01.wav
288,192,100406,1,0,0:0:0:100:01.wav
352,192,100406,1,0,0:0:0:100:01.wav
416,192,100406,1,0,0:0:0:100:01.wav
32,192,100500,1,0,0:0:0:100:01.wav
352,192,100500,1,0,0:0:0:100:01.wav
32,192,100546,1,0,0:0:0:100:01.wav
352,192,100546,1,0,0:0:0:100:01.wav
32,192,100593,1,0,0:0:0:100:01.wav
352,192,100593,1,0,0:0:0:100:01.wav
32,192,100640,1,0,0:0:0:100:01.wav
96,192,100640,1,0,0:0:0:100:01.wav
160,192,100640,1,0,0:0:0:100:01.wav
288,192,100640,1,0,0:0:0:100:01.wav
352,192,100640,1,0,0:0:0:100:01.wav
32,192,100687,1,0,0:0:0:100:01.wav
352,192,100687,1,0,0:0:0:100:01.wav
32,192,100734,1,0,0:0:0:100:01.wav
352,192,100734,1,0,0:0:0:100:01.wav
96,192,100781,1,0,0:0:0:100:01.wav
160,192,100781,1,0,0:0:0:100:01.wav
288,192,100781,1,0,0:0:0:100:01.wav
352,192,100875,1,0,0:0:0:100:01.wav
352,192,100921,1,0,0:0:0:100:01.wav
352,192,100968,1,0,0:0:0:100:01.wav
288,192,101015,1,0,0:0:0:100:01.wav
416,192,101015,1,0,0:0:0:100:01.wav
288,192,101062,1,0,0:0:0:100:01.wav
416,192,101062,1,0,0:0:0:100:01.wav
160,192,101109,1,0,0:0:0:100:01.wav
480,192,101109,1,0,0:0:0:100:01.wav
160,192,101156,1,0,0:0:0:100:01.wav
480,192,101156,1,0,0:0:0:100:01.wav
96,192,101250,1,0,0:0:0:100:01.wav
160,192,101250,1,0,0:0:0:100:01.wav
288,192,101250,1,0,0:0:0:100:01.wav
36,192,101296,1,0,0:0:0:100:01.wav
329,192,101296,1,0,0:0:0:100:01.wav
352,192,101343,1,0,0:0:0:100:01.wav
96,192,101390,1,0,0:0:0:100:01.wav
160,192,101390,1,0,0:0:0:100:01.wav
288,192,101390,1,0,0:0:0:100:01.wav
32,192,101437,1,0,0:0:0:100:01.wav
32,192,101484,1,0,0:0:0:100:01.wav
352,192,101484,1,0,0:0:0:100:01.wav
96,192,101531,1,0,0:0:0:100:01.wav
160,192,101531,1,0,0:0:0:100:01.wav
288,192,101531,1,0,0:0:0:100:01.wav
352,192,101625,1,0,0:0:0:100:01.wav
288,192,101671,1,0,0:0:0:100:01.wav
416,192,101671,1,0,0:0:0:100:01.wav
160,192,101718,1,0,0:0:0:100:01.wav
480,192,101718,1,0,0:0:0:100:01.wav
160,192,101765,1,0,0:0:0:100:01.wav
480,192,101765,1,0,0:0:0:100:01.wav
160,192,101812,1,0,0:0:0:100:01.wav
480,192,101812,1,0,0:0:0:100:01.wav
160,192,101859,1,0,0:0:0:100:01.wav
352,192,101859,1,0,0:0:0:100:01.wav
480,192,101859,1,0,0:0:0:100:01.wav
288,192,101906,1,0,0:0:0:100:01.wav
416,192,101906,1,0,0:0:0:100:01.wav
32,192,102000,1,0,0:0:0:100:01.wav
96,192,102000,1,0,0:0:0:100:01.wav
160,192,102000,1,0,0:0:0:100:01.wav
288,192,102000,1,0,0:0:0:100:01.wav
352,192,102000,1,0,0:0:0:100:01.wav
96,192,102046,1,0,0:0:0:100:01.wav
160,192,102093,1,0,0:0:0:100:01.wav
288,192,102140,1,0,0:0:0:100:01.wav
352,192,102187,1,0,0:0:0:100:01.wav
32,192,102234,1,0,0:0:0:100:01.wav
352,192,102234,1,0,0:0:0:100:01.wav
96,192,102281,1,0,0:0:0:100:01.wav
160,192,102281,1,0,0:0:0:100:01.wav
288,192,102281,1,0,0:0:0:100:01.wav
288,192,102375,1,0,0:0:0:100:01.wav
352,192,102375,1,0,0:0:0:100:01.wav
416,192,102375,1,0,0:0:0:100:01.wav
160,192,102421,1,0,0:0:0:100:01.wav
288,192,102421,1,0,0:0:0:100:01.wav
480,192,102421,1,0,0:0:0:100:01.wav
160,192,102468,1,0,0:0:0:100:01.wav
288,192,102468,1,0,0:0:0:100:01.wav
480,192,102468,1,0,0:0:0:100:01.wav
160,192,102515,1,0,0:0:0:100:01.wav
352,192,102515,1,0,0:0:0:100:01.wav
480,192,102515,1,0,0:0:0:100:01.wav
160,192,102562,1,0,0:0:0:100:01.wav
416,192,102562,1,0,0:0:0:100:01.wav
480,192,102562,1,0,0:0:0:100:01.wav
160,192,102609,1,0,0:0:0:100:01.wav
416,192,102609,1,0,0:0:0:100:01.wav
480,192,102609,1,0,0:0:0:100:01.wav
288,192,102656,1,0,0:0:0:100:01.wav
352,192,102656,1,0,0:0:0:100:01.wav
416,192,102656,1,0,0:0:0:100:01.wav
96,192,102750,1,0,0:0:0:100:01.wav
160,192,102750,1,0,0:0:0:100:01.wav
288,192,102750,1,0,0:0:0:100:01.wav
109,192,102796,1,0,0:0:0:100:01.wav
36,192,102796,1,0,0:0:0:100:01.wav
329,192,102796,1,0,0:0:0:100:01.wav
32,192,102843,1,0,0:0:0:100:01.wav
96,192,102843,1,0,0:0:0:100:01.wav
352,192,102843,1,0,0:0:0:100:01.wav
32,192,102890,1,0,0:0:0:100:01.wav
160,192,102890,1,0,0:0:0:100:01.wav
352,192,102890,1,0,0:0:0:100:01.wav
32,192,102937,1,0,0:0:0:100:01.wav
288,192,102937,1,0,0:0:0:100:01.wav
352,192,102937,1,0,0:0:0:100:01.wav
32,192,102984,1,0,0:0:0:100:01.wav
288,192,102984,1,0,0:0:0:100:01.wav
352,192,102984,1,0,0:0:0:100:01.wav
96,192,103031,1,0,0:0:0:100:01.wav
160,192,103031,1,0,0:0:0:100:01.wav
288,192,103031,1,0,0:0:0:100:01.wav
288,192,103125,1,0,0:0:0:100:01.wav
352,192,103125,1,0,0:0:0:100:01.wav
416,192,103125,1,0,0:0:0:100:01.wav
160,192,103171,1,0,0:0:0:100:01.wav
480,192,103171,1,0,0:0:0:100:01.wav
480,192,103218,1,0,0:0:0:100:01.wav
160,192,103265,1,0,0:0:0:100:01.wav
288,192,103265,1,0,0:0:0:100:01.wav
352,192,103265,1,0,0:0:0:100:01.wav
416,192,103265,1,0,0:0:0:100:01.wav
160,192,103312,1,0,0:0:0:100:01.wav
160,192,103359,1,0,0:0:0:100:01.wav
160,192,103406,1,0,0:0:0:100:01.wav
288,192,103406,1,0,0:0:0:100:01.wav
352,192,103406,1,0,0:0:0:100:01.wav
416,192,103406,1,0,0:0:0:100:01.wav
480,192,103406,1,0,0:0:0:100:01.wav
32,192,103500,1,0,0:0:0:100:01.wav
96,192,103500,1,0,0:0:0:100:01.wav
160,192,103500,1,0,0:0:0:100:01.wav
288,192,103500,1,0,0:0:0:100:01.wav
352,192,103500,1,0,0:0:0:100:01.wav
32,192,103593,1,0,0:0:0:100:01.wav
32,192,103687,1,0,0:0:0:100:01.wav
32,192,103781,1,0,0:0:0:100:01.wav
32,192,103875,1,0,0:0:0:100:01.wav
288,192,104250,1,0,0:0:0:100:01.wav
352,192,104250,1,0,0:0:0:100:01.wav
416,192,104250,1,0,0:0:0:100:01.wav
160,192,104343,1,0,0:0:0:100:01.wav
480,192,104343,1,0,0:0:0:100:01.wav
160,192,104437,1,0,0:0:0:100:01.wav
480,192,104437,1,0,0:0:0:100:01.wav
160,192,104531,1,0,0:0:0:100:01.wav
480,192,104531,1,0,0:0:0:100:01.wav
288,192,104625,1,0,0:0:0:100:01.wav
352,192,104625,1,0,0:0:0:100:01.wav
416,192,104625,1,0,0:0:0:100:01.wav
160,192,105000,1,0,0:0:0:100:01.wav
96,192,105093,1,0,0:0:0:100:01.wav
288,192,105093,1,0,0:0:0:100:01.wav
32,192,105187,1,0,0:0:0:100:01.wav
352,192,105187,1,0,0:0:0:100:01.wav
32,192,105281,1,0,0:0:0:100:01.wav
352,192,105281,1,0,0:0:0:100:01.wav
32,192,105375,1,0,0:0:0:100:01.wav
352,192,105375,1,0,0:0:0:100:01.wav
160,192,105750,1,0,0:0:0:100:01.wav
288,192,105750,1,0,0:0:0:100:01.wav
352,192,105750,1,0,0:0:0:100:01.wav
416,192,105750,1,0,0:0:0:100:01.wav
480,192,105750,1,0,0:0:0:100:01.wav
160,192,105843,1,0,0:0:0:100:01.wav
160,192,105937,1,0,0:0:0:100:01.wav
288,192,105937,1,0,0:0:0:100:01.wav
352,192,105937,1,0,0:0:0:100:01.wav
416,192,105937,1,0,0:0:0:100:01.wav
160,192,106031,1,0,0:0:0:100:01.wav
160,192,106125,1,0,0:0:0:100:01.wav
288,192,106125,1,0,0:0:0:100:01.wav
352,192,106125,1,0,0:0:0:100:01.wav
416,192,106125,1,0,0:0:0:100:01.wav
480,192,106125,1,0,0:0:0:100:01.wav
32,192,106500,1,0,0:0:0:100:01.wav
96,192,106500,1,0,0:0:0:100:01.wav
160,192,106500,1,0,0:0:0:100:01.wav
288,192,106500,1,0,0:0:0:100:01.wav
352,192,106500,1,0,0:0:0:100:01.wav
32,192,106593,1,0,0:0:0:100:01.wav
32,192,106687,1,0,0:0:0:100:01.wav
32,192,106781,1,0,0:0:0:100:01.wav
32,192,106875,1,0,0:0:0:100:01.wav
352,192,107250,1,0,0:0:0:100:01.wav
352,192,107343,1,0,0:0:0:100:01.wav
288,192,107437,1,0,0:0:0:100:01.wav
416,192,107437,1,0,0:0:0:100:01.wav
160,192,107531,1,0,0:0:0:100:01.wav
480,192,107531,1,0,0:0:0:100:01.wav
160,192,107625,1,0,0:0:0:100:01.wav
480,192,107625,1,0,0:0:0:100:01.wav
160,192,108000,1,0,0:0:0:100:01.wav
96,192,108093,1,0,0:0:0:100:01.wav
160,192,108093,1,0,0:0:0:100:01.wav
288,192,108093,1,0,0:0:0:100:01.wav
32,192,108187,1,0,0:0:0:100:01.wav
96,192,108187,1,0,0:0:0:100:01.wav
160,192,108187,1,0,0:0:0:100:01.wav
288,192,108187,1,0,0:0:0:100:01.wav
352,192,108187,1,0,0:0:0:100:01.wav
32,192,108281,1,0,0:0:0:100:01.wav
96,192,108281,1,0,0:0:0:100:01.wav
160,192,108281,1,0,0:0:0:100:01.wav
288,192,108281,1,0,0:0:0:100:01.wav
352,192,108281,1,0,0:0:0:100:01.wav
96,192,108375,1,0,0:0:0:100:01.wav
288,192,108375,1,0,0:0:0:100:01.wav
352,192,108750,1,0,0:0:0:100:01.wav
288,192,108843,1,0,0:0:0:100:01.wav
352,192,108843,1,0,0:0:0:100:01.wav
416,192,108843,1,0,0:0:0:100:01.wav
160,192,108937,1,0,0:0:0:100:01.wav
288,192,108937,1,0,0:0:0:100:01.wav
352,192,108937,1,0,0:0:0:100:01.wav
416,192,108937,1,0,0:0:0:100:01.wav
480,192,108937,1,0,0:0:0:100:01.wav
160,192,109031,1,0,0:0:0:100:01.wav
288,192,109031,1,0,0:0:0:100:01.wav
352,192,109031,1,0,0:0:0:100:01.wav
416,192,109031,1,0,0:0:0:100:01.wav
480,192,109031,1,0,0:0:0:100:01.wav
288,192,109125,1,0,0:0:0:100:01.wav
416,192,109125,1,0,0:0:0:100:01.wav
32,192,109500,1,0,0:0:0:100:01.wav
96,192,109500,1,0,0:0:0:100:01.wav
160,192,109500,1,0,0:0:0:100:01.wav
288,192,109500,1,0,0:0:0:100:01.wav
352,192,109500,1,0,0:0:0:100:01.wav
32,192,109593,1,0,0:0:0:100:01.wav
32,192,109687,1,0,0:0:0:100:01.wav
32,192,109781,1,0,0:0:0:100:01.wav
32,192,109875,1,0,0:0:0:100:01.wav
288,192,110250,1,0,0:0:0:100:01.wav
352,192,110250,1,0,0:0:0:100:01.wav
416,192,110250,1,0,0:0:0:100:01.wav
160,192,110343,1,0,0:0:0:100:01.wav
480,192,110343,1,0,0:0:0:100:01.wav
160,192,110437,1,0,0:0:0:100:01.wav
480,192,110437,1,0,0:0:0:100:01.wav
160,192,110531,1,0,0:0:0:100:01.wav
480,192,110531,1,0,0:0:0:100:01.wav
288,192,110625,1,0,0:0:0:100:01.wav
352,192,110625,1,0,0:0:0:100:01.wav
416,192,110625,1,0,0:0:0:100:01.wav
160,192,111000,1,0,0:0:0:100:01.wav
96,192,111093,1,0,0:0:0:100:01.wav
288,192,111093,1,0,0:0:0:100:01.wav
32,192,111187,1,0,0:0:0:100:01.wav
352,192,111187,1,0,0:0:0:100:01.wav
32,192,111281,1,0,0:0:0:100:01.wav
352,192,111281,1,0,0:0:0:100:01.wav
32,192,111375,1,0,0:0:0:100:01.wav
352,192,111375,1,0,0:0:0:100:01.wav
160,192,111750,1,0,0:0:0:100:01.wav
288,192,111750,1,0,0:0:0:100:01.wav
352,192,111750,1,0,0:0:0:100:01.wav
416,192,111750,1,0,0:0:0:100:01.wav
480,192,111750,1,0,0:0:0:100:01.wav
160,192,111843,1,0,0:0:0:100:01.wav
160,192,111937,1,0,0:0:0:100:01.wav
288,192,111937,1,0,0:0:0:100:01.wav
352,192,111937,1,0,0:0:0:100:01.wav
416,192,111937,1,0,0:0:0:100:01.wav
160,192,112031,1,0,0:0:0:100:01.wav
160,192,112125,1,0,0:0:0:100:01.wav
288,192,112125,1,0,0:0:0:100:01.wav
352,192,112125,1,0,0:0:0:100:01.wav
416,192,112125,1,0,0:0:0:100:01.wav
480,192,112125,1,0,0:0:0:100:01.wav
32,192,112500,1,0,0:0:0:100:01.wav
96,192,112500,1,0,0:0:0:100:01.wav
160,192,112500,1,0,0:0:0:100:01.wav
288,192,112500,1,0,0:0:0:100:01.wav
352,192,112500,1,0,0:0:0:100:01.wav
32,192,112593,1,0,0:0:0:100:01.wav
32,192,112687,1,0,0:0:0:100:01.wav
32,192,112781,1,0,0:0:0:100:01.wav
32,192,112875,1,0,0:0:0:100:01.wav
352,192,113250,1,0,0:0:0:100:01.wav
352,192,113343,1,0,0:0:0:100:01.wav
288,192,113437,1,0,0:0:0:100:01.wav
416,192,113437,1,0,0:0:0:100:01.wav
160,192,113531,1,0,0:0:0:100:01.wav
480,192,113531,1,0,0:0:0:100:01.wav
160,192,113625,1,0,0:0:0:100:01.wav
480,192,113625,1,0,0:0:0:100:01.wav
32,192,114000,1,0,0:0:0:100:01.wav
160,192,114000,1,0,0:0:0:100:01.wav
352,192,114000,1,0,0:0:0:100:01.wav
480,192,114000,1,0,0:0:0:100:01.wav
256,192,114000,1,0,0:0:0:100:01.wav
32,192,114093,1,0,0:0:0:100:01.wav
160,192,114093,1,0,0:0:0:100:01.wav
352,192,114093,1,0,0:0:0:100:01.wav
480,192,114093,1,0,0:0:0:100:01.wav
256,192,114093,1,0,0:0:0:100:01.wav
32,192,114281,1,0,0:0:0:100:01.wav
160,192,114281,1,0,0:0:0:100:01.wav
352,192,114281,1,0,0:0:0:100:01.wav
480,192,114281,1,0,0:0:0:100:01.wav
256,192,114281,1,0,0:0:0:100:01.wav
32,192,114468,1,0,0:0:0:100:01.wav
160,192,114468,1,0,0:0:0:100:01.wav
352,192,114468,1,0,0:0:0:100:01.wav
480,192,114468,1,0,0:0:0:100:01.wav
256,192,114468,1,0,0:0:0:100:01.wav
32,192,114656,1,0,0:0:0:100:01.wav
160,192,114656,1,0,0:0:0:100:01.wav
352,192,114656,1,0,0:0:0:100:01.wav
480,192,114656,1,0,0:0:0:100:01.wav
256,192,114656,1,0,0:0:0:100:01.wav
32,192,114750,1,0,0:0:0:100:01.wav
160,192,114750,1,0,0:0:0:100:01.wav
352,192,114750,1,0,0:0:0:100:01.wav
480,192,114750,1,0,0:0:0:100:01.wav
256,192,114750,1,0,0:0:0:100:01.wav
256,192,115125,1,0,0:0:0:100:03.wav
