osu file format v5

[General]
AudioFilename: 23 Game Over.mp3
AudioLeadIn: 0
PreviewTime: -1
Countdown: 1
SampleSet: Normal

[Metadata]
Title:Game Over
Artist:Andy Kinlay
Creator:ShadowLuxray
Version:Medium

[Difficulty]
HPDrainRate:5
CircleSize:5
OverallDifficulty:5
SliderMultiplier:1.4
SliderTickRate:1

[Events]
//Background and Video events
//Break Periods
2,48286,51431
//Storyboard Layer 0 (Background)
//Storyboard Layer 1 (Failing)
//Storyboard Layer 2 (Passing)
//Storyboard Layer 3 (Foreground)
//Storyboard Sound Samples
//Background Colour Transformations
3,100,163,162,255

[TimingPoints]
52800,504.999999999999,4,1,0,100

[HitObjects]
256,192,5666,1,0
256,192,6845,1,0
320,192,8191,1,0
256,96,8696,1,0
160,192,9370,1,0
256,288,10716,1,0
384,192,12063,1,0
384,192,12568,1,0
256,224,14925,1,0
480,256,15935,1,0
224,224,17113,1,0
384,256,17786,1,0
224,192,18628,1,0
0,320,19806,5,0
256,192,21153,1,0
192,256,22331,2,0,B|320:0|384:288,2,326.666666666667
160,128,25193,1,0
416,224,26371,1,0
288,224,27045,1,0
192,128,27718,1,0
192,256,28223,1,0
288,160,28896,1,0
224,352,29738,1,0
320,288,30411,1,0
384,192,30916,1,0
256,128,31590,1,0
128,192,32263,1,0
128,320,32936,1,0
256,320,33610,1,0
384,288,34283,1,0
128,224,35461,5,0
256,288,36135,1,0
384,288,36808,1,0
448,160,37481,1,0
320,224,38155,1,0
64,160,39333,1,0
192,192,40006,1,0
256,320,40680,1,0
384,256,41353,1,0
320,96,42195,1,0
256,192,42700,1,0
160,192,43373,1,0
320,224,44046,1,0
224,256,44720,1,0
64,224,45393,1,0
256,192,46571,5,0
256,192,48086,1,0
256,192,52631,5,0
160,192,53810,1,0
192,320,54483,1,0
352,320,54988,1,0
352,320,55661,1,0
384,160,56334,1,0
256,128,57681,1,0
160,192,59028,1,0
160,192,59364,1,0
256,192,60374,1,0
192,256,60879,1,0
320,288,61553,1,0
288,160,62899,1,0
160,192,63573,1,0
352,160,64919,5,0
256,160,65593,1,0
192,256,66266,1,0
352,288,66603,1,0
352,192,68118,1,0
224,192,69464,1,0
320,192,70138,1,0
256,256,70643,1,0
256,128,71484,1,0
192,224,71989,1,0
352,288,73336,1,0
256,288,73841,1,0
128,288,74683,1,0
128,128,75356,1,0
256,128,76029,1,0
352,128,76534,1,0
352,288,77208,1,0
224,256,78554,5,0
352,224,79228,1,0
192,160,79901,1,0
352,128,80406,1,0
192,64,81079,1,0
224,224,81753,1,0
352,288,82426,1,0
384,192,83099,1,0
224,192,83773,1,0
320,192,85119,1,0
192,192,86466,1,0
352,192,86971,1,0
128,192,87644,1,0
320,192,88318,1,0
256,256,89664,5,0
256,256,90338,1,0
256,192,91011,1,0
192,192,92358,1,0
192,288,93536,1,0
384,288,95051,1,0
128,288,96229,1,0
352,288,97576,1,0
128,288,99428,1,0
128,288,100774,1,0
352,288,102458,1,0
320,192,103131,1,0
32,352,106329,2,0,B|-32:160,3,186.666666666667
32,352,111043,2,0,B|32:0|128:96|192:352|256:32|512:352,3,700
256,224,120974,1,0
256,192,122321,12,0,125014
288,256,126193,1,0
96,96,126866,1,0
416,96,127371,1,0
128,256,128213,1,0
416,288,128718,1,0
192,32,129391,1,0
128,352,130064,1,0
320,192,130738,1,0
160,320,131411,1,0
288,192,132084,1,0
160,320,132758,1,0
288,192,133263,1,0
128,320,134104,1,0
288,192,134609,1,0
160,96,135283,1,0
320,288,136293,5,0
256,160,136629,1,0
128,256,137303,1,0
128,160,137976,1,0
0,192,141006,2,0,B|512:192|480:192,3,466.666666666667
256,160,147739,1,0
256,224,148413,1,0
160,192,149086,1,0
352,224,149591,1,0
224,128,150264,1,0
256,288,150938,1,0
384,160,152284,1,0
96,256,152958,1,0
384,288,153631,1,0
224,64,154304,1,0
224,256,154809,1,0
256,224,166424,5,0
