osu file format v9

[General]
AudioFilename: Andrew WK - Ready To Die.mp3
AudioLeadIn: 0
PreviewTime: 51021
Countdown: 1
SampleSet: Normal
StackLeniency: 0.7
Mode: 0
LetterboxInBreaks: 1

[Editor]
DistanceSpacing: 0.7
BeatDivisor: 2
GridSize: 8

[Metadata]
Title:Ready To Die
Artist:Andrew W.K.
Creator:ztrot
Version:Mild Death
Source:
Tags:Mr Color DiamondCrash

[Difficulty]
HPDrainRate:4
CircleSize:4
OverallDifficulty:3
ApproachRate:5
SliderMultiplier:1.5
SliderTickRate:2

[Events]
//Background and Video events
0,0,"BGcupcake.jpg"
Video,-400,"Cupcakes (2).avi"
//Break Periods
2,72054,80909
//Storyboard Layer 0 (Background)
//Storyboard Layer 1 (Fail)
//Storyboard Layer 2 (Pass)
//Storyboard Layer 3 (Foreground)
//Storyboard Sound Samples
//Background Colour Transformations
3,100,163,162,255

[TimingPoints]
63,320.495700016025,4,1,1,90,1,0

[HitObjects]
256,360,10318,1,0
152,360,10639,1,8
80,288,10959,2,0,B|-8:192|64:80,2,225,0|0|8
128,184,12241,1,0
200,112,12562,1,8
256,200,12882,6,0,B|216:272|296:272|256:360,2,150,0|8|0
360,80,14004,2,0,B|256:3|152:80,1,225,0|0
256,128,14805,1,0
256,360,15446,5,0
360,360,15767,1,8
432,288,16087,2,0,B|520:192|448:80,2,225,0|0|8
384,184,17369,1,0
312,112,17690,1,8
256,200,18010,6,0,B|296:272|216:272|256:360,2,150,0|8|0
152,80,19132,2,0,B|256:3|360:80,1,225,0|8
256,128,19933,1,0
128,296,20574,6,0,B|56:264|56:168,2,150,0|8|0
256,200,21696,1,0
384,296,22177,2,0,B|456:264|456:168,1,150,8|0
331,361,23138,6,0,B|179:361,2,150,0|8|0
256,224,24260,1,0
312,80,24741,1,8
200,80,25061,1,0
384,296,25702,6,0,B|456:264|456:168,2,150,0|8|0
256,200,26824,1,0
128,296,27305,2,0,B|56:264|56:168,1,150,8|0
181,361,28266,6,0,B|333:361,2,150,0|8|0
256,224,29388,1,0
200,80,29869,5,8
312,80,30189,1,0
256,320,30830,5,0
144,144,31471,1,0
368,144,32112,1,0
184,248,32753,5,0
104,312,33074,1,0
16,368,33394,1,0
256,360,34035,5,0
328,136,34676,5,0
408,72,34997,1,0
496,16,35317,1,0
256,24,35958,6,0,B|80:24|48:200,1,300
256,360,37240,2,0,B|432:360|464:184,1,300
256,200,38522,5,0
168,136,38842,1,0
256,72,39163,1,0
344,136,39483,1,0
344,240,39804,1,0
256,304,40124,1,0
168,240,40445,1,0
168,136,40765,1,0
256,72,41086,6,0,B|184:8|104:32|24:112|104:208,1,300,4|0
256,312,42368,2,0,B|328:376|408:352|488:272|408:176,1,300
320,200,43329,1,0
368,104,43650,2,0,B|312:48|264:208|256:128|256:128|248:208|200:48|152:104,1,300
112,200,44611,5,0
152,296,44932,1,0
256,296,45252,1,0
360,296,45573,1,0
400,200,45893,1,0
440,104,46214,5,0
256,208,46855,1,0
72,104,47496,1,0
256,208,48137,1,0
120,368,48778,5,0
64,280,49098,1,0
168,280,49419,1,0
256,224,49739,1,0
344,280,50060,5,0
448,280,50380,1,0
392,368,50701,1,0
464,176,51342,5,4
464,72,51662,2,8,B|368:88|368:176,1,150,8|0
320,264,52303,1,8
256,176,52624,2,0,B|184:232|224:320,1,150,0|8
304,368,53265,1,0
400,328,53585,6,0,B|472:312|488:216,1,150,8|0
480,112,54226,1,8
384,72,54547,1,0
304,144,54867,1,8
256,232,55188,5,0
208,144,55508,1,8
128,72,55829,1,0
32,112,56149,1,8
32,216,56470,6,0,B|152:304,1,150,0|8
128,200,57111,2,0,B|248:288,1,150,0|8
224,184,57752,2,0,B|344:272,1,150,0|8
320,168,58393,2,0,B|440:256,1,150,0|8
416,152,59034,5,0
256,16,59675,1,0
96,152,60316,1,0
256,288,60957,1,0
256,288,61277,1,0
152,280,61598,5,4
112,184,61918,1,8
160,88,62239,1,0
256,136,62559,1,8
352,88,62880,1,0
400,184,63200,1,8
360,280,63521,1,0
256,312,63841,1,8
256,312,64162,2,0,B|192:240|192:240|280:176|280:176|224:88,3,300
432,56,66726,5,0
472,152,67046,1,8
432,248,67367,2,0,B|352:272|336:360,1,150,0|8
337,353,67847,2,0,B|264:368|200:296,1,150
204,301,68328,1,8
96,312,68649,1,0
136,216,68969,1,8
48,152,69290,5,0
256,120,69931,1,0
464,152,70572,1,0
320,304,71213,1,0
256,224,71533,1,0
192,304,71854,1,4
384,88,82109,6,0,B|456:120|456:216,2,150,0|8|0
256,184,83231,1,0
128,88,83712,2,0,B|56:120|56:216,1,150,8|0
181,23,84673,6,0,B|333:23,2,150,0|8|0
256,160,85795,1,0
200,304,86276,1,8
312,304,86596,1,0
128,88,87237,6,0,B|56:120|56:216,2,150,0|8|0
256,184,88359,1,0
384,88,88840,2,0,B|456:120|456:216,1,150,8|0
331,23,89801,6,0,B|179:23,2,150,0|8|0
256,160,90923,1,0
312,304,91404,5,8
200,304,91724,1,0
48,32,92686,5,0
40,136,93006,1,0
136,88,93327,1,0
200,168,93647,1,0
312,168,93968,1,0
376,88,94288,1,0
472,136,94609,1,0
472,32,94929,1,0
304,40,95250,5,0
256,136,95570,1,0
208,40,95891,1,0
160,136,96211,2,0,B|160:296,1,150
256,328,96852,2,0,B|256:168,1,150
352,136,97493,6,0,B|352:296,1,150
256,328,98134,1,0
160,288,98455,2,0,B|72:288|32:224,3,150
128,184,99737,1,0
104,80,100057,2,0,B|192:80|232:144,3,150
256,248,101339,5,0
256,360,101660,1,0
344,304,101980,1,0
432,360,102301,2,0,B|472:296|448:208,1,150,0|4
424,112,102942,6,0,B|264:112,1,150
352,184,103583,2,0,B|192:184,1,150
280,256,104224,2,0,B|128:256,1,150,0|8
48,192,104865,1,0
48,192,105025,1,0
48,192,105185,1,0
128,120,105506,6,0,B|280:120,1,150
200,192,106147,2,0,B|368:192,1,150
272,264,106788,2,0,B|424:264,1,150,0|8
488,184,107429,1,0
488,184,107589,1,0
488,184,107749,1,0
456,80,108070,5,0
384,152,108390,1,0
328,64,108711,1,0
256,144,109031,2,0,B|256:304,2,150,0|0|8
184,64,109993,1,0
128,152,110313,1,0
56,80,110634,1,0
24,184,110954,1,0
128,152,111275,5,0
200,72,111595,1,8
312,72,111915,1,0
384,152,112236,1,8
48,208,112877,5,4
48,312,113197,2,0,B|144:296|144:208,1,150,8|0
192,120,113838,1,8
256,208,114159,2,0,B|328:152|288:64,1,150,0|8
208,16,114800,1,0
112,56,115120,6,0,B|40:72|24:168,1,150,8|0
32,272,115761,1,8
128,312,116082,1,0
208,240,116402,1,8
256,152,116723,5,0
304,240,117043,1,8
384,312,117364,1,0
480,272,117684,1,8
480,168,118005,6,0,B|360:80,1,150,0|8
384,184,118646,2,0,B|264:96,1,150,0|8
288,200,119287,2,0,B|168:112,1,150,0|8
192,216,119928,2,0,B|72:128,1,150,0|8
96,232,120569,5,0
256,368,121210,1,0
416,232,121851,1,0
256,96,122492,1,0
256,96,122812,1,0
360,104,123133,5,4
400,200,123453,1,8
352,296,123774,1,0
256,248,124094,1,8
160,296,124415,1,0
112,200,124735,1,8
152,104,125056,1,0
256,72,125376,1,8
256,72,125697,2,0,B|320:144|320:144|232:208|232:208|288:296,3,300
80,328,128261,5,0
40,232,128581,1,8
80,136,128902,2,0,B|160:112|176:24,1,150,0|8
175,31,129382,2,0,B|248:16|312:88,1,150
308,83,129863,1,8
416,72,130184,1,0
376,168,130504,1,8
464,232,130825,5,0
256,264,131466,1,0
48,232,132107,1,0
192,48,132748,1,0
256,136,133068,1,0
320,48,133389,6,0,B|384:96|360:192,4,150,0|8|0|8|0
256,136,134991,2,0,B|256:288,3,150,8|0|8|0
200,376,136273,6,0,B|136:328|160:232,3,150,8|0|8|0
256,280,137555,2,0,B|240:200|296:136,3,150,8|0|8|0
344,232,138837,5,8
440,200,139158,2,0,B|488:136|448:56,1,150,0|8
376,128,139799,1,0
304,56,140119,2,0,B|265:133|313:197,1,150,8|0
376,280,140760,1,8
304,360,141081,2,0,B|152:360,1,150,0|8
232,288,141722,2,0,B|80:288,1,150,0|8
160,216,142363,2,0,B|8:216,1,150,0|8
48,120,143004,5,0
112,40,143324,1,8
160,136,143645,1,0
224,56,143965,2,0,B|272:112|248:200,1,150,8|0
152,240,144606,1,8
64,176,144927,2,0,B|32:256|88:320,1,150,0|8
192,336,145568,1,0
264,256,145888,1,8
336,336,146209,6,0,B|424:336|464:264,3,150,0|8|0|8
368,232,147491,1,0
304,152,147811,1,8
256,248,148132,1,0
208,152,148452,1,8
152,240,148773,5,0
88,160,149093,1,8
104,56,149413,1,0
360,240,150054,5,0
424,160,150375,1,8
408,56,150695,1,0
256,192,151336,12,0,153259
256,24,153900,5,0
152,24,154221,1,8
80,96,154541,2,0,B|-8:192|64:304,2,225,0|0|8
128,200,155823,1,0
200,272,156144,1,8
256,184,156464,6,0,B|216:112|296:112|256:24,2,150,0|8|0
360,304,157586,2,0,B|256:381|152:304,1,225,0|8
256,256,158387,1,0
256,24,159028,5,0
360,24,159349,1,8
432,96,159669,2,0,B|520:192|448:304,2,225,0|0|8
384,200,160951,1,0
312,272,161272,1,8
256,184,161592,6,0,B|296:112|216:112|256:24,2,150,0|8|0
152,304,162714,2,0,B|256:381|360:304,1,225
256,256,163515,1,0
128,88,164156,6,0,B|56:120|56:216,2,150,0|8|0
256,184,165278,1,0
384,88,165759,2,0,B|456:120|456:216,1,150,8|0
331,23,166720,6,0,B|179:23,2,150,0|8|0
256,160,167842,1,0
312,304,168323,1,8
200,304,168643,1,0
384,88,169284,6,0,B|456:120|456:216,2,150,0|8|0
256,184,170406,1,0
128,88,170887,2,8,B|56:120|56:216,1,150,8|0
181,23,171848,6,0,B|333:23,2,150,0|8|0
256,160,172970,1,0
200,304,173451,5,8
312,304,173771,1,0
