osu file format v14

[General]
AudioFilename: Andrew WK - Ready To Die.mp3
AudioLeadIn: 0
PreviewTime: 51021
Countdown: 1
SampleSet: Normal
StackLeniency: 0.3
Mode: 0
LetterboxInBreaks: 1
WidescreenStoryboard: 0

[Editor]
DistanceSpacing: 0.7
BeatDivisor: 2
GridSize: 8
TimelineZoom: 1

[Metadata]
Title:Ready To Die
TitleUnicode:
Artist:Andrew W.K.
ArtistUnicode:
Creator:ztrot
Version:DIE
Source:
Tags:Mr Color DiamondCrash
BeatmapID:139851
BeatmapSetID:44666

[Difficulty]
HPDrainRate:7
CircleSize:4
OverallDifficulty:7
ApproachRate:8
SliderMultiplier:2
SliderTickRate:2

[Events]
//Background and Video events
0,0,"BGcupcake.jpg",0,0
//Break Periods
2,72054,81359
//Storyboard Layer 0 (Background)
//Storyboard Layer 1 (Fail)
//Storyboard Layer 2 (Pass)
//Storyboard Layer 3 (Foreground)
//Storyboard Layer 4 (Overlay)
//Storyboard Sound Samples

[TimingPoints]
63,320.495700016025,4,1,1,90,1,0

[HitObjects]
190,40,10318,6,0,B|96:112|160:216,2,200,0|8|0,0:0|0:0|0:0,0:0:0:0:
352,216,11280,1,8,0:0:0:0:
352,215,11440,2,0,B|416:112|321:40,1,200,0|0,0:0|0:0,0:0:0:0:
256,88,11921,2,0,B|256:304,1,200,8|0,0:0|0:0,0:0:0:0:
96,312,12562,5,8,0:0:0:0:
48,248,12722,1,0,0:0:0:0:
88,176,12882,1,0,0:0:0:0:
424,176,13203,1,8,0:0:0:0:
88,176,13523,1,0,0:0:0:0:
156,31,13844,1,8,0:0:0:0:
156,31,14004,2,0,B|356:31,1,200
356,30,14485,1,8,0:0:0:0:
256,272,14805,5,0,0:0:0:0:
216,208,14966,1,0,0:0:0:0:
296,208,15126,1,8,0:0:0:0:
136,136,15446,6,0,B|64:232|160:312,2,200,0|8|0,0:0|0:0|0:0,0:0:0:0:
376,136,16408,1,8,0:0:0:0:
376,136,16568,2,0,B|448:232|352:312,1,200
256,288,17049,1,8,0:0:0:0:
256,56,17369,1,4,0:0:0:0:
184,200,17690,5,8,0:0:0:0:
256,168,17850,1,0,0:0:0:0:
328,200,18010,1,0,0:0:0:0:
136,280,18331,1,8,0:0:0:0:
376,280,18651,1,0,0:0:0:0:
256,56,18972,1,8,0:0:0:0:
256,56,19132,2,0,B|200:136|320:136|248:240,1,200
248,240,19613,1,8,0:0:0:0:
344,80,19933,5,0,0:0:0:0:
256,56,20093,1,0,0:0:0:0:
168,80,20254,1,8,0:0:0:0:
136,232,20574,6,0,B|104:360|48:248|-8:360,2,200,0|8|0,0:0|0:0|0:0,0:0:0:0:
376,232,21536,1,8,0:0:0:0:
376,232,21696,2,0,B|408:360|464:248|520:360,1,200
440,384,22177,1,8,0:0:0:0:
72,384,22497,1,0,0:0:0:0:
200,224,22818,5,8,0:0:0:0:
256,280,22978,1,0,0:0:0:0:
312,224,23138,1,0,0:0:0:0:
176,304,23459,1,8,0:0:0:0:
336,304,23779,1,0,0:0:0:0:
256,160,24100,1,8,0:0:0:0:
256,160,24260,2,0,B|176:88|56:128,1,200
152,200,24741,1,8,0:0:0:0:
360,200,25061,5,8,0:0:0:0:
368,96,25221,1,8,0:0:0:0:
256,72,25382,1,8,0:0:0:0:
144,96,25542,1,8,0:0:0:0:
152,200,25702,6,0,B|264:224|320:320,2,200,0|8|0,0:0|0:0|0:0,0:0:0:0:
360,200,26664,1,8,0:0:0:0:
360,200,26824,2,0,B|248:224|192:312,1,200
120,280,27305,1,8,0:0:0:0:
392,280,27625,1,0,0:0:0:0:
256,104,27946,1,8,0:0:0:0:
80,40,28266,5,0,0:0:0:0:
32,112,28426,1,0,0:0:0:0:
128,112,28587,2,0,B|128:176|72:208,1,100,8|0,0:0|0:0,0:0:0:0:
0,200,28907,1,0,0:0:0:0:
156,251,29228,1,8,0:0:0:0:
156,251,29388,2,0,B|364:251,1,200
356,251,29869,1,8,0:0:0:0:
256,48,30189,1,0,0:0:0:0:
88,336,30510,1,8,0:0:0:0:
424,336,30830,1,4,0:0:0:0:
400,176,31151,5,0,0:0:0:0:
256,360,31471,1,0,0:0:0:0:
112,176,31792,1,0,0:0:0:0:
216,56,32112,1,0,0:0:0:0:
296,56,32272,1,0,0:0:0:0:
304,136,32433,2,0,B|256:176|208:136,2,100
472,192,33074,6,0,B|368:224|344:336,1,200
167,332,33715,2,0,B|144:224|40:192,1,200
256,256,34356,1,0,0:0:0:0:
208,104,34676,6,0,B|144:184,1,100
304,104,34997,2,0,B|368:184,1,100
256,160,35317,1,0,0:0:0:0:
176,296,35638,6,0,B|208:360|256:344|304:360|336:296,1,200
392,64,36279,2,0,B|456:128|456:128|464:168|456:208|408:208,1,200
256,80,36920,1,0,0:0:0:0:
102,207,37240,2,0,B|56:208|48:168|56:128|56:128|120:64,2,200
144,352,38201,5,0,0:0:0:0:
256,88,38522,1,0,0:0:0:0:
368,352,38842,1,0,0:0:0:0:
104,208,39163,1,0,0:0:0:0:
408,208,39483,1,0,0:0:0:0:
128,96,39804,1,0,0:0:0:0:
256,352,40124,1,0,0:0:0:0:
384,96,40445,1,0,0:0:0:0:
328,312,40765,2,0,B|320:248|256:248|192:248|184:312,1,200
368,184,41406,5,0,0:0:0:0:
256,16,41727,1,0,0:0:0:0:
144,184,42047,1,0,0:0:0:0:
368,64,42368,2,0,B|472:104|464:224,1,200
144,64,43009,2,0,B|40:104|48:224,1,200
112,272,43490,1,0,0:0:0:0:
160,336,43650,2,0,B|256:384|360:336,1,200
136,192,44291,1,0,0:0:0:0:
400,272,44611,1,0,0:0:0:0:
352,56,44932,2,0,B|256:8|152:56,2,200
304,280,45893,1,0,0:0:0:0:
256,344,46054,1,0,0:0:0:0:
208,280,46214,6,0,B|128:192|128:368|40:272,1,200
304,280,46855,2,0,B|384:192|384:368|472:272,1,200
256,208,47496,2,0,B|184:120|336:120|248:24,2,200
80,80,48457,5,0,0:0:0:0:
80,80,48618,1,0,0:0:0:0:
80,80,48778,1,0,0:0:0:0:
256,352,49098,1,0,0:0:0:0:
432,80,49419,1,0,0:0:0:0:
96,264,49739,1,0,0:0:0:0:
416,264,50060,1,0,0:0:0:0:
256,32,50380,1,0,0:0:0:0:
256,352,50701,1,0,0:0:0:0:
160,64,51182,5,0,0:0:0:0:
104,128,51342,2,0,B|152:160|200:136,1,100,4|0,0:0|0:0,0:0:0:0:
256,80,51662,1,8,0:0:0:0:
313,136,51823,2,0,B|360:160|408:128,1,100
352,64,52143,1,0,0:0:0:0:
352,64,52303,1,8,0:0:0:0:
352,64,52464,1,0,0:0:0:0:
432,72,52624,6,0,B|496:160|432:264,1,200,0|8,0:0|0:0,0:0:0:0:
77,259,53265,2,0,B|16:160|80:72,1,200,0|8,0:0|0:0,0:0:0:0:
376,208,53906,5,0,0:0:0:0:
344,280,54066,1,0,0:0:0:0:
312,352,54226,1,8,0:0:0:0:
136,176,54547,1,0,0:0:0:0:
168,104,54707,1,0,0:0:0:0:
208,32,54867,1,8,0:0:0:0:
256,192,55188,5,0,0:0:0:0:
240,272,55348,1,0,0:0:0:0:
176,216,55508,2,0,B|120:216|88:160,1,100,8|0,0:0|0:0,0:0:0:0:
136,104,55829,1,0,0:0:0:0:
56,96,55989,1,0,0:0:0:0:
104,32,56149,2,0,B|160:16|208:64,1,100,8|0,0:0|0:0,0:0:0:0:
256,112,56470,5,0,0:0:0:0:
314,54,56630,2,0,B|352:16|408:32,1,100,0|8,0:0|0:0,0:0:0:0:
376,104,56950,1,0,0:0:0:0:
456,96,57111,1,0,0:0:0:0:
418,168,57271,2,0,B|392:216|336:216,1,100,0|8,0:0|0:0,0:0:0:0:
272,272,57591,1,0,0:0:0:0:
256,192,57752,1,0,0:0:0:0:
256,32,58072,5,8,0:0:0:0:
136,144,58393,1,0,0:0:0:0:
176,80,58553,1,0,0:0:0:0:
256,104,58713,1,8,0:0:0:0:
336,80,58873,1,0,0:0:0:0:
376,144,59034,2,0,B|448:192|376:224|376:224|416:304,1,200,0|8,0:0|0:0,0:0:0:0:
136,144,59675,2,0,B|64:192|136:224|136:224|96:304,1,200,0|8,0:0|0:0,0:0:0:0:
256,176,60316,1,0,0:0:0:0:
256,336,60636,1,8,0:0:0:0:
256,176,60957,5,0,0:0:0:0:
168,120,61117,1,8,0:0:0:0:
176,80,61197,1,8,0:0:0:0:
208,56,61277,1,8,0:0:0:0:
304,56,61437,1,8,0:0:0:0:
336,80,61518,1,8,0:0:0:0:
344,120,61598,1,12,0:0:0:0:
256,120,61758,1,0,0:0:0:0:
256,120,61918,1,8,0:0:0:0:
344,264,62239,6,0,B|256:352|168:264,1,200,0|8,0:0|0:0,0:0:0:0:
256,232,62719,1,0,0:0:0:0:
304,168,62880,1,0,0:0:0:0:
64,64,63200,5,8,0:0:0:0:
448,64,63521,1,0,0:0:0:0:
64,320,63841,1,8,0:0:0:0:
448,320,64162,5,0,0:0:0:0:
392,264,64322,1,0,0:0:0:0:
336,320,64482,2,0,B|232:320,1,100,8|0,0:0|0:0,0:0:0:0:
112,208,64803,1,0,0:0:0:0:
168,264,64963,1,0,0:0:0:0:
224,208,65123,2,0,B|328:208,1,100,8|0,0:0|0:0,0:0:0:0:
448,112,65444,1,0,0:0:0:0:
392,168,65604,1,0,0:0:0:0:
336,112,65764,2,0,B|232:112,1,100,8|0,0:0|0:0,0:0:0:0:
80,32,66085,1,0,0:0:0:0:
128,96,66245,1,0,0:0:0:0:
176,32,66405,1,8,0:0:0:0:
32,192,66726,5,0,0:0:0:0:
72,264,66886,1,0,0:0:0:0:
120,200,67046,2,0,B|160:240|144:304,1,100,8|0,0:0|0:0,0:0:0:0:
88,344,67367,1,0,0:0:0:0:
168,368,67527,1,0,0:0:0:0:
224,312,67687,2,0,B|240:264|296:248,1,100,8|0,0:0|0:0,0:0:0:0:
304,328,68008,2,0,B|400:352|488:272,1,200,0|8,0:0|0:0,0:0:0:0:
208,56,68649,2,0,B|112:32|24:112,1,200,0|8,0:0|0:0,0:0:0:0:
304,56,69290,5,0,0:0:0:0:
256,120,69450,1,0,0:0:0:0:
208,56,69610,2,0,B|176:88|176:152,1,100,8|0,0:0|0:0,0:0:0:0:
304,56,69931,2,0,B|336:88|336:152,1,100
256,192,70251,1,8,0:0:0:0:
256,272,70411,1,0,0:0:0:0:
256,352,70572,1,0,0:0:0:0:
56,48,71213,5,0,0:0:0:0:
456,48,71533,1,0,0:0:0:0:
256,352,71854,1,4,0:0:0:0:
190,344,82109,6,0,B|96:272|160:168,2,200,0|8|0,0:0|0:0|0:0,0:0:0:0:
352,168,83071,1,8,0:0:0:0:
352,169,83231,2,0,B|416:272|321:344,1,200
256,296,83712,2,0,B|256:80,1,200,8|4,0:0|0:0,0:0:0:0:
96,72,84353,5,8,0:0:0:0:
48,136,84513,1,0,0:0:0:0:
88,208,84673,1,0,0:0:0:0:
424,208,84994,1,8,0:0:0:0:
88,208,85314,1,0,0:0:0:0:
156,353,85635,1,8,0:0:0:0:
156,353,85795,2,0,B|356:353,1,200,0|0,0:0|0:0,0:0:0:0:
356,354,86276,1,8,0:0:0:0:
256,112,86596,5,0,0:0:0:0:
216,176,86757,1,8,0:0:0:0:
296,176,86917,1,8,0:0:0:0:
136,248,87237,6,0,B|64:152|160:72,2,200,0|8|0,0:0|0:0|0:0,0:0:0:0:
376,248,88199,1,8,0:0:0:0:
376,248,88359,2,0,B|448:152|352:72,1,200
256,96,88840,1,8,0:0:0:0:
256,328,89160,1,0,0:0:0:0:
184,184,89481,5,8,0:0:0:0:
256,216,89641,1,0,0:0:0:0:
328,184,89801,1,0,0:0:0:0:
136,104,90122,1,8,0:0:0:0:
376,104,90442,1,0,0:0:0:0:
256,328,90763,1,8,0:0:0:0:
256,328,90923,2,0,B|200:248|320:248|248:144,1,200
248,144,91404,1,8,0:0:0:0:
344,304,91724,5,8,0:0:0:0:
256,328,91884,1,0,0:0:0:0:
168,304,92045,1,8,0:0:0:0:
136,152,92365,6,0,B|104:24|48:136|-8:24,2,200
376,152,93327,2,0,B|408:24|464:136|520:24,2,200
256,256,94288,1,0,0:0:0:0:
208,104,94609,5,0,0:0:0:0:
256,168,94769,1,0,0:0:0:0:
304,104,94929,1,0,0:0:0:0:
168,192,95250,1,0,0:0:0:0:
344,192,95570,1,0,0:0:0:0:
344,24,95891,2,0,B|264:40|264:40|256:56|256:56|248:40|248:40|168:24,2,200
168,192,96852,5,0,0:0:0:0:
256,112,97012,1,0,0:0:0:0:
344,192,97173,1,0,0:0:0:0:
256,272,97333,1,0,0:0:0:0:
184,328,97493,6,0,B|72:344|16:240,2,200
328,328,98455,2,0,B|440:344|496:240,2,200
96,96,99416,1,0,0:0:0:0:
416,96,99737,1,0,0:0:0:0:
256,184,100057,5,0,0:0:0:0:
128,280,100378,1,0,0:0:0:0:
384,280,100698,1,0,0:0:0:0:
80,200,101019,1,0,0:0:0:0:
432,200,101339,1,0,0:0:0:0:
112,120,101660,1,0,0:0:0:0:
400,120,101980,1,0,0:0:0:0:
256,328,102301,2,0,B|232:256|232:256|280:232|280:232|256:160,1,200,4|4,0:0|0:0,0:0:0:0:
104,48,102942,6,0,B|0:104|40:224,1,200
160,320,103583,2,0,B|256:272|352:320,1,200
474,216,104224,2,0,B|512:104|408:48,1,200,0|8,0:0|0:0,0:0:0:0:
256,88,104865,1,0,0:0:0:0:
216,152,105025,1,0,0:0:0:0:
296,152,105185,1,0,0:0:0:0:
156,231,105506,6,0,B|372:231,2,200
104,56,106467,1,0,0:0:0:0:
184,40,106627,1,0,0:0:0:0:
256,80,106788,1,0,0:0:0:0:
328,40,106948,1,0,0:0:0:0:
408,56,107108,2,0,B|464:144|424:248,1,200,8|0,0:0|0:0,0:0:0:0:
104,56,107749,2,0,B|48:144|88:248,3,200
256,328,109031,5,0,0:0:0:0:
208,264,109191,1,0,0:0:0:0:
304,264,109352,1,0,0:0:0:0:
208,264,109512,1,0,0:0:0:0:
304,264,109672,1,8,0:0:0:0:
128,232,109993,5,0,0:0:0:0:
384,232,110313,1,0,0:0:0:0:
88,160,110634,1,0,0:0:0:0:
424,160,110954,1,0,0:0:0:0:
256,16,111275,1,0,0:0:0:0:
256,336,111595,5,0,0:0:0:0:
408,72,111915,1,0,0:0:0:0:
104,72,112236,1,8,0:0:0:0:
408,312,112717,5,0,0:0:0:0:
464,248,112877,2,0,B|416:216|368:240,1,100,4|0,0:0|0:0,0:0:0:0:
320,304,113197,1,8,0:0:0:0:
288,232,113358,2,0,B|241:208|193:240,1,100
240,304,113678,1,0,0:0:0:0:
168,336,113838,1,8,0:0:0:0:
128,264,113999,1,0,0:0:0:0:
64,312,114159,6,0,B|0:224|64:120,1,200,0|8,0:0|0:0,0:0:0:0:
448,312,114800,2,0,B|512:224|448:120,1,200,0|8,0:0|0:0,0:0:0:0:
136,176,115441,5,0,0:0:0:0:
88,112,115601,1,0,0:0:0:0:
168,104,115761,1,8,0:0:0:0:
376,208,116082,1,0,0:0:0:0:
432,264,116242,1,0,0:0:0:0:
360,288,116402,1,8,0:0:0:0:
256,192,116723,5,0,0:0:0:0:
256,112,116883,1,0,0:0:0:0:
320,64,117043,2,0,B|376:64|408:120,1,100,8|0,0:0|0:0,0:0:0:0:
328,144,117364,1,0,0:0:0:0:
392,192,117524,1,0,0:0:0:0:
424,264,117684,2,0,B|368:280|320:232,1,100,8|0,0:0|0:0,0:0:0:0:
256,272,118005,5,0,0:0:0:0:
198,330,118165,2,0,B|160:368|104:352,1,100,0|8,0:0|0:0,0:0:0:0:
136,280,118485,1,0,0:0:0:0:
136,280,118646,1,0,0:0:0:0:
64,248,118806,2,0,B|90:200|146:200,1,100,0|8,0:0|0:0,0:0:0:0:
200,144,119126,1,0,0:0:0:0:
256,88,119287,1,0,0:0:0:0:
256,248,119607,5,8,0:0:0:0:
368,360,119928,1,0,0:0:0:0:
328,288,120088,1,0,0:0:0:0:
256,248,120248,1,8,0:0:0:0:
184,288,120408,1,0,0:0:0:0:
136,224,120569,2,0,B|64:152|120:32,1,200,0|8,0:0|0:0,0:0:0:0:
376,224,121210,2,0,B|448:152|392:32,1,200,0|8,0:0|0:0,0:0:0:0:
256,208,121851,1,0,0:0:0:0:
256,48,122171,1,8,0:0:0:0:
256,208,122492,5,0,0:0:0:0:
344,264,122652,1,8,0:0:0:0:
344,264,122732,1,8,0:0:0:0:
344,264,122812,1,8,0:0:0:0:
168,264,122972,1,8,0:0:0:0:
168,264,123053,1,8,0:0:0:0:
168,264,123133,1,8,0:0:0:0:
256,264,123293,1,0,0:0:0:0:
256,264,123453,1,8,0:0:0:0:
168,120,123774,6,0,B|256:32|344:120,1,200,0|8,0:0|0:0,0:0:0:0:
256,152,124254,1,0,0:0:0:0:
208,216,124415,1,0,0:0:0:0:
448,320,124735,5,8,0:0:0:0:
64,320,125056,1,0,0:0:0:0:
448,64,125376,1,8,0:0:0:0:
64,64,125697,5,0,0:0:0:0:
120,120,125857,1,0,0:0:0:0:
176,64,126017,2,0,B|280:64,1,100,8|0,0:0|0:0,0:0:0:0:
400,176,126338,1,0,0:0:0:0:
344,120,126498,1,0,0:0:0:0:
288,176,126658,2,0,B|184:176,1,100,8|0,0:0|0:0,0:0:0:0:
64,272,126979,1,0,0:0:0:0:
120,216,127139,1,0,0:0:0:0:
176,272,127299,2,0,B|280:272,1,100,8|0,0:0|0:0,0:0:0:0:
432,352,127620,1,0,0:0:0:0:
384,288,127780,1,0,0:0:0:0:
336,352,127940,1,8,0:0:0:0:
480,192,128261,5,4,0:0:0:0:
440,120,128421,1,0,0:0:0:0:
392,184,128581,2,0,B|352:144|368:80,1,100,8|0,0:0|0:0,0:0:0:0:
424,40,128902,1,0,0:0:0:0:
344,16,129062,1,0,0:0:0:0:
288,72,129222,2,0,B|272:120|216:136,1,100,8|0,0:0|0:0,0:0:0:0:
208,56,129543,2,0,B|112:32|24:112,1,200,0|8,0:0|0:0,0:0:0:0:
304,328,130184,2,0,B|400:352|488:272,1,200,0|8,0:0|0:0,0:0:0:0:
208,328,130825,5,0,0:0:0:0:
256,264,130985,1,0,0:0:0:0:
304,328,131145,2,0,B|336:296|336:232,1,100,8|0,0:0|0:0,0:0:0:0:
208,328,131466,2,0,B|176:296|176:232,1,100
256,192,131786,1,8,0:0:0:0:
256,112,131946,1,0,0:0:0:0:
256,32,132107,1,0,0:0:0:0:
72,120,132427,5,8,0:0:0:0:
256,344,132748,1,8,0:0:0:0:
440,120,133068,1,8,0:0:0:0:
256,32,133389,5,0,0:0:0:0:
216,104,133549,1,0,0:0:0:0:
296,104,133709,1,8,0:0:0:0:
184,224,134030,2,0,B|144:272|168:328,1,100
328,224,134350,2,0,B|368:272|344:328,1,100,8|0,0:0|0:0,0:0:0:0:
256,280,134671,1,0,0:0:0:0:
128,144,134991,6,0,B|64:240|144:336,1,200,8|0,0:0|0:0,0:0:0:0:
200,272,135472,2,0,B|160:224|208:176,1,100,0|8,0:0|0:0,0:0:0:0:
309,182,135792,2,0,B|352:224|312:272,1,100
256,80,136273,5,8,0:0:0:0:
312,272,136594,2,0,B|296:336|352:360,1,100
200,272,136914,2,0,B|216:336|160:360,1,100,8|0,0:0|0:0,0:0:0:0:
256,216,137235,1,0,0:0:0:0:
152,72,137555,6,0,B|48:104|64:240,1,200,8|0,0:0|0:0,0:0:0:0:
136,200,138036,1,0,0:0:0:0:
192,144,138196,1,0,0:0:0:0:
256,200,138356,1,0,0:0:0:0:
320,144,138517,6,0,B|392:168|392:168|472:160|456:80,2,200,4|8|0,0:0|0:0|0:0,0:0:0:0:
256,96,139318,1,0,0:0:0:0:
192,144,139478,1,8,0:0:0:0:
256,200,139638,1,0,0:0:0:0:
192,144,139799,6,0,B|120:168|120:168|40:160|56:80,2,200,0|8|0,0:0|0:0|0:0,0:0:0:0:
192,224,140600,1,0,0:0:0:0:
176,304,140760,1,8,0:0:0:0:
256,320,140920,1,0,0:0:0:0:
336,304,141081,6,0,B|408:240|408:240|456:232|488:296,2,200,0|8|0,0:0|0:0|0:0,0:0:0:0:
320,224,141882,1,0,0:0:0:0:
256,176,142042,1,8,0:0:0:0:
192,224,142202,1,0,0:0:0:0:
192,224,142363,6,0,B|80:240|16:136,1,200,0|8,0:0|0:0,0:0:0:0:
184,40,143004,1,8,0:0:0:0:
256,72,143164,1,0,0:0:0:0:
328,40,143324,1,8,0:0:0:0:
320,120,143484,1,0,0:0:0:0:
192,120,143645,5,4,0:0:0:0:
256,328,143965,1,8,0:0:0:0:
104,272,144286,1,0,0:0:0:0:
40,224,144446,1,0,0:0:0:0:
40,144,144606,1,8,0:0:0:0:
104,96,144766,1,0,0:0:0:0:
168,144,144927,1,0,0:0:0:0:
256,328,145247,5,8,0:0:0:0:
408,272,145568,1,0,0:0:0:0:
472,224,145728,1,0,0:0:0:0:
472,144,145888,1,8,0:0:0:0:
408,96,146048,1,0,0:0:0:0:
344,144,146209,2,0,B|288:88|224:88|168:144,4,200,0|8|0|8|0,0:0|0:0|0:0|0:0|0:0,0:0:0:0:
256,280,147811,1,8,0:0:0:0:
136,64,148132,5,4,0:0:0:0:
376,64,148452,1,4,0:0:0:0:
208,128,148773,1,0,0:0:0:0:
304,128,148933,1,0,0:0:0:0:
256,200,149093,2,0,B|216:240|160:216,1,100,8|0,0:0|0:0,0:0:0:0:
256,200,149413,2,0,B|296:240|352:216,1,100
336,296,149734,1,8,0:0:0:0:
256,328,149894,1,0,0:0:0:0:
184,296,150054,2,0,B|80:296,1,100
336,296,150375,2,0,B|448:296,1,100,8|0,0:0|0:0,0:0:0:0:
256,248,150695,1,0,0:0:0:0:
256,248,150856,1,0,0:0:0:0:
184,216,151016,5,12,0:0:0:0:
256,168,151176,1,0,0:0:0:0:
328,216,151336,2,4,B|400:216|448:152,2,133.333333333333,4|4|4,0:0|0:0|0:0,0:0:0:0:
184,216,151977,2,0,B|112:216|64:152,2,133.333333333333,4|4|4,0:0|0:0|0:0,0:0:0:0:
160,128,152618,1,4,0:0:0:0:
256,24,152939,1,0,0:0:0:0:
352,128,153259,1,4,0:0:0:0:
256,240,153580,1,0,0:0:0:0:
336,56,153900,6,0,B|430:128|366:232,2,200,0|8|0,0:0|0:0|0:0,0:0:0:0:
144,232,154862,1,8,0:0:0:0:
145,231,155022,2,0,B|82:128|176:56,1,200
256,88,155503,2,0,B|256:304,1,200,8|0,0:0|0:0,0:0:0:0:
416,312,156144,5,8,0:0:0:0:
464,248,156304,1,0,0:0:0:0:
424,176,156464,1,0,0:0:0:0:
336,208,156625,1,0,0:0:0:0:
256,160,156785,1,8,0:0:0:0:
176,208,156945,1,0,0:0:0:0:
88,176,157105,1,0,0:0:0:0:
356,31,157426,1,8,0:0:0:0:
356,31,157586,2,0,B|156:31,1,200
156,30,158067,1,8,0:0:0:0:
256,272,158387,5,0,0:0:0:0:
296,208,158548,1,0,0:0:0:0:
216,208,158708,1,8,0:0:0:0:
376,136,159028,6,0,B|448:232|352:312,2,200,0|8|0,0:0|0:0|0:0,0:0:0:0:
136,136,159990,1,8,0:0:0:0:
136,136,160150,2,0,B|64:232|160:312,1,200
256,288,160631,1,8,0:0:0:0:
256,56,160951,1,8,0:0:0:0:
328,200,161272,5,8,0:0:0:0:
256,168,161432,1,0,0:0:0:0:
184,200,161592,1,0,0:0:0:0:
256,240,161753,1,0,0:0:0:0:
328,200,161913,1,8,0:0:0:0:
328,280,162073,1,0,0:0:0:0:
184,280,162233,1,0,0:0:0:0:
256,56,162554,1,8,0:0:0:0:
256,56,162714,2,0,B|320:136|192:136|257:241,1,200
256,240,163195,1,8,0:0:0:0:
168,80,163515,5,0,0:0:0:0:
256,56,163675,1,0,0:0:0:0:
344,80,163836,1,8,0:0:0:0:
376,232,164156,6,0,B|408:360|464:248|520:360,2,200,0|8|0,0:0|0:0|0:0,0:0:0:0:
136,232,165118,1,8,0:0:0:0:
136,232,165278,2,0,B|104:360|48:248|-8:360,1,200
72,384,165759,1,8,0:0:0:0:
440,384,166079,1,0,0:0:0:0:
312,224,166400,5,8,0:0:0:0:
256,280,166560,1,0,0:0:0:0:
200,224,166720,1,0,0:0:0:0:
336,304,167041,1,8,0:0:0:0:
176,304,167361,1,0,0:0:0:0:
256,160,167682,1,8,0:0:0:0:
256,160,167842,2,0,B|336:88|456:128,1,200
360,200,168323,1,8,0:0:0:0:
152,200,168643,5,8,0:0:0:0:
144,96,168803,1,8,0:0:0:0:
256,72,168964,1,8,0:0:0:0:
368,96,169124,1,8,0:0:0:0:
360,200,169284,6,0,B|248:224|192:320,2,200,0|8|0,0:0|0:0|0:0,0:0:0:0:
152,200,170246,1,8,0:0:0:0:
152,200,170406,2,0,B|264:224|320:312,1,200
392,280,170887,1,8,0:0:0:0:
120,280,171207,1,0,0:0:0:0:
256,104,171528,1,8,0:0:0:0:
80,40,171848,5,0,0:0:0:0:
32,112,172008,1,0,0:0:0:0:
128,112,172169,2,0,B|128:176|72:208,1,100,8|0,0:0|0:0,0:0:0:0:
0,200,172489,1,0,0:0:0:0:
156,251,172810,1,8,0:0:0:0:
156,251,172970,2,0,B|364:251,1,200
356,251,173451,1,8,0:0:0:0:
256,48,173771,1,0,0:0:0:0:
