osu file format v9

[General]
AudioFilename: Andrew WK - Ready To Die.mp3
AudioLeadIn: 0
PreviewTime: 51021
Countdown: 1
SampleSet: Normal
StackLeniency: 0.7
Mode: 0
LetterboxInBreaks: 1

[Editor]
DistanceSpacing: 0.97
BeatDivisor: 2
GridSize: 4

[Metadata]
Title:Ready To Die
Artist:Andrew W.K.
Creator:ztrot
Version:DC's Normal
Source:
Tags:Mr Color DiamondCrash

[Difficulty]
HPDrainRate:2
CircleSize:4
OverallDifficulty:2
ApproachRate:3
SliderMultiplier:1.44
SliderTickRate:2

[Events]
//Background and Video events
0,0,"BGcupcake.jpg"
Video,-400,"Cupcakes (2).avi"
//Break Periods
2,72054,80669
//Storyboard Layer 0 (Background)
//Storyboard Layer 1 (Fail)
//Storyboard Layer 2 (Pass)
//Storyboard Layer 3 (Foreground)
//Storyboard Sound Samples
//Background Colour Transformations
3,100,163,162,255

[TimingPoints]
63,320.495700016025,4,1,1,90,1,0
31952,-100,4,1,0,75,0,0
32192,-100,4,2,0,100,0,0
32593,-100,4,1,1,90,0,0
34596,-100,4,1,0,75,0,0
34836,-100,4,2,0,100,0,0
35157,-100,4,1,1,90,0,0
37080,-100,4,1,0,75,0,0
37400,-100,4,2,0,100,0,0
37721,-100,4,1,1,90,0,0
41166,-100,4,2,0,100,0,0
41727,-100,4,1,1,90,0,0
41807,-100,4,2,0,100,0,0
42368,-100,4,1,1,90,0,0
42608,-100,4,1,0,90,0,0
43009,-100,4,1,1,100,0,0
43089,-100,4,2,0,100,0,0
43650,-100,4,1,1,90,0,0
43730,-100,4,2,0,100,0,0
44291,-100,4,1,1,90,0,0
44371,-100,4,2,0,100,0,0
44772,-100,4,1,1,90,0,0
45092,-100,4,1,0,90,0,0
45573,-100,4,1,1,90,0,0
45653,-100,4,2,0,100,0,0
46214,-100,4,1,1,100,0,0
51101,-100,4,2,0,100,0,0
51342,-100,4,1,1,100,0,0
56229,-100,4,2,0,100,0,0
56390,-100,4,1,1,100,0,0
66485,-100,4,2,0,100,0,0
66726,-100,4,1,1,100,0,0
71854,-100,4,1,1,100,0,0
81468,-100,4,1,1,90,0,0
83632,-100,4,1,0,70,0,0
84513,-100,4,1,1,90,0,0
86196,-100,4,1,0,70,0,0
86917,-100,4,1,1,90,0,0
88840,-100,4,1,0,70,0,0
89321,-100,4,1,1,90,0,0
91404,-100,4,1,0,70,0,0
92285,-100,4,1,1,90,0,0
93647,-100,4,1,0,90,0,0
93807,-100,4,2,0,100,0,0
94128,-100,4,1,1,90,0,0
96211,-100,4,1,0,90,0,0
96371,-100,4,2,0,100,0,0
96692,-100,4,1,1,90,0,0
102541,-100,4,1,0,100,0,0
102701,-100,4,1,1,90,0,0
103583,-100,4,1,0,75,0,0
103983,-100,4,1,1,75,0,0
104384,-100,4,1,1,100,0,0
105105,-100,4,1,0,100,0,0
105265,-100,4,1,1,75,0,0
106147,-100,4,1,0,75,0,0
106547,-100,4,1,1,75,0,0
107028,-100,4,1,1,100,0,0
107589,-100,4,1,0,100,0,0
107829,-100,4,1,1,75,0,0
108630,-100,4,1,0,90,0,0
109111,-100,4,1,1,75,0,0
109672,-100,4,1,1,100,0,0
109912,-100,4,1,1,90,0,0
112556,-100,4,2,0,100,0,0
112877,-100,4,1,1,100,0,0
117765,-100,4,2,0,100,0,0
117925,-100,4,1,1,100,0,0
128020,-100,4,2,0,100,0,0
128181,-100,4,1,1,100,0,0
133228,-100,4,2,0,100,0,0
133389,-100,4,1,1,100,0,0
152512,-100,4,1,1,100,0,0
152618,-100,4,1,1,100,0,0
152725,-100,4,1,1,100,0,0

[HitObjects]
256,192,10318,5,4
0,260,10959,2,0,B|-31:312|-6:376|56:401|109:370,2,216,12|0|8
0,124,12241,1,8
256,152,12882,5,4
512,260,13523,2,0,B|543:312|518:376|455:401|402:370,2,216,12|0|8
512,124,14805,1,8
236,68,15446,6,12,B|188:124|220:196|256:192|292:188|324:260|276:316,1,288,4|12
52,284,16568,2,2,B|0:244|-8:192|0:140|52:100,1,216,2|8
156,192,17369,1,8
276,68,18010,6,12,B|324:124|292:196|256:192|220:188|188:260|236:316,1,288,4|12
460,284,19132,2,2,B|512:244|520:192|512:140|460:100,1,216,2|8
356,192,19933,1,8
156,352,20574,5,4
0,124,21215,2,0,B|-31:72|-6:8|56:-17|109:14,2,216,12|0|8
0,260,22497,1,8
256,232,23138,5,4
512,124,23779,2,0,B|543:72|518:8|455:-17|402:14,2,216,12|0|8
512,260,25061,1,8
236,316,25702,6,12,B|188:260|220:188|256:192|292:196|324:124|276:68,1,288,4|12
52,100,26824,2,2,B|0:140|-8:192|0:244|52:284,1,216,2|8
156,192,27625,1,8
276,316,28266,6,12,B|324:260|292:188|256:192|220:196|188:124|236:68,1,288,4|12
460,100,29388,2,2,B|512:140|520:192|512:244|460:284,1,216,2|8
356,192,30189,1,8
8,136,31151,6,0,B|-27:123|-43:79|-27:35|7:23,2,144,0|8|0
132,80,32112,1,0
256,24,32433,1,0
380,80,32753,2,2,B|300:124|276:192|300:260|380:304,1,288,10|6
504,248,33715,6,0,B|539:235|555:191|539:147|504:135,2,144,0|8|0
380,192,34676,1,0
255,139,34997,1,0
132,80,35317,2,2,B|52:124|28:192|52:260|132:304,1,288,10|6
256,372,36279,6,0,B|289:388|332:369|352:326|335:292,2,144,0|8|0
256,232,37240,1,0
184,112,37560,1,0
324,112,37881,1,8
396,232,38201,5,0
504,148,38522,2,6,B|428:60|364:28|288:4|224:4|148:28|84:60|8:148,1,576
140,192,40124,1,8
256,116,40445,1,12
396,344,41086,6,0,B|409:379|453:395|497:379|509:345,3,144,12|0|8|2
452,216,42368,1,12
448,76,42688,1,0
316,28,43009,2,12,B|246:47|225:113|256:140|286:166|265:232|196:252,1,288,8|12
116,344,43970,6,0,B|103:379|59:395|15:379|3:345,2,144,0|8|2
60,216,44932,1,12
64,76,45252,1,0
196,28,45573,2,12,B|265:47|286:113|255:140|225:166|246:232|315:252,1,288,8|12
396,344,46534,6,0,B|409:379|453:395|497:379|509:345,2,144,8|4|8
452,216,47496,1,4
388,92,47816,1,8
256,48,48137,1,4
124,92,48457,5,0
116,232,48778,1,12
396,232,49419,1,12
132,324,50060,1,12
256,384,50380,1,12
380,324,50701,1,12
488,192,51182,5,2
488,192,51342,2,2,B|530:121|496:36|411:2|340:44,1,288,6|2
256,236,52464,1,4
388,336,52944,5,8
256,384,53265,1,0
124,336,53585,1,8
256,292,53906,1,4
256,12,54547,1,4
425,227,55188,2,2,B|413:263|369:279|325:263|312:228,1,144,6|10
200,228,55829,2,2,B|187:263|143:279|99:263|87:229,1,144,6|10
24,192,56309,5,2
24,192,56470,2,2,B|-18:121|16:36|101:2|172:44,1,288,6|2
256,236,57591,1,4
124,336,58072,5,8
256,384,58393,1,0
388,336,58713,1,8
256,292,59034,1,4
256,12,59675,1,4
86,227,60316,2,2,B|99:263|143:279|187:263|200:228,1,144,6|10
312,228,60957,2,2,B|325:263|369:279|413:263|425:229,1,144,6|10
468,132,61598,6,6,B|420:64|364:28|288:-8|224:-8|148:28|92:64|44:132,1,504
256,92,63200,5,8
188,212,63521,1,0
324,212,63841,1,8
396,320,64162,6,6,B|300:360|212:360|116:320,3,288
24,192,66565,5,0
24,192,66725,2,0,B|-18:121|15:36|100:2|171:44,1,288,4|0
152,252,67847,2,6,B|224:280|256:284|288:280|360:252,1,216,6|10
256,192,69290,12,4,71854
256,152,82109,5,4
0,260,82750,2,0,B|-31:312|-6:376|56:401|109:370,2,216,12|0|8
0,124,84032,1,8
256,152,84673,5,4
512,260,85314,2,0,B|543:312|518:376|455:401|402:370,2,216,12|0|8
512,124,86596,1,8
236,68,87237,6,12,B|188:124|220:196|256:192|292:188|324:260|276:316,1,288,4|12
52,284,88359,2,2,B|0:244|-8:192|0:140|52:100,1,216,2|8
156,192,89160,1,8
276,68,89801,6,12,B|324:124|292:196|256:192|220:188|188:260|236:316,1,288,4|12
460,284,90923,2,2,B|512:244|520:192|512:140|460:100,1,216,2|8
356,192,91724,1,8
6,28,92686,6,0,B|-30:52|-34:88|-30:124|6:148,1,144,0|8
84,28,93327,2,0,B|121:52|125:88|121:124|85:148,1,144
212,88,93968,1,0
352,88,94288,2,2,B|272:132|248:200|272:268|352:312,1,288,10|6
508,252,95250,6,0,B|544:228|548:192|544:156|508:132,1,144,0|8
429,252,95891,2,0,B|392:228|388:192|392:156|428:132,1,144
300,76,96532,1,0
168,80,96852,2,0,B|216:105|244:144|246:192,1,144,8|0
84,252,97493,6,0,B|120:228|124:192|120:156|84:131,1,144,4|0
5,252,98134,2,0,B|-32:228|-36:192|-32:156|5:131,1,144,8|0
124,60,98775,1,4
256,20,99095,1,0
388,60,99416,1,8
504,236,100057,6,6,B|428:324|364:356|288:380|224:380|148:356|84:324|8:236,1,576
140,192,101659,1,8
256,268,101980,1,12
511,103,102621,6,0,B|519:60|497:32|469:9|426:18,1,144,4|0
452,156,103262,2,0,B|410:164|382:141|359:113|368:70,1,144,8|0
256,152,103903,1,0
184,272,104224,1,0
328,272,104544,1,14
1,103,105185,6,0,B|-7:60|16:32|44:9|87:18,1,144,4|0
60,156,105826,2,0,B|103:164|131:141|154:113|145:70,1,144,8|0
256,152,106467,1,0
328,272,106788,1,0
184,272,107108,1,14
68,56,107749,6,0,B|92:19|128:15|164:19|188:56,1,144,4|0
324,56,108390,2,0,B|348:19|384:15|420:19|444:56,1,144,8|0
452,168,109031,1,4
388,292,109351,1,8
256,336,109672,1,6
124,292,109992,5,0
116,152,110313,1,14
396,152,110954,1,14
132,60,111595,1,14
256,0,111915,1,14
380,60,112236,1,14
512,192,112717,5,2
512,192,112877,2,2,B|554:263|520:348|435:382|364:340,1,288,6|2
148,340,113999,1,4
128,132,114479,5,8
256,192,114800,1,0
384,132,115120,1,8
256,72,115441,1,4
256,352,116082,1,4
440,223,116723,2,0,B|416:260|380:264|344:260|320:224,1,144,4|8
192,160,117364,2,0,B|167:123|131:119|95:123|71:160,1,144,4|8
0,192,117845,5,2
0,192,118005,2,2,B|-42:263|-8:348|77:382|148:340,1,288,6|2
364,340,119127,1,4
384,132,119607,5,8
256,192,119928,1,0
128,132,120248,1,8
256,72,120569,1,4
256,352,121210,1,4
71,160,121851,2,0,B|95:123|131:119|167:123|192:160,1,144,4|8
320,224,122492,2,0,B|344:260|380:264|416:260|440:223,1,144,4|8
468,132,123133,6,6,B|420:64|364:28|288:-8|224:-8|148:28|92:64|44:132,1,504
256,92,124735,5,8
188,212,125056,1,0
324,212,125376,1,8
396,320,125697,6,6,B|300:360|212:360|116:320,3,288
0,192,128101,5,2
0,192,128261,2,2,B|-42:121|-8:36|77:2|148:44,1,288,6|2
152,252,129383,2,6,B|224:280|256:284|288:280|360:252,1,216,6|10
256,192,130344,12,4,132107
512,148,133228,5,0
512,148,133389,2,4,B|520:105|497:77|469:54|426:63,2,144,4|8|4
308,192,134510,1,4
144,72,134991,5,8
72,192,135312,1,0
140,316,135632,1,8
68,336,135792,2,6,B|-20:296|-56:192|-20:88|68:48,1,360
256,192,137235,1,4
356,336,137876,2,4,B|348:293|371:265|399:242|442:251,1,144
512,236,138356,5,0
512,236,138517,2,4,B|520:279|497:307|469:330|426:321,2,144,4|8|4
308,192,139638,1,4
144,312,140119,5,8
72,192,140440,1,0
140,68,140760,1,8
68,48,140920,2,6,B|-20:88|-56:192|-20:296|68:336,1,360
256,192,142363,1,4
352,48,143004,2,4,B|344:91|367:119|395:142|438:133,1,144
424,60,143484,5,0
424,60,143645,2,4,B|467:50|495:73|518:101|510:144,2,144,4|8|4
256,192,144766,2,2,B|152:88,1,144,6|2
104,40,145247,5,8
48,168,145568,1,0
112,292,145888,1,8
112,292,146048,2,6,B|152:380|256:416|360:380|400:292,1,360
256,52,147491,1,4
196,264,148132,2,0,B|220:301|256:305|292:301|316:265,1,144,4|8
436,192,148773,6,0,B|473:168|477:132|473:96|437:72,1,144,4|8
308,20,149413,1,0
204,112,149734,1,8
75,71,150054,2,0,B|39:96|35:132|39:168|76:192,1,144,4|8
44,328,150695,1,12
208,268,151336,6,12,B|160:244|140:192|160:140|208:116,1,192,4|8
304,116,151977,2,12,B|352:140|372:192|352:244|304:268,1,192,4|8
256,192,152618,1,4
256,192,152939,1,0
256,192,153259,1,0
256,192,153900,5,4
512,124,154541,2,0,B|543:72|518:8|456:-17|403:14,2,216,12|0|8
512,260,155823,1,8
256,232,156464,5,4
0,124,157105,2,0,B|-31:72|-6:8|57:-17|110:14,2,216,12|0|8
0,260,158387,1,8
276,316,159028,6,12,B|324:260|292:188|256:192|220:196|188:124|236:68,1,288,4|12
460,100,160150,2,2,B|512:140|520:192|512:244|460:284,1,216,2|8
356,192,160951,1,8
236,316,161592,6,12,B|188:260|220:188|256:192|292:196|324:124|276:68,1,288,4|12
52,100,162714,2,2,B|0:140|-8:192|0:244|52:284,1,216,2|8
156,192,163515,1,8
356,32,164156,5,4
512,260,164797,2,0,B|543:312|518:376|456:401|403:370,2,216,12|0|8
512,124,166079,1,8
256,152,166720,5,4
0,260,167361,2,0,B|-31:312|-6:376|57:401|110:370,2,216,12|0|8
0,124,168643,1,8
276,68,169284,6,12,B|324:124|292:196|256:192|220:188|188:260|236:316,1,288,4|12
460,284,170406,2,2,B|512:244|520:192|512:140|460:100,1,216,2|8
356,192,171207,1,8
236,68,171848,6,12,B|188:124|220:196|256:192|292:188|324:260|276:316,1,288,4|12
52,284,172970,2,2,B|0:244|-8:192|0:140|52:100,1,216,2|8
156,192,173771,1,8
