osu file format v9

[General]
AudioFilename: Andrew WK - Ready To Die.mp3
AudioLeadIn: 0
PreviewTime: 51021
Countdown: 1
SampleSet: Normal
StackLeniency: 0.7
Mode: 0
LetterboxInBreaks: 1

[Editor]
DistanceSpacing: 0.8
BeatDivisor: 4
GridSize: 8

[Metadata]
Title:Ready To Die
Artist:Andrew W.K.
Creator:ztrot
Version:Color's Hate
Source:
Tags:Mr Color DiamondCrash

[Difficulty]
HPDrainRate:6
CircleSize:4
OverallDifficulty:6
ApproachRate:7
SliderMultiplier:1.8
SliderTickRate:2

[Events]
//Background and Video events
0,0,"BGcupcake.jpg"
Video,-400,"Cupcakes (2).avi"
//Break Periods
2,72053,81209
//Storyboard Layer 0 (Background)
//Storyboard Layer 1 (Fail)
//Storyboard Layer 2 (Pass)
//Storyboard Layer 3 (Foreground)
//Storyboard Sound Samples
//Background Colour Transformations
3,100,163,162,255

[TimingPoints]
63,320.495700016025,4,1,1,90,1,0

[HitObjects]
256,48,10318,2,0,B|256:232,3,180,4|8|0|8
328,256,11440,2,0,B|296:320|216:320|184:256,1,180
152,192,11921,1,8
360,192,12241,1,0
256,40,12562,1,8
104,128,12882,6,0,B|56:176|64:256|152:272,1,180,4|8
152,192,13363,1,8
176,120,13523,2,0,B|232:72|280:72|336:120,1,180,0|8
408,128,14004,2,0,B|456:176|448:256|360:272,1,180
360,192,14485,1,8
256,344,14805,2,0,B|256:160,1,180,0|8
184,40,15446,6,0,B|128:80|128:160|184:192,1,180,4|8
328,40,16087,2,0,B|384:80|384:160|328:192,1,180,0|8
384,248,16568,1,0
256,112,16889,1,0
256,112,17049,1,8
128,248,17369,1,0
72,104,17690,2,8,B|72:192,1,90
144,176,18010,6,0,B|224:200|216:296|144:320,2,180,4|8|0
256,80,18972,1,8
256,80,19132,1,0
400,112,19452,1,0
368,176,19613,2,0,B|288:200|296:296|368:320,2,180,8|0|8
384,248,20414,1,8
424,312,20574,5,4
256,344,20895,1,8
88,312,21215,1,0
104,152,21536,1,8
168,120,21696,2,0,B|256:96|352:120,1,180
344,192,22177,2,0,B|256:216|160:192,2,180,8|0|8
440,320,23138,6,0,B|408:360|352:344,1,90
376,270,23459,2,8,B|328:256|296:296,1,90
215,295,23779,2,0,B|184:256|135:270,1,90
152,345,24100,2,0,B|104:360|72:320,1,90,8|0
112,184,24580,1,0
168,136,24741,2,0,B|360:136,1,180,8|0
392,192,25221,2,0,B|488:192,2,90,8|0|8
328,240,25702,6,0,B|376:336|480:304,2,180,4|8|0
256,224,26503,1,8
256,224,26664,1,8
184,240,26824,2,0,B|136:336|32:304,1,180,4|0
0,232,27305,2,0,B|48:136|152:168,1,180,8|0
256,48,27946,1,8
362,167,28266,6,0,B|464:136|512:232,2,180,4|8|0
256,264,29228,1,8
256,264,29388,1,0
149,167,29708,1,0
149,167,29869,2,0,B|48:136|0:232,1,180,8|0
64,264,30349,1,8
128,296,30510,1,8
192,328,30670,1,8
256,288,30830,5,4
400,256,31151,2,0,B|424:160|352:88,1,180
157,90,31792,2,0,B|88:160|112:256,1,180
256,216,32433,1,0
168,328,32753,2,0,B|256:368|344:328,1,180
408,200,33394,5,0
312,88,33715,2,0,B|216:48|152:128,1,180
200,296,34356,2,0,B|296:336|360:256,2,180
104,184,35317,2,0,B|104:368,1,180
176,240,35958,5,0
336,200,36279,1,0
176,168,36599,1,0
336,128,36920,1,0
176,96,37240,1,0
336,56,37560,1,0
176,24,37881,1,0
256,144,38201,6,0,B|256:344,2,180
176,264,39163,2,0,B|128:176|176:88,2,180
336,264,40124,2,0,B|384:176|336:88,2,180
464,336,41086,5,4
432,192,41406,2,0,B|440:96|376:16,1,180
256,88,42047,1,0
130,23,42368,2,0,B|72:96|80:192,1,180
48,336,43009,1,0
176,272,43329,1,0
336,272,43650,5,4
208,200,43970,2,0,B|127:172|72:256|112:312,1,180
256,320,44611,1,0
408,296,44932,2,0,B|430:253|385:172|304:200,1,180
346,62,45573,2,0,B|146:62,1,180
56,152,46214,5,4
184,216,46534,2,0,B|200:312|128:392,1,180
256,304,47175,1,0
376,376,47496,2,0,B|311:304|327:208,1,180
448,136,48137,1,0
336,48,48457,5,0
176,80,48778,1,0
336,120,49098,1,0
176,152,49419,1,0
336,192,49739,1,0
176,224,50060,1,0
336,264,50380,1,0
176,296,50701,1,0
344,64,51342,6,0,B|256:24|168:64,2,180,4|8|0
384,128,52143,1,8
416,192,52303,1,8
440,264,52464,2,0,B|408:344|328:344|256:288,1,180,4|0
221,310,52944,6,0,B|176:336|104:344|72:264,1,180,8|0
96,192,53425,1,8
128,128,53585,1,8
168,64,53746,2,0,B|256:24|344:64,1,180,4|0
312,131,54226,6,0,B|370:160|440:96|408:32,2,180,8|0|8
256,176,55028,1,0
199,131,55188,2,0,B|142:160|72:96|104:32,2,180,0|8|0
184,208,55989,2,8,B|216:272|296:272|328:208,1,180
392,256,56470,6,0,B|416:208|389:164|389:164|360:120|384:72,2,180,0|8|0
336,304,57271,1,8
264,296,57431,1,8
232,232,57591,2,0,B|32:232,1,180,4|0
52,152,58072,6,0,B|232:152,1,180,8|0
264,88,58553,1,8
336,80,58713,1,8
392,128,58873,2,0,B|416:176|389:220|389:220|360:264|378:300,1,180,4|0
448,272,59354,6,0,B|504:192|464:96,1,180,8|0
320,152,59995,1,8
192,152,60316,1,0
46,100,60636,2,0,B|8:192|64:272,1,180,8|0
128,312,61117,2,0,B|128:368,2,45,8|8|0
192,272,61437,1,8
256,304,61598,6,0,B|344:352|432:304,2,180,4|8|0
304,248,62399,1,8
376,248,62559,1,8
336,184,62719,2,0,B|272:112|304:8,1,180
210,15,63200,6,0,B|240:112|176:184,2,180,8|0|8
64,16,64162,2,4,B|0:88|64:192|64:192|128:296|64:368,3,360
192,272,66405,1,8
184,128,66726,6,0,B|208:72|256:67|304:72|328:128,2,180,4|8|0
256,152,67527,1,8
320,192,67687,1,8
376,240,67847,2,8,B|304:312|208:312|136:240,1,270
256,192,68649,12,4,70572
344,264,71213,6,0,B|256:296|168:264,2,180,0|0|4
88,72,82109,5,4
256,40,82430,1,8
424,72,82750,1,0
408,232,83071,1,8
344,264,83231,2,0,B|256:288|160:264,1,180
168,192,83712,2,0,B|256:168|352:192,2,180,8|0|8
72,64,84673,6,0,B|104:24|160:40,1,90
135,113,84994,2,8,B|184:128|216:88,1,90
296,88,85314,2,0,B|328:128|376:113,1,90
359,38,85635,2,0,B|408:24|440:64,1,90,8|0
400,200,86115,1,0
344,248,86276,2,0,B|152:248,1,180,8|0
120,192,86756,2,0,B|24:192,2,90,8|0|8
184,144,87237,6,0,B|136:48|32:80,2,180,4|8|0
256,160,88038,1,8
256,160,88199,1,8
328,144,88359,2,0,B|376:48|480:80,1,180,4|0
512,152,88840,2,0,B|464:248|360:216,1,180,8|0
256,336,89481,1,8
149,216,89801,6,0,B|48:248|0:152,2,180,4|8|0
256,120,90763,1,8
256,120,90923,1,0
362,216,91243,1,0
362,216,91404,2,0,B|464:248|512:152,1,180,8|0
448,120,91884,1,8
384,88,92045,1,8
320,56,92205,1,8
256,96,92365,5,4
112,128,92686,2,0,B|88:224|160:296,1,180
354,293,93327,2,0,B|424:224|400:128,1,180
256,168,93968,1,0
344,56,94288,2,0,B|256:16|168:56,1,180
104,184,94929,5,0
200,296,95250,2,0,B|296:336|360:256,1,180
312,88,95891,2,0,B|216:48|152:128,2,180
408,200,96852,2,0,B|408:16,1,180
336,144,97493,5,0
176,184,97814,1,0
336,216,98134,1,0
176,256,98455,1,0
336,288,98775,1,0
176,328,99095,1,0
336,360,99416,1,0
256,240,99736,6,0,B|256:40,2,180
336,120,100698,2,0,B|384:208|336:296,2,180
176,120,101659,2,0,B|128:208|176:296,2,180
48,48,102621,5,4
80,192,102941,2,0,B|72:288|136:368,1,180
256,296,103582,1,0
381,360,103903,2,0,B|440:288|432:192,1,180
464,48,104544,1,0
336,112,104864,1,0
176,112,105185,5,4
304,184,105505,2,0,B|385:212|440:128|400:72,1,180
256,64,106146,1,0
103,87,106467,2,0,B|82:131|127:212|208:184,1,180
166,322,107108,2,0,B|366:322,1,180
456,232,107749,5,4
328,168,108069,2,0,B|312:72|384:-8,1,180
256,80,108710,1,0
136,8,109031,2,0,B|200:79|184:175,1,180
64,248,109672,1,0
176,336,109992,5,0
336,304,110313,1,4
176,264,110633,1,0
336,232,110954,1,0
176,192,111274,1,0
336,160,111595,1,0
176,120,111915,1,0
336,88,112236,1,0
168,320,112877,6,0,B|256:360|344:320,2,180,4|8|0
128,256,113678,1,8
96,192,113838,1,8
72,120,113999,2,0,B|104:40|184:40|256:96,1,180,4|0
290,73,114479,6,0,B|336:48|408:40|440:120,1,180,8|0
416,192,114960,1,8
384,256,115120,1,8
344,320,115281,2,0,B|256:360|168:320,1,180,4|0
199,252,115761,6,0,B|142:224|72:288|104:352,2,180,8|0|8
256,208,116563,1,0
312,252,116723,2,0,B|370:224|440:288|408:352,2,180,0|8|0
328,176,117524,2,8,B|296:112|216:112|184:176,1,180
120,128,118005,6,0,B|96:176|123:220|123:220|152:264|128:312,2,180,4|8|0
176,80,118806,1,8
248,88,118966,1,8
280,152,119126,2,0,B|480:152,1,180,4|0
460,232,119607,6,0,B|280:232,1,180,8|0
248,296,120088,1,8
176,304,120248,1,8
119,255,120408,2,0,B|96:208|123:164|123:164|152:120|133:83,1,180,4|0
64,112,120889,6,0,B|8:192|48:288,1,180,8|0
192,232,121530,1,8
320,232,121851,1,0
465,283,122171,2,0,B|504:192|448:112,1,180,8|0
384,72,122652,2,0,B|384:16,2,45,8|8|0
320,112,122972,1,8
256,80,123133,6,0,B|168:32|80:80,2,180,4|8|0
208,136,123934,1,8
136,136,124094,1,8
176,200,124254,2,0,B|240:272|208:376,1,180,4|0
301,368,124735,6,0,B|272:272|336:200,2,180,8|0|8
448,368,125697,2,4,B|512:296|448:192|448:192|384:88|448:16,3,360
320,112,127940,1,8
328,256,128261,6,0,B|304:312|256:317|208:312|184:256,2,180,4|8|0
256,232,129062,1,8
192,192,129222,1,8
136,144,129382,2,0,B|208:72|304:72|376:144,1,270,0|8
256,192,130184,12,4,132107
256,352,132748,6,8,B|280:312|256:264|256:264|232:216|256:176,1,180
320,216,133228,5,0
344,288,133389,1,4
392,232,133549,1,0
416,304,133709,2,0,B|480:272|480:192|416:160,1,180,8|0
480,120,134190,1,8
416,88,134350,1,8
464,32,134510,2,0,B|384:-16|288:16,1,180,4|0
221,15,134991,6,0,B|128:-16|48:32,1,180,8|0
96,88,135471,1,8
32,120,135631,1,8
93,161,135792,2,0,B|32:192|32:272|96:304,1,180,4|0
166,302,136273,6,0,B|229:270|229:190|168:160,1,180,8|0
216,104,136754,1,8
296,104,136914,1,8
343,160,137074,2,0,B|282:190|282:270|345:302,1,180,4|0
376,232,137555,6,0,B|437:201|437:121|374:89,1,180,8|0
424,32,138036,2,0,B|464:48|488:104,1,90,0|8
496,168,138356,5,8
480,240,138517,1,4
496,312,138677,1,0
480,384,138837,2,0,B|288:384,1,180,8|0
256,320,139318,1,8
256,320,139478,1,8
328,296,139638,2,0,B|376:200|296:128,1,180,4|0
211,132,140119,6,0,B|136:200|184:296,1,180,8|0
200,368,140600,1,8
128,344,140760,1,8
96,280,140920,2,0,B|64:184|136:96,1,180,4|0
168,48,141401,6,0,B|352:48,1,180,8|0
424,40,141882,1,8
424,40,142042,1,8
386,109,142202,2,0,B|448:184|416:280,1,180,4|0
328,295,142683,6,0,B|376:200|300:132,1,180,8|8
256,192,143164,2,0,B|256:240,2,45,0|0|8
211,132,143484,1,8
176,64,143645,6,0,B|112:96|120:200|200:208,2,180,4|8|0
256,64,144446,1,8
256,64,144606,1,8
336,64,144766,2,0,B|400:96|392:200|312:208,1,180,4|0
368,264,145247,6,0,B|432:288|408:368|336:368|320:312,1,180,8|0
256,352,145728,1,8
256,280,145888,1,8
191,313,146048,2,0,B|176:368|104:368|80:288|144:264,1,180,4|0
168,192,146529,6,0,B|256:160|352:192,2,180,8|0|8
120,128,147330,2,0,B|260:76|400:128,1,270,4|8
416,192,147971,1,8
488,168,148132,2,0,B|512:232|440:296|376:256,1,180,0|12
256,192,148773,6,0,B|256:384,2,180,4|8|0
216,128,149574,1,8
256,64,149734,1,8
296,128,149894,1,0
336,192,150054,5,8
368,128,150215,1,0
328,64,150375,1,8
296,0,150535,1,0
224,0,150695,1,8
184,64,150856,1,8
152,128,151016,1,8
192,192,151176,1,0
208,264,151336,6,4,B|137:269|119:202,2,120
304,264,151977,2,4,B|375:269|393:202,2,120
256,208,152618,1,8
184,336,152939,1,0
328,336,153259,1,12
256,48,153900,6,0,B|256:232,3,180,4|8|0|8
328,256,155022,2,0,B|296:320|216:320|184:256,1,180
152,192,155503,1,8
360,192,155823,1,0
256,40,156144,1,8
104,128,156464,6,0,B|56:176|64:256|152:272,1,180,4|8
152,192,156945,1,8
176,120,157105,2,0,B|232:72|280:72|336:120,1,180,0|8
408,128,157586,2,0,B|456:176|448:256|360:272,1,180
360,192,158067,1,8
256,344,158387,2,0,B|256:160,1,180,0|8
184,40,159028,6,0,B|128:80|128:160|184:192,1,180,4|8
328,40,159669,2,0,B|384:80|384:160|328:192,1,180,0|8
384,248,160150,1,0
256,112,160471,1,0
256,112,160631,1,8
128,248,160951,1,0
72,104,161272,2,8,B|72:192,1,90
144,176,161592,6,0,B|221:199|216:296|149:318,2,180,4|8|0
256,80,162554,1,8
256,80,162714,1,0
400,112,163034,1,0
368,176,163195,2,0,B|291:199|296:296|363:318,2,180,4|8|0
384,248,163996,1,8
424,312,164156,5,4
256,344,164477,1,8
88,312,164797,1,0
104,152,165118,1,8
168,120,165278,2,0,B|256:96|352:120,1,180
344,192,165759,2,0,B|256:216|160:192,2,180,8|0|8
440,320,166720,6,0,B|408:360|352:344,1,90
376,270,167041,2,8,B|328:256|296:296,1,90
215,295,167361,2,0,B|184:256|135:270,1,90
152,345,167682,2,0,B|104:360|72:320,1,90,8|0
112,184,168162,1,0
168,136,168323,2,0,B|360:136,1,180,8|0
392,192,168803,2,0,B|488:192,2,90,8|0|8
328,240,169284,6,0,B|376:336|480:304,2,180,4|8|0
256,224,170085,1,8
256,224,170246,1,8
184,240,170406,2,0,B|136:336|32:304,1,180,4|0
0,232,170887,2,0,B|48:136|152:168,1,180,8|0
256,48,171528,1,8
362,167,171848,6,0,B|464:136|512:232,2,180,4|8|0
256,264,172810,1,8
256,264,172970,1,0
149,167,173290,1,0
149,167,173451,2,0,B|48:136|0:232,1,180,8|4
