osu file format v5

[General]
AudioFilename: 08 Party Party Party.mp3
AudioLeadIn: 0
PreviewTime: -1
Countdown: 1
SampleSet: Soft
StackLeniency: 0.7
Mode: 0
LetterboxInBreaks: 1
EditorBookmarks: 10758,30890,51101

[Metadata]
Title:Party Party Party
Artist:Andrew W.K.
Creator:lukewarmholiday
Version:Party Hard
Source:
Tags:

[Difficulty]
HPDrainRate:5
CircleSize:5
OverallDifficulty:8
SliderMultiplier:1.3
SliderTickRate:2

[Events]
//Background and Video events
//Break Periods
2,31089,34080
2,51379,60606
//Storyboard Layer 0 (Background)
//Storyboard Layer 1 (Failing)
//Storyboard Layer 2 (Passing)
//Storyboard Layer 3 (Foreground)
//Storyboard Sound Samples
//Background Colour Transformations
3,100,0,0,0

[TimingPoints]
3110,634.920634920635,4,2,0,100,1,0
10700,315.706393054459,4,1,0,100,1,0
73855,313.3,4,1,0,100,1,0
93751,583.941605839416,4,2,0,100,1,0
96086,641.025641025641,4,2,0,100,1,0

[HitObjects]
256,192,5649,1,2
256,272,6125,1,4
224,272,6284,1,4
256,192,7871,1,2
256,192,8189,1,2
256,80,8665,1,4
256,112,8824,1,4
256,192,8983,12,0,10094
256,48,10700,5,0
224,96,10857,1,0
288,96,11015,1,0
256,144,11173,1,0
224,192,11331,1,0
288,192,11489,1,0
256,304,11804,5,0
256,304,11962,1,0
320,304,12120,1,0
256,304,12278,1,0
192,304,12436,1,0
160,256,12594,1,0
192,208,12752,1,0
320,208,13067,6,0,B|320:128,4,65
320,272,13857,1,0
256,272,14014,1,0
128,272,14330,5,0
80,224,14488,1,0
128,176,14646,1,0
176,224,14804,1,0
128,272,14962,1,0
128,224,15119,1,0
128,224,15277,1,0
128,224,15435,6,0,B|272:224,1,130
320,224,15909,1,0
320,160,16067,1,0
320,224,16224,1,0
320,288,16382,1,0
320,224,16540,1,0
192,224,16856,5,0
192,224,17014,1,0
192,224,17171,1,0
192,160,17329,1,0
192,160,17487,1,0
192,224,17645,1,0
192,224,17803,1,0
320,224,18119,6,0,B|400:224,1,65
448,224,18434,2,0,B|448:128,1,81.25
448,96,18750,2,0,B|368:96,1,65
383,96,19066,1,0
256,96,19381,5,0
224,144,19539,1,0
288,144,19697,1,0
256,96,19855,1,0
224,144,20013,1,0
288,144,20171,2,0,B|257:253|224:144,1,130
96,144,20802,5,0
96,208,20960,1,0
96,272,21118,1,0
160,272,21276,1,0
224,272,21434,1,0
288,272,21591,1,0
416,272,21907,5,0
416,208,22065,1,0
416,144,22223,1,0
352,144,22381,1,0
288,144,22538,1,0
224,144,22696,1,0
160,144,22854,1,0
224,32,23170,5,0
288,32,23328,1,0
256,80,23486,1,0
256,144,23643,1,0
256,208,23801,1,0
256,272,23959,1,0
256,272,24117,1,0
144,320,24433,6,0,B|56:328|64:240,1,130
64,192,24906,1,0
64,128,25064,1,0
128,128,25222,1,0
128,64,25380,1,0
192,64,25538,2,0,B|336:64,4,130
64,64,27116,5,0
64,128,27274,2,0,B|56:216|224:208,1,195
272,208,27905,1,0
400,208,28221,5,0
400,144,28379,1,0
400,80,28537,1,0
336,80,28695,1,0
272,80,28853,1,0
272,80,29010,1,0
272,80,29168,1,0
144,80,29484,2,0,B|64:81|64:176,1,130
64,224,29958,1,0
64,288,30115,1,0
128,288,30273,2,0,B|400:288,1,260
80,192,34693,5,2
128,144,34851,5,2
176,192,35009,5,2
224,240,35167,5,2
272,192,35325,5,2
320,144,35482,5,2
368,192,35640,5,2
416,240,35798,5,2
368,288,35956,6,0,B|208:288,1,146.25
96,288,36587,1,0
96,288,36745,1,0
96,224,36903,5,2
96,160,37061,5,2
96,96,37219,6,2,B|240:96,3,130
288,96,38324,5,2
352,96,38482,5,2
480,96,38797,1,0
480,160,38955,1,0
480,224,39113,5,2
416,224,39271,1,0
352,224,39429,5,2
288,224,39587,2,0,B|224:101|144:224,1,195
144,288,40218,1,0
208,288,40376,5,0
208,288,40534,5,0
208,288,40692,5,0
336,288,41007,6,0,B|480:240,1,130
480,192,41639,2,0,B|336:176,1,130
288,176,42270,2,0,B|416:112,1,130
416,64,42902,2,0,B|64:64|39:69|32:112|32:320|41:344|64:352|416:352,1,910
112,336,46059,6,0,C|174:96|254:204|326:102|400:352,1,780
336,336,48584,2,0,L|160:336|160:192|296:192|160:192|161:48|336:48,1,910
464,48,51110,1,0
80,192,61213,5,0
128,144,61370,5,0
176,192,61528,5,0
224,240,61686,5,0
288,240,61844,5,0
336,192,62002,5,0
384,144,62160,5,0
432,192,62317,5,0
336,96,62633,1,0
288,144,62791,5,0
240,96,62949,5,0
288,48,63107,5,0
336,96,63265,5,0
288,144,63422,5,0
240,192,63580,1,0
288,240,63738,1,0
240,192,63896,1,0
192,144,64054,1,0
128,144,64212,1,0
64,144,64370,1,0
64,208,64527,1,0
64,336,64843,1,0
192,336,65159,1,0
336,336,65475,1,0
336,336,65553,1,0
336,336,65632,1,0
336,336,65711,1,0
336,336,65790,1,0
336,336,65869,1,0
336,336,65948,1,0
336,336,66027,1,0
336,336,66106,1,0
336,336,66185,1,0
336,336,66264,2,0,B|336:224|267:163|224:224|224:320,1,260
160,304,67053,1,0
96,304,67211,5,0
32,304,67369,5,0
32,240,67527,5,0
32,176,67685,5,0
96,176,67842,5,0
96,240,68000,5,0
160,240,68158,5,0
160,176,68316,5,0
160,112,68474,1,0
224,112,68632,1,0
288,112,68789,1,0
288,240,69105,5,0
288,240,69263,1,0
288,240,69421,1,0
288,240,69579,2,0,B|208:240,1,65
224,240,69894,1,0
224,240,70052,1,0
224,240,70210,2,0,B|224:160,1,65
224,176,70526,1,0
224,176,70684,1,0
224,176,70842,1,0
224,176,70999,1,0
224,176,71157,1,0
224,176,71315,2,0,B|368:176,1,130
352,112,71789,1,0
352,48,71947,1,0
352,48,72104,1,0
288,48,72262,1,0
176,48,72578,6,0,B|0:192|257:479|511:192|336:48,1,650
208,48,74481,2,0,B|80:144,1,146.25
96,256,75108,2,0,B|224:320,1,130
336,320,75734,2,0,B|448:240,1,130
448,128,76361,2,0,B|320:48,1,130
208,48,76987,2,0,B|96:128,1,130
96,256,77614,2,0,B|224:320,1,130
352,320,78241,2,0,B|352:176,1,130
352,64,78867,2,0,B|192:64,1,130
96,64,79494,2,0,B|96:208,1,130
96,320,80120,2,0,B|256:320,1,130
352,320,80747,2,0,B|496:320,1,130
480,192,81374,2,0,B|336:192,1,130
224,192,82000,2,0,B|64:192,1,130
96,64,82627,2,0,B|240:64,1,130
352,64,83253,2,0,B|496:64,1,130
464,192,83880,5,0
400,192,84037,1,0
336,192,84193,1,0
336,192,84350,1,0
336,192,84507,1,0
272,192,84663,1,0
208,192,84820,1,0
208,192,84977,1,0
208,192,85133,1,4
80,192,85447,5,2
176,96,85760,5,2
256,192,86073,5,2
176,288,86386,5,2
304,288,86700,1,0
432,288,87013,1,0
432,288,87170,1,0
432,288,87326,1,0
384,192,87640,1,0
256,192,87875,5,2
336,96,88110,5,2
416,192,88424,5,2
336,288,88659,5,2
208,288,89128,1,0
160,192,89441,1,0
160,192,89598,1,0
160,192,89754,1,0
256,96,90068,1,0
256,288,90773,1,0
400,160,91478,1,0
256,48,92887,5,0
192,160,93201,1,0
320,160,93514,1,0
256,272,93751,1,0
256,64,95210,5,0
192,128,95502,1,0
256,192,95794,1,0
192,256,96086,1,4
336,256,97047,5,2
336,128,97368,5,2
144,128,98009,1,2
144,288,98489,1,4
144,288,98569,1,4
144,288,98650,1,4
160,192,100252,6,2,B|260:154|352:192,1,195
192,128,102816,5,2
320,128,103137,5,2
320,256,103458,5,2
192,256,103778,5,2
256,192,104739,2,0,B|256:112,1,65
256,32,105701,2,0,B|256:144,1,97.5
256,128,106262,1,0
256,128,106342,1,0
192,240,107944,2,0,B|336:240,4,130
192,112,110829,2,0,B|336:112,1,130
