osu file format v5

[General]
AudioFilename: 08 Party Party Party.mp3
AudioLeadIn: 0
PreviewTime: -1
Countdown: 1
SampleSet: Soft
StackLeniency: 0.7
Mode: 0
LetterboxInBreaks: 1
EditorBookmarks: 10758,30890,51101
EditorDistanceSpacing: 0.800000011920929

[Metadata]
Title:Party Party Party
Artist:Andrew W.K.
Creator:lukewarmholiday
Version:Normal
Source:
Tags:

[Difficulty]
HPDrainRate:4
CircleSize:4
OverallDifficulty:5
SliderMultiplier:1.3
SliderTickRate:2

[Events]
//Background and Video events
//Break Periods
2,31089,34080
2,51379,60606
//Storyboard Layer 0 (Background)
//Storyboard Layer 1 (Failing)
//Storyboard Layer 2 (Passing)
//Storyboard Layer 3 (Foreground)
//Storyboard Sound Samples
//Background Colour Transformations
3,100,163,162,255

[TimingPoints]
3110,634.920634920635,4,2,0,100,1,0
10700,631.412786108919,4,1,0,100,1,0
73855,626.46828504307,4,1,0,100,1,0
93751,583.941605839416,4,2,0,100,1,0
96086,641.025641025641,4,2,0,100,1,0

[HitObjects]
224,192,10700,2,0,B|320:192,2,65
224,64,11962,1,0
288,64,12278,1,0
288,128,12594,1,0
288,256,13225,6,0,B|448:256,1,130
416,128,14488,2,0,B|272:128,1,130
224,128,15435,1,0
160,128,15751,2,0,B|160:208,2,65
288,128,17014,6,0,B|288:288,1,130
160,256,18276,6,0,B|160:112,1,130
288,128,19539,6,0,B|432:128,1,130
416,256,20802,2,0,B|320:256,2,65
416,128,22065,1,0
352,128,22381,1,0
288,128,22696,1,0
160,128,23328,5,0
160,192,23643,1,0
224,192,23959,1,0
336,192,24433,2,0,B|336:288,3,65
336,256,25538,2,0,B|240:256,1,65
208,256,26169,1,0
208,192,26485,1,0
336,192,27116,2,0,B|336:336,1,130
464,320,28379,2,0,B|464:240,2,65
400,320,29326,1,0
336,320,29642,1,0
272,320,29958,6,0,B|56:320,1,195
256,192,34693,6,0,B|256:112,4,65
320,192,36272,1,0
384,192,36587,1,0
384,320,37219,5,0
320,320,37535,1,0
256,320,37850,1,0
128,320,38482,2,0,B|128:160,1,130
128,80,39587,2,0,B|328:80,1,195
416,80,41007,6,0,B|416:224,1,130
288,208,42270,2,0,B|288:64,1,130
288,80,43217,2,0,B|112:80|47:128|48:320,1,390
240,320,46059,6,0,L|257:191|298:244|338:192|368:320,1,390
240,320,48584,2,0,L|144:320|144:241|212:241|144:241|145:160|240:160,1,455
256,160,51110,1,0
96,192,61213,6,0,L|144:112|206:202|289:129|320:224,1,390
448,208,63738,5,0
448,272,64054,1,0
384,272,64370,1,0
304,272,64843,1,0
240,272,65159,1,0
176,272,65475,1,0
256,48,67842,5,0
256,112,68158,1,0
192,112,68474,1,0
192,176,68789,1,0
256,176,69105,5,0
320,176,69421,1,0
320,240,69737,1,0
256,240,70052,1,0
256,304,70368,1,0
320,304,70684,1,0
384,304,70999,1,0
384,240,71315,5,0
320,240,71631,1,0
256,240,71947,1,0
192,240,72262,1,0
128,240,72578,2,0,L|129:196|304:198|304:240,1,260
432,240,74481,5,0
432,112,75107,1,0
304,112,75734,1,0
256,240,76360,1,0
128,240,76987,1,0
128,112,77613,1,0
256,112,78240,1,0
384,112,78866,1,0
384,240,79493,1,0
256,240,80119,1,0
128,240,80746,2,0,L|128:96,1,130
224,112,81999,5,0
288,112,82312,1,0
352,112,82625,1,0
352,240,83252,2,0,L|208:240,1,130
144,80,85444,5,0
208,80,85757,1,0
208,144,86071,1,0
208,208,86384,1,0
448,64,87793,5,0
384,64,88107,1,0
384,128,88420,1,0
320,128,88733,1,0
112,128,89673,5,0
176,128,89986,1,0
176,256,90613,1,0
304,256,91239,1,0
480,256,92805,6,0,L|480:160,3,65
224,152,95210,1,0
272,152,95502,1,0
272,200,95794,1,0
272,248,96086,1,0
