osu file format v5

[General]
AudioFilename: Party....mp3
AudioLeadIn: 0
AudioHash: c8a4865d8fb0b820251d4895499619b7
PreviewTime: -1
Countdown: 1
SampleSet: Normal

[Metadata]
Title:Party Party Party
Artist:Andrew W.K.
Creator:Mifune24
Version:Easy

[Difficulty]
HPDrainRate:2
CircleSize:3
OverallDifficulty:4
SliderMultiplier:1.4
SliderTickRate:1

[Events]
//Background and Video events
1,0,"3408dd736e90c1b527734d936fdda09b.avi"
//Break Periods
2,51329,60172
//Storyboard Layer 0 (Background)
//Storyboard Layer 1 (Failing)
//Storyboard Layer 2 (Passing)
//Storyboard Layer 3 (Foreground)
//Storyboard Sound Samples
//Background Colour Transformations
3,100,163,162,255

[TimingPoints]
10755,315.424245610346,4,1,0,100

[HitObjects]
192,192,10755,1,0
256,128,11385,1,0
320,192,12016,1,0
256,256,12647,1,0
128,320,13120,6,0,B|128:320|256:384|416:288|448:160|416:96,1,420
352,64,14382,2,0,B|352:64|224:64|96:128|32:192|32:288,1,420
256,288,15801,5,2
256,192,16432,1,2
256,96,17063,1,2
160,96,17694,1,2
160,96,17852,1,2
160,192,18325,6,2,B|160:192|256:256|448:192,3,280
416,320,20848,5,0
320,320,21479,1,0
224,320,22110,2,0,B|224:320|64:320,3,140
128,160,24475,6,0,B|128:160|224:128|352:160,1,210
416,160,25264,1,0
320,256,25895,2,0,B|320:256|224:256,5,70
96,320,27157,5,2
96,192,27787,1,2
96,192,27945,1,2
256,96,29522,6,0,B|256:96|320:160|320:288|256:320|128:352,1,350
128,224,30626,6,0,B|128:224|128:96|288:32|448:96|448:256|320:352,1,560
32,192,32834,5,0
256,192,33465,1,0
480,192,34096,1,0
256,96,34727,1,0
256,96,35042,1,0
256,96,35358,1,0
416,96,35988,6,0,B|416:96|320:224,2,140
96,96,37250,6,0,B|96:96|192:224,2,140
128,288,38512,6,0,B|128:288|256:352|480:288,1,350
480,192,39616,2,0,B|480:192|320:128|160:128|64:224,1,420
32,128,40956,5,0
128,64,41666,1,0
224,128,42297,1,0
224,128,42770,2,0,B|224:128|320:128|384:160,1,140
256,192,43559,12,0,45451
64,64,46082,6,0,B|64:64|96:128|192:256|352:320|480:160|512:96,1,560
448,320,48605,6,2,B|448:320|416:160|224:64|64:128|32:256,1,560
256,192,51129,5,4
64,128,61222,6,0,B|64:128|160:192|224:0|448:160|288:320|160:352,1,490
128,256,62642,6,0,B|128:256|256:224|160:32|416:0|416:192,1,420
384,256,63903,6,0,B|384:256|256:352|288:96|96:32|32:320,1,490
256,192,65638,12,0,68162
128,128,68793,5,2
256,128,69739,1,2
320,128,70054,1,2
320,320,71001,5,2
256,320,71316,1,2
96,224,72262,1,2
96,160,72578,1,2
194,195,73839,6,0,B|194:195|258:129|327:210,5,140
316,275,75732,2,0,B|316:275|255:348|172:243,5,140
193,192,77624,1,2
193,192,77940,1,2
193,192,78255,1,2
278,192,78571,2,2,B|278:192|355:131|245:54,4,140
256,192,80463,12,4,85195
