osu file format v12

[General]
AudioFilename: Spooky scary skeletons.mp3
AudioLeadIn: 0
PreviewTime: -1
Countdown: 0
SampleSet: Normal
StackLeniency: 0.7
Mode: 2
LetterboxInBreaks: 1
WidescreenStoryboard: 1

[Editor]
DistanceSpacing: 0.9
BeatDivisor: 4
GridSize: 32
TimelineZoom: 1

[Metadata]
Title:Spooky Scary Skeletons
TitleUnicode:Spooky Scary Skeletons
Artist:Andrew Gold
ArtistUnicode:Andrew Gold
Creator:CABERMAN
Version:Normal(CtB)
Source:team fortress 2 youtube
Tags:OOOH SCARY SKELETONS!!!!!
BeatmapID:433888
BeatmapSetID:180602

[Difficulty]
HPDrainRate:5
CircleSize:3
OverallDifficulty:6
ApproachRate:5
SliderMultiplier:1.5
SliderTickRate:1

[Events]
//Background and Video events
//Break Periods
2,37576,42738
2,62702,74020
//Storyboard Layer 0 (Background)
//Storyboard Layer 1 (Fail)
//Storyboard Layer 2 (Pass)
//Storyboard Layer 3 (Foreground)
//Storyboard Sound Samples
//Background Colour Transformations
3,100,163,162,255

[TimingPoints]
12625,750.030769230771,4,1,0,100,1,0
25192,-83.3333333333333,4,1,0,100,0,1
37472,-100,4,1,0,100,0,0
49806,-90.9090909090909,4,1,0,100,0,1
62654,-100,4,1,0,100,0,0
75033,750.1,4,1,0,100,1,0
87522,-90.9090909090909,4,1,0,100,0,1
113135,-90.9090909090909,4,1,0,100,0,0

[HitObjects]
83,42,12812,5,0,0:0:0:0:
250,187,13187,1,0,0:0:0:0:
83,330,13562,5,0,0:0:0:0:
251,187,13937,1,0,0:0:0:0:
485,345,14312,5,0,0:0:0:0:
475,231,14687,2,0,P|481:172|471:141,1,75
440,49,15625,5,0,0:0:0:0:
314,108,16000,2,0,P|292:134|248:174,1,75
106,115,16750,6,0,P|101:173|125:215,2,75
195,51,17875,5,0,0:0:0:0:
313,184,18250,1,0,0:0:0:0:
207,313,18625,1,0,0:0:0:0:
479,339,19000,5,0,0:0:0:0:
253,185,19375,1,0,0:0:0:0:
58,342,19750,5,0,0:0:0:0:
253,185,20125,1,0,0:0:0:0:
468,40,20500,5,0,0:0:0:0:
253,185,20875,1,0,0:0:0:0:
44,35,21250,5,0,0:0:0:0:
428,44,22187,5,0,0:0:0:0:
426,147,22562,2,0,P|385:219|370:226,1,75
221,215,23312,5,0,0:0:0:0:
75,215,23687,1,0,0:0:0:0:
221,35,24250,5,2,0:0:0:0:
313,198,24625,1,0,0:0:0:0:
82,53,25188,6,0,P|67:135|74:142,1,75
424,47,25938,6,0,P|443:105|428:137,1,89.9999972534181
245,204,26875,6,0,L|245:89,2,89.9999972534181
48,331,28375,5,0,0:0:0:0:
255,187,28750,1,2,0:0:0:0:
472,337,29125,5,0,0:0:0:0:
255,187,29500,1,0,0:0:0:0:
256,192,29875,12,0,31000,0:0:0:0:
70,78,31563,5,0,0:0:0:0:
57,241,31938,1,0,0:0:0:0:
235,184,32313,2,0,L|308:189,1,44.999998626709
450,46,33063,5,0,0:0:0:0:
346,58,33438,2,0,P|296:68|296:73,1,44.999998626709
174,61,34188,5,0,0:0:0:0:
70,135,34375,2,0,L|46:209,1,44.999998626709
146,322,34938,5,0,0:0:0:0:
290,218,35313,1,0,0:0:0:0:
405,323,35688,1,0,0:0:0:0:
256,192,36250,12,0,37376,0:0:0:0:
51,56,43938,5,0,0:0:0:0:
51,199,44313,1,0,0:0:0:0:
151,333,44688,1,2,0:0:0:0:
321,329,45063,1,2,0:0:0:0:
432,310,45438,6,2,P|444:162|431:127,1,187.5
240,58,46938,5,0,0:0:0:0:
156,54,47126,1,0,0:0:0:0:
59,75,47501,6,0,P|32:230|34:298,1,225
121,331,49001,5,2,0:0:0:0:
262,335,49376,5,0,0:0:0:0:
428,54,49939,5,0,0:0:0:0:
254,183,50314,5,0,0:0:0:0:
54,56,50689,5,2,0:0:0:0:
474,337,51064,5,0,0:0:0:0:
254,183,51439,5,0,0:0:0:0:
51,344,51814,5,0,0:0:0:0:
65,173,52189,2,0,P|97:125|114:119,1,41.2500012588501
219,49,52939,5,0,0:0:0:0:
328,110,53314,2,0,P|379:162|370:169,1,82.5000025177003
378,262,54064,5,0,0:0:0:0:
246,329,54439,1,0,0:0:0:0:
256,192,54814,12,0,55939,0:0:0:0:
64,75,56314,5,2,0:0:0:0:
66,259,56689,1,0,0:0:0:0:
260,336,57251,1,0,0:0:0:0:
430,189,57626,5,0,0:0:0:0:
319,60,58001,1,0,0:0:0:0:
206,177,58376,2,0,P|194:233|203:252,1,41.2500012588501
467,345,59126,5,0,0:0:0:0:
244,182,59501,1,2,0:0:0:0:
61,342,59876,5,2,0:0:0:0:
460,34,60251,5,2,0:0:0:0:
244,182,60626,1,2,0:0:0:0:
256,192,61189,12,0,62502,0:0:0:0:
84,67,75220,6,0,P|74:147|77:169,1,75
116,276,75970,5,0,0:0:0:0:
277,309,76345,1,0,0:0:0:0:
431,180,76720,5,2,0:0:0:0:
392,100,77095,2,2,P|363:63|349:57,1,37.5
249,60,77845,5,0,0:0:0:0:
86,65,78220,1,2,0:0:0:0:
55,198,78595,5,2,0:0:0:0:
143,305,78971,1,0,0:0:0:0:
384,298,79346,2,0,P|407:266|399:242,1,37.5
158,200,80096,5,0,0:0:0:0:
301,331,80471,1,0,0:0:0:0:
447,177,80846,1,0,0:0:0:0:
140,42,81221,6,0,L|82:68,1,37.5
42,181,81783,1,0,0:0:0:0:
126,326,82158,1,0,0:0:0:0:
305,321,82534,5,2,0:0:0:0:
434,187,83096,1,0,0:0:0:0:
385,107,83284,2,0,L|319:87,1,37.5
123,58,84034,6,0,L|80:90,1,37.5
50,238,84409,1,0,0:0:0:0:
186,327,84784,1,2,0:0:0:0:
256,192,85159,12,0,87222,0:0:0:0:
35,49,87597,5,0,0:0:0:0:
250,200,87972,1,0,0:0:0:0:
475,36,88347,5,0,0:0:0:0:
250,200,88722,1,0,0:0:0:0:
61,342,89097,5,0,0:0:0:0:
250,200,89472,1,0,0:0:0:0:
486,340,89847,5,0,0:0:0:0:
451,168,90222,5,0,0:0:0:0:
277,64,90597,2,0,P|215:41|193:53,1,82.5000025177003
156,77,91535,6,0,P|161:140|177:170,1,82.5000025177003
397,291,92285,1,0,0:0:0:0:
249,331,92660,5,0,0:0:0:0:
68,204,93035,1,0,0:0:0:0:
122,60,93410,5,0,0:0:0:0:
308,66,93785,5,0,0:0:0:0:
392,149,94160,2,2,P|388:271|345:325,1,165.000005035401
185,327,95285,5,0,0:0:0:0:
56,222,95660,1,0,0:0:0:0:
89,40,96035,1,0,0:0:0:0:
454,51,96410,5,0,0:0:0:0:
252,184,96785,1,2,0:0:0:0:
89,40,97160,1,0,0:0:0:0:
252,184,97536,1,0,0:0:0:0:
261,110,97911,6,2,P|185:131|179:180,1,123.75000377655
205,300,98848,1,0,0:0:0:0:
390,298,99223,1,0,0:0:0:0:
399,67,100161,5,0,0:0:0:0:
250,69,100536,2,0,L|136:70,1,82.5000025177003
33,210,101286,5,0,0:0:0:0:
176,219,101661,2,0,L|287:218,1,82.5000025177003
419,216,102411,1,0,0:0:0:0:
300,334,102786,5,2,0:0:0:0:
174,333,103161,2,0,L|111:268,4,82.5000025177003
312,334,105037,1,0,0:0:0:0:
419,222,105412,5,0,0:0:0:0:
410,66,105787,1,0,0:0:0:0:
92,84,106349,6,0,P|77:158|92:169,1,82.5000025177003
148,137,107099,2,2,P|153:194|122:224,1,82.5000025177003
72,320,107849,5,0,0:0:0:0:
175,328,108224,2,0,P|187:285|214:273,1,41.2500012588501
393,102,109162,6,0,L|147:102,1,206.250006294251
43,225,110850,6,0,L|279:226,1,206.250006294251
256,192,112538,12,0,115914,0:0:0:0:
