osu file format v12

[General]
AudioFilename: Spooky scary skeletons.mp3
AudioLeadIn: 0
PreviewTime: -1
Countdown: 0
SampleSet: Normal
StackLeniency: 0.7
Mode: 0
LetterboxInBreaks: 1
WidescreenStoryboard: 0

[Editor]
DistanceSpacing: 0.9
BeatDivisor: 4
GridSize: 32
TimelineZoom: 1

[Metadata]
Title:Spooky Scary Skeletons
TitleUnicode:Spooky Scary Skeletons
Artist:Andrew Gold
ArtistUnicode:Andrew Gold
Creator:CABERMAN
Version:Hard(osu!)
Source:team fortress 2 youtube
Tags:OOOH SCARY SKELETONS!!!!!
BeatmapID:433887
BeatmapSetID:180602

[Difficulty]
HPDrainRate:6
CircleSize:4
OverallDifficulty:7
ApproachRate:7
SliderMultiplier:1.7
SliderTickRate:1

[Events]
//Background and Video events
//Break Periods
2,7475,11927
2,63411,74133
//Storyboard Layer 0 (Background)
//Storyboard Layer 1 (Fail)
//Storyboard Layer 2 (Pass)
//Storyboard Layer 3 (Foreground)
//Storyboard Sound Samples
//Background Colour Transformations
3,100,163,162,255

[TimingPoints]
360,389.61038961039,4,1,0,100,1,0
25054,-83.3333333333333,4,1,0,100,0,1
37472,-100,4,1,0,100,0,0
49806,-90.9090909090909,4,1,0,100,0,1
62654,-100,4,1,0,100,0,0
75033,375,4,1,0,100,1,0
80946,-66.6666666666667,4,1,0,100,0,0
82087,-100,4,1,0,100,0,0
87522,-90.9090909090909,4,1,0,100,0,1
98177,-50,4,1,0,100,0,1
99342,-100,4,1,0,100,0,1
113135,-90.9090909090909,4,1,0,100,0,0

[HitObjects]
309,176,360,6,0,B|273:123|256:101|255:101|255:101|255:102|255:102|170:130,1,170
129,147,1139,1,0,0:0:0:0:
129,147,1236,1,0,0:0:0:0:
129,147,1334,1,0,0:0:0:0:
129,147,1431,1,0,0:0:0:0:
68,185,1918,6,0,B|56:234|56:234|55:237|55:235|55:235|56:235|89:286,1,85
105,291,2210,1,0,0:0:0:0:
104,291,2308,1,0,0:0:0:0:
216,309,2697,6,2,B|276:308|276:308|277:264,2,85
112,189,3476,5,0,0:0:0:0:
112,189,3574,1,0,0:0:0:0:
112,189,3671,1,0,0:0:0:0:
112,189,3769,1,0,0:0:0:0:
204,192,4158,6,0,B|246:188|247:188|247:188|248:231,1,85
248,293,4450,1,0,0:0:0:0:
248,293,4548,1,0,0:0:0:0:
52,77,5035,5,0,0:0:0:0:
207,75,5522,6,0,B|371:75|371:75|400:118,1,212.5
256,192,6301,12,2,7275,0:0:0:0:
56,142,12827,6,0,B|139:60|139:60|177:137,1,170
175,182,13606,2,0,B|188:257|188:257|298:200,1,170
401,329,14368,5,2,0:0:0:0:
337,267,14775,2,0,B|295:208|253:202|194:245|171:202,1,170
212,156,15554,1,0,0:0:0:0:
159,127,15944,2,0,B|105:134|90:162|128:195,1,85
66,212,16723,5,2,0:0:0:0:
118,335,17113,1,0,0:0:0:0:
262,335,17502,1,0,0:0:0:0:
313,206,17837,1,0,0:0:0:0:
383,238,18212,2,0,P|231:280|160:279,1,212.5,2|0,0:0|0:0,0:0:0:0:
84,293,19056,5,0,0:0:0:0:
61,101,19431,1,0,0:0:0:0:
240,190,19806,1,0,0:0:0:0:
270,39,20181,1,0,0:0:0:0:
447,34,20556,5,0,0:0:0:0:
453,106,20911,2,0,B|456:202|456:202|388:211|388:211|387:211|394:317|394:317|390:317,1,255
336,340,22243,5,0,0:0:0:0:
332,170,22618,1,0,0:0:0:0:
164,168,22993,1,0,0:0:0:0:
34,200,23368,2,0,B|34:312|33:328|34:342|31:354|163:348,1,255
281,335,24212,5,0,0:0:0:0:
349,153,24587,1,0,0:0:0:0:
410,145,25197,6,0,B|369:45|368:45|368:45|266:45,1,203.999993774414
183,47,25993,1,0,0:0:0:0:
168,154,26368,1,0,0:0:0:0:
192,292,26837,5,0,0:0:0:0:
192,292,27145,2,0,B|297:292|297:292|296:225,1,152.999995330811
297,164,28509,5,0,0:0:0:0:
246,105,28801,2,0,B|179:49|177:49|178:49|178:49|104:123|94:133,1,203.999993774414
93,196,29580,2,0,B|185:273|185:273|240:207|240:207|255:187|255:187|255:186,1,203.999993774414
288,93,30360,5,0,0:0:0:0:
366,88,30749,2,0,B|446:130|446:130|412:213,1,152.999995330811
396,244,31431,5,2,0:0:0:0:
268,247,31806,1,0,0:0:0:0:
268,247,32210,6,2,B|274:342|274:342|179:351,1,152.999995330811
68,278,33024,5,0,0:0:0:0:
68,171,33379,2,0,B|83:67|83:66|70:46|70:46|185:45,1,203.999993774414
437,43,34149,5,2,0:0:0:0:
460,194,34431,2,2,P|469:271|462:307,1,101.999996887207
386,327,34993,1,0,0:0:0:0:
308,270,35424,2,0,B|298:168|299:168|299:168|185:174,1,203.999993774414
106,175,36106,1,0,0:0:0:0:
27,185,36496,6,0,B|23:73|23:73|134:61,1,203.999993774414
403,184,37806,5,0,0:0:0:0:
319,315,38181,1,0,0:0:0:0:
260,184,38556,2,0,B|232:142|216:173|213:198|200:203|171:193|128:193|109:193|101:191,1,170
54,116,39306,1,0,0:0:0:0:
240,66,39681,6,2,B|263:31|285:69|305:98|328:139,1,127.5
359,197,40392,2,2,B|425:272|425:272|382:355,1,170
315,342,41181,1,2,0:0:0:0:
217,340,41556,1,0,0:0:0:0:
147,339,41950,6,0,B|79:240|79:240|92:230|92:230|134:176,1,170
248,53,42774,5,2,0:0:0:0:
264,205,43149,1,2,0:0:0:0:
442,193,43524,1,2,0:0:0:0:
439,335,43806,5,0,0:0:0:0:
397,338,43993,2,0,B|343:305|321:335|314:357|301:359|272:359|240:351|218:350|52:344,1,340
60,204,45118,5,0,0:0:0:0:
112,135,45457,2,2,B|159:43|159:43|187:87|187:87|249:84,1,212.5
326,89,46139,1,2,0:0:0:0:
413,224,47015,6,0,B|425:282|425:282|392:335,1,85
316,340,47556,1,2,0:0:0:0:
195,339,47931,1,0,0:0:0:0:
120,278,48282,2,0,B|81:189|81:189|144:98,1,170
242,62,49056,5,0,0:0:0:0:
441,53,49431,1,0,0:0:0:0:
455,206,49806,5,0,0:0:0:0:
363,326,50181,1,0,0:0:0:0:
161,188,50556,1,0,0:0:0:0:
90,259,50911,6,0,B|74:125|74:125|143:80,1,187.000005706787
196,65,51681,5,0,0:0:0:0:
368,67,52056,2,0,L|376:166,1,93.5000028533936
394,335,52993,5,0,0:0:0:0:
248,335,53274,2,0,B|190:316|173:267|182:208|210:155,1,187.000005706787
264,130,54118,2,0,P|266:74|205:78,1,93.5000028533936
129,47,54613,2,0,B|58:98|58:98|56:202,1,187.000005706787
56,199,55337,5,0,0:0:0:0:
134,322,55712,1,2,0:0:0:0:
300,318,56087,5,0,0:0:0:0:
300,318,56463,2,0,B|363:268|363:268|360:120,1,187.000005706787
294,177,57212,1,0,0:0:0:0:
157,175,57587,1,0,0:0:0:0:
157,76,57962,6,0,P|74:151|172:262,1,280.500008560181
234,251,58801,2,0,B|319:340|319:340|404:220,1,233.750007133484
384,226,59678,2,0,B|335:82|335:82|265:82,1,187.000005706787
238,74,60457,6,0,B|138:75|138:75|211:180,1,187.000005706787
256,192,61149,12,0,63211,0:0:0:0:
114,120,75033,6,0,B|97:204|97:204|152:300,1,170
200,338,75783,5,0,0:0:0:0:
294,309,76158,2,0,B|384:263|383:263|412:158,1,170
422,76,76908,2,0,P|338:45|168:48,1,255
68,103,77845,5,0,0:0:0:0:
165,200,78220,1,0,0:0:0:0:
234,221,78595,2,0,B|274:270|274:270|295:318|295:318|341:330|341:330|338:283|342:283,1,170
387,318,79345,6,0,P|438:290|430:210,1,127.5
405,146,79908,6,0,B|352:62|352:62|244:71,1,170
183,72,80564,2,0,B|192:167|186:166|186:166|111:115,1,170
146,327,81783,2,0,P|236:277|285:339,1,191.250007295609
403,324,82533,5,0,0:0:0:0:
465,184,82908,1,0,0:0:0:0:
442,64,83283,6,0,L|287:64,1,127.5
121,62,83939,6,0,B|70:139|70:139|72:207,1,127.5
121,220,84501,2,0,B|184:229|183:229|183:229|203:315,1,127.5
210,325,85064,5,0,0:0:0:0:
256,192,85439,12,0,87033,0:0:0:0:
83,86,87501,5,0,0:0:0:0:
85,241,87970,1,0,0:0:0:0:
176,208,88345,2,0,B|246:157|246:157|320:235,1,187.000005706787
434,261,89095,5,0,0:0:0:0:
422,88,89470,1,0,0:0:0:0:
422,88,89658,1,0,0:0:0:0:
325,89,90408,2,0,B|302:146|302:146|266:113|246:87|137:104,1,233.750007133484
66,108,91064,1,0,0:0:0:0:
79,233,91439,6,0,B|156:228|157:228|157:228|185:333,1,187.000005706787
266,335,92001,2,0,B|294:238|294:238|292:238|378:256,1,187.000005706787
343,175,92939,1,0,0:0:0:0:
331,93,93408,2,0,B|233:132|233:131|233:131|140:83,1,187.000005706787
76,68,94251,1,0,0:0:0:0:
74,191,94626,2,0,B|132:233|98:246|72:256|81:284|86:353|142:342,1,187.000005706787
230,341,95376,5,0,0:0:0:0:
308,340,95751,1,0,0:0:0:0:
380,339,96126,1,0,0:0:0:0:
460,227,96595,5,0,0:0:0:0:
362,96,96970,1,0,0:0:0:0:
294,98,97345,1,2,0:0:0:0:
226,102,97720,1,0,0:0:0:0:
157,103,98001,1,0,0:0:0:0:
246,40,98376,6,0,B|219:164|263:224|288:280|278:311|256:356|230:355,1,327.250009986878
162,339,99033,5,0,0:0:0:0:
78,337,99408,1,0,0:0:0:0:
74,67,100064,5,0,0:0:0:0:
176,161,100345,2,0,B|254:206|255:206|349:158,1,170
480,171,101189,1,0,0:0:0:0:
488,336,101564,1,0,0:0:0:0:
313,268,102033,6,0,B|367:180|367:180|281:122,1,170
172,56,102783,5,0,0:0:0:0:
66,135,103158,2,0,P|54:271|74:299,1,170,2|0,0:0|0:0,0:0:0:0:
197,328,103908,5,0,0:0:0:0:
366,336,104283,1,0,0:0:0:0:
467,333,104658,2,0,B|450:212|403:158|412:111,1,212.5
372,105,105501,2,0,B|276:173|276:173|196:126,1,170
65,176,106345,5,0,0:0:0:0:
136,316,106720,1,0,0:0:0:0:
263,318,107095,2,0,B|295:261|316:238|306:298|329:345|394:336|428:301|427:316,1,170
445,239,107845,5,0,0:0:0:0:
438,90,108220,1,0,0:0:0:0:
438,90,108408,1,0,0:0:0:0:
250,76,108970,5,0,0:0:0:0:
68,85,109533,5,0,0:0:0:0:
72,260,110095,5,0,0:0:0:0:
261,269,110845,5,0,0:0:0:0:
442,153,111689,5,0,0:0:0:0:
256,192,112533,12,0,114314,0:0:0:0:
