osu file format v12

[General]
AudioFilename: - 33 Mhz ( PC ).mp3
AudioLeadIn: 0
PreviewTime: 0
Countdown: 1
SampleSet: Normal
StackLeniency: 0.7
Mode: 0
LetterboxInBreaks: 1
WidescreenStoryboard: 0

[Editor]
DistanceSpacing: 1
BeatDivisor: 4
GridSize: 8

[Metadata]
Title:33 Mhz (Songs PC oldfaga)
TitleUnicode:33 Mhz (Песня PC олдфага)
Artist:Andrej Nifedov
ArtistUnicode:Андрей Нифёдов
Creator:progin
Version:Normal
Source:Andrej Nifedov
Tags:Andrej Nifedov 33 Mhz Андрей Нифёдов Песня PC олдфага рус rus Songs PC oldfaga
BeatmapID:320920
BeatmapSetID:126266

[Difficulty]
HPDrainRate:4
CircleSize:5
OverallDifficulty:4
ApproachRate:6
SliderMultiplier:1.5
SliderTickRate:1

[Events]
//Background and Video events
Video,0,"Нифёдов - 33 Mhz (Песня PC олдфага).flv"
0,0,"image.jpg",0,0
//Break Periods
//Storyboard Layer 0 (Background)
//Storyboard Layer 1 (Fail)
//Storyboard Layer 2 (Pass)
//Storyboard Layer 3 (Foreground)
//Storyboard Sound Samples
//Background Colour Transformations
3,100,255,255,255

[TimingPoints]
2518.24875082826,500,4,1,0,100,1,0

[Colours]
Combo1 : 255,192,0
Combo2 : 0,202,0
Combo3 : 97,0,121
Combo4 : 242,24,57

[HitObjects]
128,208,17518,1,0,0:0:0:0:
352,192,18518,1,0,0:0:0:0:
16,208,19518,1,0,0:0:0:0:
256,112,20518,1,0,0:0:0:0:
96,144,21518,1,0,0:0:0:0:
400,80,22518,1,0,0:0:0:0:
368,160,23518,1,0,0:0:0:0:
144,272,24518,5,4,0:0:0:0:
48,112,25518,2,4,B|128:32|176:32|208:48|208:48,2,150
352,96,27518,1,0,0:0:0:0:
192,304,28518,2,4,P|336:288|400:240,3,225
224,96,31518,5,10,0:0:0:0:
368,80,32018,1,10,0:0:0:0:
400,160,32518,1,10,0:0:0:0:
320,288,33018,1,10,0:0:0:0:
176,304,33518,1,4,0:0:0:0:
80,128,35018,6,0,B|273:24|460:140|392:273,2,450
98,144,39018,5,0,0:0:0:0:
97,227,39518,1,0,0:0:0:0:
203,303,40018,1,0,0:0:0:0:
338,291,40518,1,0,0:0:0:0:
286,230,40768,1,0,0:0:0:0:
361,237,41018,1,0,0:0:0:0:
323,158,41268,1,0,0:0:0:0:
382,148,41518,1,4,0:0:0:0:
90,249,42518,6,4,B|340:306|408:246|408:246,4,300
104,118,47018,5,0,0:0:0:0:
323,110,47518,1,0,0:0:0:0:
368,242,48018,1,0,0:0:0:0:
252,271,48518,1,0,0:0:0:0:
167,153,49518,5,12,0:0:0:0:
112,272,50518,1,0,0:0:0:0:
224,256,51018,1,0,0:0:0:0:
336,160,51518,1,0,0:0:0:0:
464,80,52018,1,0,0:0:0:0:
48,96,53018,5,4,0:0:0:0:
352,112,54018,1,8,0:0:0:0:
304,96,55018,1,0,0:0:0:0:
224,144,55518,1,0,0:0:0:0:
144,224,55768,1,0,0:0:0:0:
208,272,56018,1,0,0:0:0:0:
288,288,56268,1,0,0:0:0:0:
352,256,56518,1,4,0:0:0:0:
96,64,57518,5,8,0:0:0:0:
352,176,58518,5,0,0:0:0:0:
112,256,59518,6,0,L|416:256,1,300
400,112,61018,6,0,L|96:112,1,300
256,192,62518,12,2,64518,0:0:0:0:
64,80,65518,1,2,0:0:0:0:
176,64,65768,1,0,0:0:0:0:
288,48,66018,1,6,0:0:0:0:
400,144,66518,5,0,0:0:0:0:
288,192,67018,5,2,0:0:0:0:
208,192,67268,1,0,0:0:0:0:
128,176,67518,1,6,0:0:0:0:
80,192,68018,5,2,0:0:0:0:
128,256,68268,1,0,0:0:0:0:
192,288,68518,1,6,0:0:0:0:
0,288,69518,6,4,P|256:336|384:208,2,450,0|2|2,0:0|0:0|0:0,0:0:0:0:
160,368,73018,5,0,0:0:0:0:
352,240,73518,1,0,0:0:0:0:
352,96,74018,1,0,0:0:0:0:
208,48,74518,1,0,0:0:0:0:
32,144,75518,5,0,0:0:0:0:
256,336,76518,1,4,0:0:0:0:
0,128,77518,6,0,P|144:64|256:80,2,300,8|0|8,0:0|0:0|0:0,0:0:0:0:
0,224,81018,5,0,0:0:0:0:
64,208,81268,1,0,0:0:0:0:
128,272,81518,1,0,0:0:0:0:
192,240,81768,1,0,0:0:0:0:
272,288,82018,1,4,0:0:0:0:
16,80,83018,5,0,0:0:0:0:
48,80,83268,1,0,0:0:0:0:
176,112,83518,1,6,0:0:0:0:
80,224,84018,5,0,0:0:0:0:
128,224,84268,1,0,0:0:0:0:
272,256,84518,1,6,0:0:0:0:
176,96,85018,5,0,0:0:0:0:
208,96,85268,1,0,0:0:0:0:
368,144,85518,1,6,0:0:0:0:
0,112,86518,5,8,0:0:0:0:
176,112,87018,1,8,0:0:0:0:
320,112,87518,1,12,0:0:0:0:
48,256,88518,1,0,0:0:0:0:
16,96,89518,5,0,0:0:0:0:
112,96,89768,1,0,0:0:0:0:
192,96,90018,1,4,0:0:0:0:
64,208,90518,5,0,0:0:0:0:
208,224,91018,1,0,0:0:0:0:
352,240,91518,1,0,0:0:0:0:
240,336,92018,5,0,0:0:0:0:
96,320,92518,1,0,0:0:0:0:
0,256,93018,1,0,0:0:0:0:
256,192,93518,12,4,97518,0:0:0:0:
