osu file format v9

[General]
AudioFilename: 20 Twin Dragons.mp3
AudioLeadIn: 1000
PreviewTime: 31103
Countdown: 0
SampleSet: Normal
StackLeniency: 0.7
Mode: 0
LetterboxInBreaks: 1

[Editor]
Bookmarks: 18367,20186,25645,27464,52896,60168,105674
DistanceSpacing: 0.9
BeatDivisor: 4
GridSize: 8

[Metadata]
Title:Twin Dragons
Artist:Anamanaguchi
Creator:Roddie
Version:Supreme Master
Source:Scott Pilgrim vs The World
Tags:animask rukarioman

[Difficulty]
HPDrainRate:7
CircleSize:4
OverallDifficulty:8
ApproachRate:8
SliderMultiplier:2.1
SliderTickRate:2

[Events]
//Background and Video events
0,0,"world5_3.png"
//Break Periods
2,45860,52188
//Storyboard Layer 0 (Background)
//Storyboard Layer 1 (Fail)
//Storyboard Layer 2 (Pass)
//Storyboard Layer 3 (Foreground)
Sprite,Foreground,Centre,"Roddie SB.png",320,240 M,2,45887,47480,365,238,318,244 F,2,45887,47480,0,1 M,1,47480,49299,318,244 F,0,47480,49299,1 M,1,49299,51119,318,244,314,88 F,0,49299,51119,1,0
//Storyboard Sound Samples
//Background Colour Transformations
3,100,163,162,255

[TimingPoints]
1991,454.89006823351,4,1,0,60,1,0
45660,-100,4,1,0,60,0,0
45737,-100,4,2,0,80,0,0
61922,-100,4,1,0,80,0,0
103772,-100,4,1,0,60,0,0

[Colours]
Combo1 : 255,255,255
Combo2 : 0,255,102
Combo3 : 0,128,192
Combo4 : 255,255,0

[HitObjects]
104,88,1990,1,4
128,184,2218,1,0
128,184,2332,1,0
128,184,2445,1,8
200,128,2673,1,0
272,184,2900,1,0
344,128,3128,1,0
416,184,3355,1,8
480,360,3810,1,0
400,312,4038,5,0
400,312,4151,1,0
400,312,4265,1,8
312,192,4492,1,0
312,192,4606,1,0
312,192,4720,1,8
224,312,4947,1,0
224,312,5061,1,0
224,312,5175,1,8
96,192,5402,1,0
128,160,5516,1,0
160,128,5630,6,0,B|224:72|272:64|368:80,1,210,0|8
432,136,6312,1,0
420,184,6426,1,0
408,232,6539,1,8
120,168,6994,1,0
400,144,7449,1,0
328,72,7677,5,0
280,56,7790,1,0
232,72,7904,1,8
280,152,8132,1,0
280,200,8245,1,0
280,248,8359,1,8
232,328,8586,1,0
280,344,8700,1,0
328,328,8814,1,8
416,296,9041,1,8
396,252,9155,1,0
376,216,9269,6,0,B|336:112|232:64,1,210,4|8
144,80,9951,1,0
88,160,10179,1,0
152,232,10406,1,0
88,160,10633,1,8
280,160,11088,1,0
144,256,11316,5,0
144,256,11429,1,0
144,256,11543,1,8
144,88,11771,1,0
144,88,11884,1,0
144,88,11998,1,8
280,168,12226,1,0
280,168,12339,1,0
280,168,12453,1,8
400,88,12680,1,8
400,88,12794,1,0
400,88,12908,6,0,B|464:176|448:240|376:288,1,210,0|8
304,312,13590,1,0
264,336,13704,1,0
224,312,13818,1,8
32,192,14273,1,0
256,48,14727,1,0
256,152,14955,5,0
256,200,15069,1,0
256,248,15182,1,8
432,264,15410,1,0
400,296,15523,1,0
360,312,15637,1,8
168,320,15865,1,0
128,304,15978,1,0
96,272,16092,1,8
256,152,16320,1,0
256,200,16433,1,8
256,248,16547,5,2
328,312,16774,1,0
400,248,17002,1,2
400,152,17229,1,0
328,88,17457,1,2
328,88,17684,1,0
240,112,17912,1,0
192,128,18025,1,0
152,160,18139,1,2
64,192,18367,5,0
464,192,18821,1,0
64,192,19276,1,0
464,192,19731,2,2,B|408:176|360:216,1,105,2|2
296,272,20186,5,2
208,312,20414,1,0
120,272,20641,1,2
88,184,20868,1,0
144,104,21096,1,2
232,64,21323,1,2
280,48,21437,1,2
328,64,21551,1,2
256,352,22006,5,0
480,192,22461,1,0
32,192,22915,2,2,C|72:160|120:200,1,105
168,272,23370,2,2,C|208:304|256:264,1,105
296,192,23825,5,2
296,192,24053,1,0
368,128,24280,1,2
368,128,24508,1,0
440,192,24735,1,2
440,192,24962,1,0
376,264,25190,1,2
384,312,25304,1,0
352,352,25417,1,2
256,352,25645,5,0
32,192,26100,1,0
256,32,26555,1,0
480,192,27009,2,2,B|368:192,1,105
280,192,27464,5,2
240,280,27692,1,0
160,232,27919,1,2
80,280,28147,1,0
40,192,28374,1,2
88,112,28602,1,2
88,112,28715,1,2
88,112,28829,1,2
256,192,29284,12,4,31103
136,176,31331,6,2,B|120:240|192:272,1,105
136,176,31786,2,2,B|136:120|192:88,1,105
272,48,32241,1,2
352,104,32468,1,8
376,144,32582,1,0
368,192,32696,1,2
304,264,32923,6,0,B|192:264,1,105,2|2
24,208,33378,2,0,B|144:208,1,105,8|0
304,144,33833,2,2,B|176:144,1,105
104,144,34288,1,8
104,144,34401,1,0
104,144,34515,1,2
176,80,34743,6,0,B|176:208,1,105,2|2
256,336,35197,2,0,B|256:216,1,105,8|0
336,80,35652,2,2,B|336:200,1,105
336,280,36107,1,8
336,280,36221,1,0
336,280,36335,1,2
296,192,36562,6,0,B|208:112,1,105,2|0
152,56,37017,2,0,B|72:56|72:144,1,105,8|0
72,208,37472,1,2
160,240,37699,1,2
152,144,37927,1,8
152,144,38041,1,0
152,144,38154,1,2
232,96,38382,5,2
328,96,38609,1,0
384,176,38837,1,8
288,176,39064,1,0
232,256,39291,1,2
328,256,39519,1,2
232,256,39746,1,8
232,256,39860,1,0
232,256,39974,1,2
136,256,40201,5,2
232,256,40429,1,0
328,256,40656,1,8
232,256,40884,1,0
176,336,41111,1,2
272,336,41338,1,2
352,288,41566,1,8
376,248,41680,1,0
352,208,41793,1,2
312,120,42021,6,0,B|200:120,1,105,2|0
40,192,42476,2,0,B|160:192,1,105,8|0
312,264,42931,2,2,B|184:264,1,105
112,264,43385,1,8
112,264,43499,1,0
112,264,43613,1,2
256,192,43840,12,4,45660
96,56,52938,5,0
136,56,53052,1,0
176,56,53166,1,0
216,56,53279,1,0
256,64,53393,1,0
288,80,53507,1,0
320,104,53621,1,0
344,136,53734,1,0
344,176,53848,6,0,B|296:232,3,52.5,2|0|0|0
272,216,54303,2,0,B|184:216,3,52.5,2|0|0|0
184,208,54758,5,0
144,208,54871,1,0
112,216,54985,1,0
80,232,55099,1,0
56,256,55213,1,0
40,288,55326,1,0
40,328,55440,1,0
56,360,55554,1,0
96,360,55668,6,0,B|136:304,3,52.5,2|0|0|0
160,312,56122,2,0,B|248:312,3,52.5,2|0|0|0
248,312,56577,5,0
288,312,56691,1,0
328,312,56805,1,0
360,304,56918,1,0
392,280,57032,1,0
408,248,57146,1,0
408,208,57260,1,0
408,168,57373,1,0
400,136,57487,6,0,B|344:136,3,52.5,2|0|0|0
312,136,57942,2,0,B|248:136,3,52.5,2|0|0|0
224,136,58397,5,0
184,144,58511,1,0
152,160,58625,1,0
128,184,58739,1,0
112,216,58852,1,0
104,248,58965,1,0
104,288,59079,1,0
120,320,59193,1,0
152,336,59307,2,0,B|224:336,3,52.5,2|0|0|0
240,336,59762,2,0,B|320:336,3,52.5,2|0|0|0
256,192,60216,12,0,61809
256,48,62036,5,4
296,136,62263,1,0
256,160,62377,1,0
216,136,62491,1,8
160,216,62718,1,0
216,288,62946,1,8
312,288,63173,1,0
376,216,63401,1,8
392,24,63856,1,0
440,104,64083,5,0
440,104,64197,1,0
440,104,64310,1,8
272,168,64538,1,0
272,168,64652,1,0
272,168,64765,1,8
440,232,64993,1,0
440,232,65106,1,0
440,232,65220,1,8
272,304,65448,1,0
272,304,65561,1,0
272,304,65675,6,0,B|192:312|144:256|136:176,1,210,0|8
200,104,66357,1,0
244,84,66471,1,0
288,72,66585,1,8
440,192,67040,1,0
296,320,67495,1,0
232,248,67722,5,0
232,248,67836,1,0
232,248,67950,1,8
248,96,68177,1,0
248,96,68291,1,0
248,96,68404,1,8
400,96,68632,1,0
400,96,68746,1,0
400,96,68859,1,8
392,248,69087,1,0
368,288,69201,1,0
328,312,69314,6,0,C|104:312,1,210,4|8
24,312,69997,1,0
80,232,70224,1,8
168,264,70451,1,0
256,232,70679,1,8
448,232,71134,1,0
384,160,71361,5,0
352,128,71475,1,0
320,96,71589,1,8
224,96,71816,1,0
176,96,71930,1,0
128,96,72044,1,8
32,96,72271,1,0
56,136,72385,1,0
80,176,72498,1,8
128,256,72726,1,0
176,256,72840,1,0
224,256,72953,6,0,B|272:320|352:320|408:256,1,210,0|8
416,168,73636,1,0
416,168,73749,1,0
416,168,73863,1,8
256,72,74318,1,0
88,168,74773,1,8
144,240,75000,6,0,C|80:240,2,52.5,0|0|8
336,192,75455,2,0,C|400:192,2,52.5,0|0|8
144,120,75910,2,0,C|80:120,2,52.5,0|0|8
336,72,76365,2,0,C|408:72,2,52.5,0|0|2
248,96,76820,5,0
168,152,77047,1,2
248,200,77275,1,0
328,152,77502,1,2
248,200,77730,1,0
168,256,77957,1,2
144,296,78071,1,0
160,344,78185,1,2
256,360,78412,5,0
256,24,78867,1,0
256,360,79322,1,0
256,24,79777,2,2,B|320:24|344:80,1,105
328,168,80232,5,2
408,224,80459,1,0
352,296,80686,1,2
264,272,80914,1,0
232,184,81141,1,2
328,168,81369,1,0
328,168,81483,1,0
328,168,81596,1,2
144,192,82051,5,0
256,344,82506,1,0
360,192,82961,1,2
280,144,83188,1,0
224,64,83416,1,0
280,144,83643,1,0
360,192,83871,5,2
280,240,84098,1,0
200,192,84326,1,2
280,240,84553,1,0
360,192,84780,1,2
408,272,85008,1,0
440,360,85235,1,0
392,344,85349,1,0
352,360,85463,1,2
256,360,85690,5,0
32,192,86145,1,0
480,192,86600,1,0
256,32,87055,2,2,B|296:88|256:144,1,105
224,216,87510,5,2
144,264,87737,1,0
88,192,87965,1,0
128,104,88192,1,2
216,128,88420,1,0
296,176,88647,1,0
296,176,88761,1,0
296,176,88875,1,2
256,192,89329,12,4,91149
224,40,91376,6,0,C|96:40,1,105,0|8
288,96,91831,2,2,C|400:96,1,105
224,152,92286,2,2,C|96:152,1,105,2|10
119,152,92627,1,0
119,152,92741,1,0
120,248,92969,6,0,C|120:360,1,105
192,200,93423,2,0,C|192:88,1,105,8|0
280,200,93878,2,2,C|400:200,1,105
456,256,94333,1,8
456,256,94447,1,2
456,256,94561,1,2
384,320,94788,5,0
288,320,95016,1,2
192,320,95243,1,8
120,264,95470,1,2
120,168,95698,1,0
120,72,95925,1,2
120,72,96153,1,8
120,72,96266,1,2
120,72,96380,1,2
216,72,96608,6,0,B|336:72,1,105
480,136,97063,2,0,B|360:136,1,105,8|0
216,200,97517,2,2,B|328:200,1,105
400,256,97972,1,8
368,288,98086,1,2
328,312,98200,1,2
240,280,98427,6,0,B|224:336|144:368,1,105
240,280,98882,2,0,B|192:248|192:184,1,105,8|0
240,280,99337,2,2,B|296:256|288:168,1,105
288,96,99792,1,8
288,96,99906,1,2
288,96,100019,1,2
200,64,100247,6,0,B|152:24|104:64,1,105
104,63,100702,2,0,B|64:112|104:160,1,105,8|0
102,158,101157,2,2,B|152:208|200:152,1,105
288,160,101611,1,8
288,160,101725,1,2
288,160,101839,1,2
360,232,102066,5,0
432,296,102294,1,2
360,232,102521,1,8
432,168,102749,1,0
360,232,102976,1,2
288,296,103204,1,2
200,336,103431,1,8
152,320,103545,1,2
120,288,103658,1,2
256,192,103886,12,4,105705
