osu file format v9

[General]
AudioFilename: 20 Twin Dragons.mp3
AudioLeadIn: 1000
PreviewTime: 31103
Countdown: 0
SampleSet: Normal
StackLeniency: 0.7
Mode: 0
LetterboxInBreaks: 1

[Editor]
Bookmarks: 45774
DistanceSpacing: 1
BeatDivisor: 4
GridSize: 8

[Metadata]
Title:Twin Dragons
Artist:Anamanaguchi
Creator:Roddie
Version:Rough and Tough
Source:Scott Pilgrim vs The World
Tags:animask rukarioman

[Difficulty]
HPDrainRate:5
CircleSize:4
OverallDifficulty:5
ApproachRate:6
SliderMultiplier:1.76
SliderTickRate:2

[Events]
//Background and Video events
0,0,"world5_3.png"
//Break Periods
2,45860,51888
//Storyboard Layer 0 (Background)
//Storyboard Layer 1 (Fail)
//Storyboard Layer 2 (Pass)
//Storyboard Layer 3 (Foreground)
Sprite,Foreground,Centre,"Rukarioman SB.png",320,240 M,2,45774,47480,364,238,320,240 F,0,45774,47480,0,1 M,0,47480,49299,320,240 F,0,47480,49299,1 M,1,49299,51119,320,240,320,83 F,0,49299,51119,1,0
//Storyboard Sound Samples
//Background Colour Transformations
3,100,163,162,255

[TimingPoints]
1991,454.89006823351,4,1,0,60,1,0
45660,-100,4,1,0,60,0,0
52938,-100,4,2,0,60,0,0
61467,-100,4,1,0,80,0,0
90239,-100,4,1,0,60,0,0
105705,-100,4,1,0,60,0,0

[Colours]
Combo1 : 255,255,255
Combo2 : 0,255,102
Combo3 : 0,128,192
Combo4 : 255,255,0

[HitObjects]
176,64,1991,2,0,B|256:0|336:64,1,176,4|0
256,104,2673,2,0,B|256:168,2,44,2|0|2
328,160,3128,1,0
256,216,3355,1,2
184,160,3583,1,0
144,80,3810,6,0,B|80:160|144:240,1,176,4|0
184,160,4492,2,0,B|304:160,2,88,8|0|8
224,240,5175,1,0
312,240,5402,1,8
272,320,5630,6,0,B|401:328|390:209,1,176,4|0
312,192,6312,1,2
224,216,6539,2,0,B|216:87|336:104,2,176,4|0|4
40,192,7904,5,0
128,192,8132,2,8,B|128:128,2,44
216,192,8586,2,0,B|216:280,1,88,0|2
304,192,9041,1,0
344,112,9269,6,0,B|408:192|344:272,1,176,4|0
304,192,9951,2,0,B|248:192,2,44,2|0|2
264,272,10406,1,8
184,248,10633,1,8
120,192,10861,1,8
184,136,11088,1,0
120,192,11316,5,0
256,80,11771,1,0
256,256,12226,1,0
416,192,12680,1,8
416,192,12908,6,0,B|416:104|352:24,1,176,4|2
312,104,13590,1,8
264,32,13818,2,0,B|205:107|205:195,1,176,4|2
296,344,14727,1,4
296,168,15182,6,8,B|296:112,2,44,0|0|8
224,216,15637,1,0
296,264,15865,1,2
368,216,16092,1,2
296,168,16320,1,2
256,96,16547,6,0,B|296:64|336:96,5,88
296,176,17912,2,2,B|296:256,2,44
256,192,18367,8,4,19731
40,192,20186,5,8
96,128,20414,1,8
160,192,20641,1,8
224,136,20868,1,8
296,192,21096,1,2
368,248,21323,1,8
368,248,21437,1,8
368,248,21551,6,0,B|432:168|368:88,2,176,8|0|4
288,288,22688,1,2
208,248,22915,2,0,B|176:208|208:168,2,88
288,208,23598,2,0,B|288:288,2,44,0|0|4
272,120,24053,6,0,B|368:120,1,88,0|8
360,208,24508,2,0,B|456:208,1,88,8|8
408,288,24962,1,8
496,272,25190,2,2,B|496:344,2,44
488,96,25872,5,2
312,96,26327,1,2
400,248,26782,1,8
400,160,27009,1,8
320,192,27237,6,0,B|272:192|272:256,1,88,0|8
183,252,27692,2,0,B|183:191|135:191,1,88,0|8
136,104,28147,2,0,B|184:104|184:40,1,88,0|8
273,44,28602,2,0,B|272:104|320:104,2,88,8|0|8
224,120,29284,5,4
224,120,29739,1,4
224,120,30194,2,4,B|184:152|144:120,3,88
184,40,31103,5,8
184,40,31331,1,8
280,184,31786,1,8
280,184,32013,1,8
236,260,32241,1,0
192,336,32468,2,2,B|192:392,2,44
148,260,32923,5,8
104,184,33150,1,8
192,32,33605,1,8
192,32,33833,1,8
192,120,34060,1,0
192,208,34288,2,2,B|192:280,2,44
280,208,34743,5,8
280,208,34970,2,0,B|360:144|440:208,1,176,8|8
360,248,35652,1,8
440,288,35880,2,0,B|360:352|280:288,2,176,0|2|4
360,248,37017,5,0
360,248,37244,2,0,B|424:168|360:88,2,176,0|2|4
320,168,38382,6,0,B|200:168,1,88,0|8
280,240,38837,2,0,B|176:240,1,88,0|8
240,312,39291,2,0,B|120:312,1,88,0|8
64,312,39746,2,8,B|16:312,2,44
64,208,40201,5,2
112,136,40429,1,0
168,72,40656,1,2
256,72,40884,1,0
312,136,41111,1,2
360,208,41339,1,0
272,208,41566,2,0,B|272:272,2,44,2|0|2
192,160,42021,6,0,B|160:200|192:240,3,88,8|0|8|0
256,304,42931,1,8
256,304,43158,1,0
272,208,43385,2,0,B|272:136,2,44,8|0|8
256,192,43840,8,4,45660
256,144,52938,6,0,B|264:96|256:56,1,88,0|2
184,104,53393,2,0,B|176:152|184:192,1,88,0|8
256,240,53848,1,8
328,192,54075,1,8
328,104,54303,1,4
256,240,54758,6,0,B|248:288|256:328,1,88,0|2
328,280,55213,2,0,B|336:232|328:192,1,88,0|8
256,144,55668,1,8
184,192,55895,1,8
184,280,56123,1,4
403,149,56577,5,0
403,237,56805,1,2
401,324,57032,2,0,B|334:327|331:254,1,88,0|8
304,192,57487,1,8
334,106,57715,2,0,B|343:65|401:62,1,88,8|4
109,235,58397,5,0
109,147,58625,1,2
111,60,58852,2,0,B|178:57|181:130,1,88,0|8
208,192,59307,1,8
178,278,59535,2,0,B|169:319|111:322,1,88,8|4
256,192,60216,8,4,61581
176,64,62036,6,0,B|256:0|336:64,1,176,4|0
256,104,62718,1,8
256,112,62832,1,8
256,120,62946,1,8
212,196,63173,1,8
300,196,63401,1,8
256,272,63628,1,2
336,312,63856,2,0,B|256:376|176:312,3,176,4|0|4|0
160,40,65675,6,0,B|88:40|32:72|32:176,1,176,4|2
120,128,66357,1,8
184,192,66585,1,8
120,256,66812,1,8
34,246,67040,2,0,B|45:311|90:345|160:344,2,176,8|4|2
104,192,68177,6,8,B|176:192,2,44
160,120,68632,1,8
216,192,68859,1,8
160,264,69087,1,4
80,304,69314,6,0,B|160:368|240:304,1,176,4|0
272,216,69997,1,2
264,216,70110,1,2
256,216,70224,1,2
192,152,70451,1,2
112,192,70679,1,2
160,264,70906,1,4
240,304,71134,5,8
240,304,71361,2,8,B|160:368|80:304,3,176
80,216,72953,6,0,B|56:200|88:136|120:160|152:136|184:200|160:216,1,176,4|2
248,216,73636,1,0
336,216,73863,2,0,B|312:232|344:296|376:272|408:296|440:232|416:216,3,176,4|2|4|2
376,136,75455,5,0
376,128,75569,1,0
376,120,75683,1,0
456,80,75910,1,2
376,40,76138,1,2
296,80,76365,1,2
296,168,76592,5,0
296,168,76820,1,4
168,168,77047,1,0
168,168,77275,1,4
168,296,77502,1,0
168,296,77730,1,4
296,296,77957,2,0,B|368:296,2,44
240,128,78639,5,2
240,128,79094,1,2
240,128,79549,1,8
232,216,79777,1,8
320,232,80004,5,0
408,232,80232,1,8
368,152,80459,1,0
456,152,80686,1,8
416,72,80914,1,0
328,72,81141,1,8
280,152,81369,2,2,B|232:152,2,44
120,224,82051,6,4,B|56:144|120:64,2,176
208,216,83188,1,8
160,144,83416,1,8
208,72,83643,1,8
256,144,83871,5,0
256,144,84098,2,0,B|304:136|344:144,1,88,2|0
296,216,84553,1,2
296,216,84780,2,0,B|344:224|384:216,1,88,0|2
384,304,85235,1,8
376,304,85349,1,8
368,304,85463,1,8
256,304,85690,6,0,B|176:368|96:304,1,176,4|0
136,208,86372,2,0,B|112:224|144:288|175:270|208:288|240:224|216:208,1,176,4|0
176,136,87055,1,4
176,136,87282,5,0
128,64,87510,2,0,B|176:56|216:64,1,88,8|0
176,136,87965,2,0,B|224:144|264:136,1,88,8|0
216,64,88420,2,0,B|264:56|304:64,1,88,8|0
303,63,88761,1,0
303,63,88875,1,0
256,232,89329,6,0,B|256:296,7,44
256,320,90239,2,0,B|256:360,16,22
168,296,91376,5,4
136,216,91604,1,0
160,136,91831,1,4
212,64,92059,1,0
300,64,92286,1,4
256,136,92514,2,2,B|256:192,2,44
352,136,92969,5,0
376,216,93196,1,8
344,296,93424,1,0
301,372,93651,1,8
213,372,93878,1,0
168,296,94106,1,8
256,296,94333,2,0,B|256:240,2,44
168,296,94788,6,0,B|160:248|168:208,1,88,0|2
96,272,95243,2,0,B|92:223|103:184,1,88,0|2
24,240,95698,2,0,B|25:191|40:153,1,88,0|2
96,88,96153,1,8
96,80,96266,1,8
96,72,96380,1,8
184,88,96608,6,0,B|160:72|192:8|224:32|256:8|288:72|264:88,1,176,4|0
264,176,97290,1,0
264,176,97517,2,0,B|240:192|272:256|304:232|336:256|368:192|344:176,1,176,4|0
344,88,98200,1,2
432,88,98427,5,0
432,176,98655,1,8
432,264,98882,1,0
368,328,99110,1,8
296,280,99337,2,0,B|320:296|288:360|256:336|224:360|192:296|216:280,1,176,4|0
144,328,100019,1,2
144,240,100247,5,0
144,152,100475,1,2
208,88,100702,1,0
280,136,100930,1,2
352,88,101157,2,0,B|328:72|360:8|392:32|424:8|456:72|432:88,1,176,4|0
432,88,101839,1,8
472,192,102066,5,0
376,256,102294,1,8
280,192,102521,1,0
184,128,102749,1,8
72,152,102976,2,0,B|56:128|-8:160|16:192|-8:224|56:256|72:232,1,176,4|8
72,231,103545,1,8
72,231,103658,1,8
256,192,103886,8,4,105705
