osu file format v9

[General]
AudioFilename: 20 Twin Dragons.mp3
AudioLeadIn: 1000
PreviewTime: 31103
Countdown: 0
SampleSet: Normal
StackLeniency: 0.7
Mode: 0
LetterboxInBreaks: 1

[Editor]
Bookmarks: 45774,52896,57170,60168,105674
DistanceSpacing: 0.8
BeatDivisor: 4
GridSize: 16

[Metadata]
Title:Twin Dragons
Artist:Anamanaguchi
Creator:Roddie
Version:Average Joe
Source:Scott Pilgrim vs The World
Tags:animask rukarioman

[Difficulty]
HPDrainRate:3
CircleSize:4
OverallDifficulty:4
ApproachRate:4
SliderMultiplier:1.2
SliderTickRate:2

[Events]
//Background and Video events
0,0,"world5_3.png"
//Break Periods
2,45860,51618
//Storyboard Layer 0 (Background)
//Storyboard Layer 1 (Fail)
//Storyboard Layer 2 (Pass)
//Storyboard Layer 3 (Foreground)
Sprite,Foreground,Centre,"animask SB.png",320,240 M,2,45774,47480,365,240,320,240 F,2,45774,47480,0,1 M,0,47480,49299,320,240 F,0,47480,49299,1 M,1,49299,51119,320,240,320,88 F,1,49299,51119,1,0
//Storyboard Sound Samples
//Background Colour Transformations
3,100,163,162,255

[TimingPoints]
1991,454.89006823351,4,1,0,60,1,0
45660,-100,4,1,0,60,0,0
45737,-100,4,2,0,80,0,0
61922,-100,4,1,0,60,0,0
105478,-100,4,1,0,60,0,0

[Colours]
Combo1 : 255,255,255
Combo2 : 0,255,102
Combo3 : 0,128,192
Combo4 : 255,255,0

[HitObjects]
176,192,1990,1,4
256,128,2445,1,8
336,192,2900,2,0,B|320:224|288:240,1,60,0|8
256,256,3355,2,0,B|272:288|304:304,2,60,0|8|0
256,160,4265,1,8
176,96,4720,1,0
144,192,5175,1,8
224,256,5630,5,0
144,192,6085,1,8
64,256,6539,2,0,B|80:288|112:304,1,60,0|8
144,320,6994,2,0,B|128:352|96:368,2,60,0|8|0
144,224,7904,1,8
224,160,8359,1,0
256,256,8814,1,8
336,192,9269,5,4
336,96,9724,1,8
256,48,10179,2,0,B|112:48,1,120,0|8
80,48,10861,1,8
48,80,11088,1,0
96,160,11543,1,8
48,240,11998,1,0
96,320,12453,1,8
144,240,12908,5,0
144,144,13363,1,8
224,96,13818,2,0,B|368:96,1,120,0|8
384,96,14500,1,8
432,128,14727,1,0
384,208,15182,1,8
432,288,15637,1,0
384,368,16092,1,8
304,320,16547,6,0,B|224:304|240:240|288:256|320:192|288:144|224:128,2,240,0|8|0
384,272,18821,1,0
416,192,19276,1,8
256,320,20186,6,0,B|336:304|320:240|272:256|240:192|272:144|336:128,2,240,0|8|0
176,272,22461,1,0
144,192,22916,1,8
256,96,23825,6,0,B|256:32,4,60,0|0|0|0|8
160,128,25190,1,0
208,208,25645,1,0
304,208,26100,1,0
352,128,26555,1,8
256,288,27464,6,0,B|256:352,4,60,0|0|0|0|8
160,256,28829,1,0
208,176,29284,1,0
304,176,29739,1,0
352,256,30194,1,8
80,320,31331,6,0,B|144:288|128:208,2,120,2|2|2
32,240,32696,1,2
80,160,33150,2,0,B|16:128|32:48,2,120,2|2|2
128,80,34515,1,2
224,80,34970,6,0,B|288:112|272:192,2,120,2|2|2
176,160,36335,1,2
224,240,36790,2,0,B|160:272|176:352,2,120,2|2|2
272,320,38154,1,2
336,256,38609,6,0,B|336:128,3,120,2|2|2|2
256,96,40429,2,0,B|256:216,3,120,2|2|2|2
176,176,42248,6,0,B|176:48,3,120,2|2|2|2
256,96,44068,1,2
336,144,44523,1,2
416,192,44978,1,2
496,240,45433,2,0,B|496:320,1,60,2|4
64,192,52938,6,0,C|128:160|208:192|288:160,1,240,8|4
384,336,54758,2,0,C|320:304|240:336|160:304,1,240,8|4
160,112,56577,2,8,L|240:112|240:192|160:192,1,240,8|4
352,192,58397,2,8,L|272:192|272:112|352:112,2,240,8|8|4
176,128,62036,5,0
256,192,62491,1,8
352,160,62946,2,0,B|352:208|336:224,1,60,0|8
304,256,63401,2,0,B|304:304|320:320,2,60,0|8|0
224,304,64310,1,8
128,272,64765,1,0
96,176,65220,1,8
176,128,65675,5,0
256,192,66130,1,8
352,160,66585,2,0,B|352:208|336:224,1,60,0|8
304,256,67040,2,0,B|304:304|320:320,2,60,0|8|0
224,304,67950,1,8
128,272,68404,1,0
64,192,68859,1,8
96,96,69314,5,0
176,144,69769,1,8
240,64,70224,2,0,B|384:64,1,120,0|8
416,64,70906,1,8
448,96,71134,1,0
400,176,71589,1,8
448,256,72044,1,0
400,336,72498,1,8
368,256,72953,5,0
304,192,73408,1,8
256,272,73863,2,0,B|112:272,1,120,0|8
80,272,74545,1,8
48,304,74773,1,0
96,224,75228,1,8
48,144,75683,1,0
96,64,76138,1,8
192,80,76592,6,0,B|320:32|336:192|240:192,2,240,0|8|0
96,112,78867,1,0
48,192,79322,1,8
320,304,80232,6,0,B|192:352|176:192|272:192,2,240,0|8|0
416,272,82506,1,0
464,192,82961,1,8
288,256,83871,6,0,B|256:176,1,60
224,256,84326,2,0,B|256:176,1,60
256,144,84780,1,8
352,144,85235,1,0
304,64,85690,1,0
208,64,86145,1,0
160,144,86600,1,8
352,176,87510,6,0,B|320:256,1,60
288,176,87965,2,0,B|320:256,1,60
320,288,88420,1,8
416,288,88875,1,0
368,368,89329,1,0
272,368,89784,1,0
224,288,90239,1,8
368,112,91376,6,0,B|368:64|320:48|288:88|304:128,2,120,2|2|2
368,208,92741,1,2
272,208,93196,2,0,B|272:256|224:272|192:232|208:192,2,120,2|2|2
272,112,94561,1,2
176,112,95016,6,0,B|176:64|128:48|96:88|112:128,2,120,2|2|2
176,208,96380,1,2
80,208,96835,2,0,B|80:256|32:272|0:232|16:192,2,120,2|2|2
80,112,98200,1,2
160,48,98655,6,0,B|288:48,3,120,2|2|2|2
368,80,100474,2,0,B|368:208,3,120,2|2|2|2
352,288,102294,6,0,B|224:288,3,120,2|2|2|2
144,288,104113,2,0,B|144:160,3,120,2|2|2|2
144,128,105705,1,4
