osu file format v9

[General]
AudioFilename: 03 Skate or Live.mp3
AudioLeadIn: 1985
PreviewTime: 21512
Countdown: 0
SampleSet: Soft
StackLeniency: 0.7
Mode: 1
LetterboxInBreaks: 0

[Editor]
Bookmarks: 42845,51379
DistanceSpacing: 1
BeatDivisor: 8
GridSize: 8

[Metadata]
Title:Skate or Live
Artist:Anamanaguchi
Creator:Sushi
Version:Taiko Oni
Source:Scott Pilgrim vs The World: The Game
Tags:8bit chiptunes Lucas Lee

[Difficulty]
HPDrainRate:8
CircleSize:5
OverallDifficulty:7
ApproachRate:8
SliderMultiplier:1.3
SliderTickRate:2

[Events]
//Background and Video events
0,0,"skate.png"
//Break Periods
//Storyboard Layer 0 (Background)
//Storyboard Layer 1 (Fail)
//Storyboard Layer 2 (Pass)
//Storyboard Layer 3 (Foreground)
//Storyboard Sound Samples
//Background Colour Transformations
3,100,163,162,255

[TimingPoints]
179,266.666666666667,4,2,0,100,1,0
34312,-80,4,2,0,100,0,1
42845,-100,4,2,0,100,0,0
76979,-80,4,2,0,100,0,1
85512,-80,4,2,0,100,0,0

[HitObjects]
256,192,178,1,0
256,192,445,1,8
256,192,712,1,0
256,192,845,1,0
256,192,979,1,8
256,192,1245,1,0
256,192,1512,1,8
256,192,1779,1,0
256,192,1912,1,0
256,192,2045,1,8
256,192,2312,1,0
256,192,2579,1,8
256,192,2712,1,0
256,192,2979,1,0
256,192,3112,1,8
256,192,3379,1,0
256,192,3512,1,8
256,192,3645,1,8
256,192,3912,1,0
256,192,4045,1,0
256,192,4179,1,8
256,192,4445,1,0
256,192,4712,1,8
256,192,4979,1,0
256,192,5112,1,0
256,192,5245,1,8
256,192,5512,1,0
256,192,5778,1,8
256,192,5912,1,8
256,192,6045,1,0
256,192,6178,1,0
256,192,6312,1,8
256,192,6578,1,0
256,192,6845,1,8
256,192,6978,1,0
256,192,7245,1,0
256,192,7378,1,8
256,192,7645,1,0
256,192,7778,1,8
256,192,7912,1,8
256,192,8045,1,0
256,192,8178,1,8
256,192,8312,1,0
256,192,8445,1,8
256,192,8712,1,0
256,192,8978,1,8
256,192,9245,1,0
256,192,9378,1,0
256,192,9512,1,8
256,192,9779,1,0
256,192,10045,1,8
256,192,10312,1,0
256,192,10445,1,0
256,192,10579,1,8
256,192,10845,1,0
256,192,11112,1,8
256,192,11245,1,0
256,192,11512,1,0
256,192,11645,1,8
256,192,11912,1,0
256,192,12045,1,8
256,192,12179,1,8
256,192,12445,1,0
256,192,12579,1,0
256,192,12712,1,8
256,192,12979,1,0
256,192,13245,1,8
256,192,13512,1,0
256,192,13645,1,0
256,192,13779,1,8
256,192,14045,1,0
256,192,14312,1,8
256,192,14445,1,8
256,192,14579,1,0
256,192,14712,1,0
256,192,14845,1,8
256,192,15112,1,4
256,192,15379,1,4
256,192,15645,1,4
256,192,15912,1,4
256,192,16179,1,4
256,192,16445,1,0
256,192,16579,1,0
256,192,17245,5,0
256,192,17512,1,8
256,192,17779,1,0
256,192,17912,1,0
256,192,18045,1,8
256,192,18312,1,8
256,192,18579,1,0
256,192,18712,1,0
256,192,18845,1,8
256,192,18979,1,8
256,192,19112,1,0
256,192,19245,1,8
256,192,19379,1,0
256,192,19645,1,8
256,192,19912,1,0
256,192,20045,1,0
256,192,20178,1,8
256,192,20312,1,0
256,192,20578,1,0
256,192,20712,1,8
256,192,20978,1,0
256,192,21112,1,0
256,192,21245,1,8
256,192,21512,1,0
256,192,21778,1,8
256,192,22045,1,0
256,192,22178,1,0
256,192,22312,1,8
256,192,22578,1,8
256,192,22845,1,0
256,192,22978,1,0
256,192,23112,1,8
256,192,23245,1,8
256,192,23378,1,0
256,192,23512,1,8
256,192,23645,1,0
256,192,23912,1,8
256,192,24178,1,0
256,192,24312,1,0
256,192,24445,1,8
256,192,24578,1,8
256,192,24845,1,0
256,192,24978,1,8
256,192,25112,1,0
256,192,25245,1,8
256,192,25378,1,8
256,192,25512,1,0
256,192,25778,1,0
256,192,26045,1,8
256,192,26312,1,0
256,192,26445,1,0
256,192,26578,1,8
256,192,26845,1,0
256,192,26978,1,0
256,192,27112,1,8
256,192,27245,1,0
256,192,27512,1,0
256,192,27645,1,8
256,192,27778,1,0
256,192,28045,1,0
256,192,28178,1,8
256,192,28312,1,0
256,192,28445,1,0
256,192,28578,1,8
256,192,28845,1,8
256,192,28978,1,0
256,192,29245,1,0
256,192,29512,1,0
256,192,29645,1,0
256,192,29778,1,0
256,192,30045,1,0
256,192,30312,1,8
256,192,30578,1,0
256,192,30712,1,0
256,192,30845,1,8
256,192,31112,1,0
256,192,31245,1,0
256,192,31378,1,8
256,192,31512,1,0
256,192,31778,1,0
256,192,31912,1,8
256,192,32045,1,0
256,192,32178,1,4
256,192,32445,1,4
256,192,32712,1,4
256,192,32978,1,4
256,192,33245,1,4
256,192,33512,1,0
256,192,33645,1,0
256,192,34312,5,0
256,192,34445,1,8
256,192,34578,1,0
256,192,34645,1,0
256,192,34712,1,8
256,192,34845,5,0
256,192,34978,1,8
256,192,35112,1,0
256,192,35178,1,0
256,192,35245,1,8
256,192,35378,5,0
256,192,35512,1,8
256,192,35645,1,0
256,192,35712,1,0
256,192,35778,1,8
256,192,35912,5,0
256,192,36045,1,8
256,192,36178,1,0
256,192,36245,1,0
256,192,36312,1,8
256,192,36445,1,4
256,192,36712,1,8
256,192,36845,1,4
256,192,37112,1,0
256,192,37245,1,12
256,192,37512,1,8
256,192,37645,1,4
256,192,37912,1,0
256,192,38045,1,8
256,192,38178,1,0
256,192,38312,1,8
256,192,38445,1,8
256,192,38578,5,0
256,192,38712,1,8
256,192,38845,1,0
256,192,38912,1,8
256,192,38978,1,8
256,192,39112,5,0
256,192,39245,1,8
256,192,39379,1,0
256,192,39445,1,8
256,192,39512,1,8
256,192,39645,5,0
256,192,39779,1,8
256,192,39912,1,0
256,192,39979,1,8
256,192,40045,1,8
256,192,40179,5,0
256,192,40312,1,8
256,192,40445,1,0
256,192,40512,1,8
256,192,40579,1,8
256,192,40712,1,4
256,192,40845,1,8
256,192,40979,1,8
256,192,41112,1,4
256,192,41379,1,0
256,192,41512,1,12
256,192,41779,1,8
256,192,41912,1,0
256,192,42045,1,0
256,192,42312,1,8
256,192,42579,1,8
256,192,42845,1,0
256,192,43112,1,8
256,192,43379,1,0
256,192,43512,1,0
256,192,43645,1,8
256,192,43912,1,0
256,192,44179,1,8
256,192,44445,1,0
256,192,44579,1,0
256,192,44712,1,8
256,192,44845,1,8
256,192,44979,1,0
256,192,45245,1,8
256,192,45379,1,0
256,192,45645,1,0
256,192,45779,1,8
256,192,46045,1,0
256,192,46179,1,8
256,192,46312,1,8
256,192,46579,1,0
256,192,46712,1,0
256,192,46845,1,8
256,192,47112,1,0
256,192,47379,1,8
256,192,47645,1,0
256,192,47779,1,0
256,192,47912,1,8
256,192,48179,1,0
256,192,48445,1,8
256,192,48579,1,8
256,192,48712,1,0
256,192,48845,1,0
256,192,48979,1,8
256,192,49112,1,8
256,192,49245,1,0
256,192,49512,1,8
256,192,49645,1,0
256,192,49912,1,0
256,192,50045,1,8
256,192,50312,1,0
256,192,50445,1,8
256,192,50579,1,8
256,192,50712,1,0
256,192,50845,1,8
256,192,50979,1,0
256,192,51112,1,8
256,192,51379,1,0
256,192,51645,1,8
256,192,51912,1,0
256,192,52045,1,0
256,192,52179,1,8
256,192,52445,1,0
256,192,52712,1,8
256,192,52979,1,0
256,192,53112,1,0
256,192,53245,1,8
256,192,53379,1,8
256,192,53512,1,0
256,192,53779,1,8
256,192,53912,1,0
256,192,54179,1,0
256,192,54312,1,8
256,192,54579,1,0
256,192,54712,1,8
256,192,54845,1,8
256,192,55112,1,0
256,192,55245,1,0
256,192,55379,1,8
256,192,55645,1,0
256,192,55912,1,8
256,192,56179,1,0
256,192,56312,1,0
256,192,56445,1,8
256,192,56712,1,0
256,192,56979,1,8
256,192,57112,1,8
256,192,57245,1,0
256,192,57379,1,0
256,192,57512,1,8
256,192,57645,1,8
256,192,57779,1,4
256,192,58045,1,4
256,192,58312,1,4
256,192,58579,1,4
256,192,58845,1,4
256,192,59112,1,0
256,192,59245,1,0
256,192,59912,1,0
256,192,60045,1,0
256,192,60179,1,8
256,192,60312,1,0
256,192,60445,1,8
256,192,60579,1,0
256,192,60712,1,0
256,192,60845,1,0
256,192,60979,1,8
256,192,61112,1,0
256,192,61245,1,0
256,192,61379,1,0
256,192,61512,1,8
256,192,61645,1,8
256,192,61779,1,0
256,192,61912,1,8
256,192,62045,1,0
256,192,62312,1,8
256,192,62579,1,0
256,192,62712,1,0
256,192,62845,1,8
256,192,62979,1,0
256,192,63245,1,0
256,192,63379,1,8
256,192,63645,1,0
256,192,63779,1,0
256,192,63912,1,8
256,192,64179,1,0
256,192,64312,1,0
256,192,64445,1,8
256,192,64579,1,0
256,192,64712,1,8
256,192,64845,1,0
256,192,64979,1,0
256,192,65112,1,0
256,192,65245,1,8
256,192,65379,1,0
256,192,65512,1,0
256,192,65645,1,0
256,192,65779,1,8
256,192,65912,1,8
256,192,66045,1,0
256,192,66179,1,8
256,192,66312,1,0
256,192,66579,1,8
256,192,66845,1,0
256,192,66979,1,0
256,192,67112,1,8
256,192,67245,1,8
256,192,67379,1,0
256,192,67512,1,0
256,192,67645,1,8
256,192,67912,1,8
256,192,68045,1,0
256,192,68179,1,8
256,192,68445,1,0
256,192,68712,1,8
256,192,68979,1,0
256,192,69112,1,0
256,192,69245,1,8
256,192,69512,1,0
256,192,69645,1,0
256,192,69779,1,8
256,192,69912,1,0
256,192,70179,1,0
256,192,70312,1,8
256,192,70445,1,0
256,192,70712,1,0
256,192,70845,1,8
256,192,70979,1,0
256,192,71112,1,0
256,192,71245,1,8
256,192,71512,1,8
256,192,71645,1,0
256,192,71912,1,0
256,192,72179,1,0
256,192,72312,1,0
256,192,72445,1,0
256,192,72712,1,0
256,192,72979,1,8
256,192,73245,1,0
256,192,73379,1,0
256,192,73512,1,8
256,192,73779,1,0
256,192,73912,1,0
256,192,74045,1,8
256,192,74179,1,0
256,192,74445,1,0
256,192,74579,1,8
256,192,74712,1,0
256,192,74845,1,4
256,192,75112,1,4
256,192,75379,1,4
256,192,75645,1,4
256,192,75912,1,4
256,192,76179,1,0
256,192,76312,1,0
256,192,76979,5,0
256,192,77112,1,8
256,192,77245,1,0
256,192,77312,1,0
256,192,77379,1,8
256,192,77512,1,0
256,192,77645,1,0
256,192,77779,1,8
256,192,77845,1,8
256,192,77912,1,8
256,192,78045,1,0
256,192,78179,1,8
256,192,78312,1,0
256,192,78379,1,0
256,192,78445,1,8
256,192,78579,1,0
256,192,78712,1,0
256,192,78845,1,8
256,192,78912,1,8
256,192,78978,1,8
256,192,79112,1,4
256,192,79378,1,8
256,192,79512,1,4
256,192,79778,1,0
256,192,79912,1,12
256,192,80178,1,8
256,192,80312,1,4
256,192,80578,1,0
256,192,80712,1,8
256,192,80845,1,0
256,192,80978,1,8
256,192,81112,1,8
256,192,81245,1,0
256,192,81378,1,8
256,192,81512,1,0
256,192,81578,1,0
256,192,81645,1,8
256,192,81778,1,0
256,192,81912,1,0
256,192,82045,1,8
256,192,82112,1,8
256,192,82178,1,8
256,192,82312,1,0
256,192,82445,1,8
256,192,82578,1,0
256,192,82645,1,0
256,192,82712,1,8
256,192,82845,1,0
256,192,82978,1,0
256,192,83112,1,8
256,192,83178,1,8
256,192,83245,1,8
256,192,83378,1,4
256,192,83512,1,8
256,192,83645,1,8
256,192,83778,1,4
256,192,84045,1,0
256,192,84178,1,12
256,192,84445,1,8
256,192,84578,1,0
256,192,84712,1,0
256,192,84978,1,8
256,192,85112,1,0
256,192,85245,1,8
256,192,85378,1,8
256,192,85512,1,4
