osu file format v9

[General]
AudioFilename: 03 Skate or Live.mp3
AudioLeadIn: 1985
PreviewTime: 21512
Countdown: 0
SampleSet: Soft
StackLeniency: 0.7
Mode: 1
LetterboxInBreaks: 0

[Editor]
Bookmarks: 42845,51379
DistanceSpacing: 1
BeatDivisor: 2
GridSize: 8

[Metadata]
Title:Skate or Live
Artist:Anamanaguchi
Creator:Sushi
Version:Taiko Muzukashii
Source:Scott Pilgrim vs The World: The Game
Tags:8bit chiptunes Lucas Lee

[Difficulty]
HPDrainRate:6
CircleSize:5
OverallDifficulty:6
ApproachRate:6
SliderMultiplier:1.2
SliderTickRate:2

[Events]
//Background and Video events
0,0,"skate.png"
//Break Periods
//Storyboard Layer 0 (Background)
//Storyboard Layer 1 (Fail)
//Storyboard Layer 2 (Pass)
//Storyboard Layer 3 (Foreground)
//Storyboard Sound Samples
//Background Colour Transformations
3,100,163,162,255

[TimingPoints]
179,266.666666666667,4,2,0,100,1,0
34312,-80,4,2,0,100,0,1
42845,-100,4,2,0,100,0,0
76978,-80,4,2,0,100,0,1
85512,-80,4,2,0,100,0,0

[HitObjects]
256,192,179,1,0
256,192,712,1,0
256,192,979,1,8
256,192,1245,1,0
256,192,1779,1,0
256,192,2045,1,8
256,192,2312,1,0
256,192,2845,1,0
256,192,3112,1,8
256,192,3379,1,0
256,192,3645,1,8
256,192,3912,1,0
256,192,4045,1,0
256,192,4179,1,8
256,192,4445,1,0
256,192,4979,1,0
256,192,5246,1,8
256,192,5512,1,0
256,192,6046,1,0
256,192,6312,1,8
256,192,6579,1,0
256,192,7112,1,0
256,192,7379,1,8
256,192,7646,1,0
256,192,7912,1,8
256,192,8179,1,8
256,192,8312,1,0
256,192,8446,1,8
256,192,8712,1,0
256,192,9245,1,0
256,192,9512,1,8
256,192,9778,1,0
256,192,10312,1,0
256,192,10578,1,8
256,192,10845,1,0
256,192,11378,1,0
256,192,11645,1,8
256,192,11912,1,0
256,192,12178,1,8
256,192,12445,1,0
256,192,12578,1,0
256,192,12712,1,8
256,192,12978,1,0
256,192,13512,1,0
256,192,13779,1,8
256,192,14045,1,0
256,192,14579,1,0
256,192,14845,1,8
256,192,15112,1,4
256,192,15379,1,4
256,192,15645,1,4
256,192,15912,1,4
256,192,16179,1,4
256,192,17245,1,0
256,192,17512,1,0
256,192,17779,1,8
256,192,18312,1,8
256,192,18579,1,0
256,192,18845,1,8
256,192,19112,1,0
256,192,19245,1,8
256,192,19645,1,8
256,192,19912,1,0
256,192,20179,1,8
256,192,20445,1,0
256,192,20712,1,8
256,192,20979,1,0
256,192,21112,1,0
256,192,21245,1,8
256,192,21512,1,0
256,192,21779,1,0
256,192,22045,1,8
256,192,22579,1,8
256,192,22845,1,0
256,192,23112,1,8
256,192,23379,1,0
256,192,23512,1,8
256,192,23912,1,8
256,192,24179,1,0
256,192,24446,1,8
256,192,24712,1,0
256,192,24979,1,8
256,192,25246,1,0
256,192,25379,1,0
256,192,25512,1,8
256,192,25779,1,0
256,192,26046,1,8
256,192,26312,1,0
256,192,26845,1,0
256,192,27112,1,0
256,192,27379,1,0
256,192,27645,1,8
256,192,27912,1,0
256,192,28179,1,0
256,192,28445,1,0
256,192,28712,1,8
256,192,28979,1,0
256,192,29112,1,0
256,192,29245,1,0
256,192,29512,1,0
256,192,29645,1,0
256,192,29779,1,8
256,192,30045,1,0
256,192,30312,1,8
256,192,30579,1,0
256,192,31112,1,0
256,192,31379,1,0
256,192,31645,1,0
256,192,31912,1,8
256,192,32179,1,4
256,192,32445,1,4
256,192,32712,1,4
256,192,32979,1,4
256,192,33245,1,4
256,192,34312,1,0
256,192,34445,1,8
256,192,34579,1,0
256,192,34712,1,8
256,192,34845,1,0
256,192,35112,1,0
256,192,35379,1,0
256,192,35512,1,8
256,192,35646,1,0
256,192,35779,1,8
256,192,35912,1,0
256,192,36179,1,0
256,192,36445,1,4
256,192,36845,1,12
256,192,37245,1,4
256,192,37645,1,12
256,192,38045,1,8
256,192,38312,1,0
256,192,38579,1,0
256,192,38712,1,8
256,192,38846,1,0
256,192,38979,1,8
256,192,39112,1,0
256,192,39379,1,0
256,192,39646,1,0
256,192,39779,1,8
256,192,39913,1,0
256,192,40046,1,8
256,192,40179,1,0
256,192,40446,1,0
256,192,40712,1,4
256,192,41112,1,12
256,192,41512,1,4
256,192,41912,1,12
256,192,42312,1,8
256,192,42579,1,0
256,192,42845,1,0
256,192,43112,1,8
256,192,43378,1,0
256,192,43645,1,8
256,192,43911,1,0
256,192,44445,1,0
256,192,44711,1,8
256,192,44978,1,0
256,192,45511,1,0
256,192,45778,1,8
256,192,46045,1,0
256,192,46311,1,8
256,192,46578,1,0
256,192,46711,1,0
256,192,46845,1,8
256,192,47111,1,0
256,192,47379,1,8
256,192,47645,1,0
256,192,47912,1,8
256,192,48178,1,0
256,192,48712,1,0
256,192,48978,1,8
256,192,49245,1,0
256,192,49778,1,0
256,192,50045,1,8
256,192,50312,1,0
256,192,50578,1,8
256,192,50845,1,8
256,192,50978,1,0
256,192,51112,1,8
256,192,51378,1,0
256,192,51645,1,8
256,192,51911,1,0
256,192,52178,1,8
256,192,52444,1,0
256,192,52978,1,0
256,192,53244,1,8
256,192,53511,1,0
256,192,54044,1,0
256,192,54311,1,8
256,192,54578,1,0
256,192,54844,1,8
256,192,55111,1,0
256,192,55244,1,0
256,192,55378,1,8
256,192,55644,1,0
256,192,55912,1,8
256,192,56178,1,0
256,192,56445,1,8
256,192,56711,1,0
256,192,57245,1,0
256,192,57511,1,8
256,192,57778,1,4
256,192,58045,1,4
256,192,58311,1,4
256,192,58578,1,4
256,192,58845,1,4
256,192,59911,1,0
256,192,60178,1,0
256,192,60445,1,8
256,192,60712,1,0
256,192,60978,1,8
256,192,61245,1,0
256,192,61511,1,8
256,192,61778,1,0
256,192,61911,1,8
256,192,62311,1,8
256,192,62578,1,0
256,192,62845,1,8
256,192,63111,1,0
256,192,63378,1,8
256,192,63645,1,0
256,192,63778,1,0
256,192,63911,1,8
256,192,64178,1,0
256,192,64445,1,0
256,192,64711,1,8
256,192,64979,1,0
256,192,65245,1,8
256,192,65511,1,0
256,192,65778,1,8
256,192,66045,1,0
256,192,66178,1,8
256,192,66578,1,8
256,192,66845,1,0
256,192,67112,1,8
256,192,67378,1,0
256,192,67645,1,8
256,192,67912,1,0
256,192,68045,1,0
256,192,68178,1,8
256,192,68445,1,0
256,192,68712,1,8
256,192,68978,1,0
256,192,69245,1,8
256,192,69511,1,0
256,192,69778,1,0
256,192,70045,1,0
256,192,70311,1,8
256,192,70578,1,0
256,192,70845,1,0
256,192,71111,1,0
256,192,71378,1,8
256,192,71645,1,0
256,192,71778,1,0
256,192,71911,1,0
256,192,72178,1,0
256,192,72311,1,0
256,192,72445,1,8
256,192,72711,1,0
256,192,72978,1,8
256,192,73245,1,0
256,192,73512,1,8
256,192,73778,1,0
256,192,74045,1,0
256,192,74311,1,0
256,192,74578,1,8
256,192,74845,1,4
256,192,75111,1,4
256,192,75378,1,4
256,192,75645,1,4
256,192,75911,1,4
256,192,76978,1,0
256,192,77111,1,8
256,192,77245,1,0
256,192,77378,1,8
256,192,77511,1,0
256,192,77645,1,8
256,192,77778,1,0
256,192,77912,1,8
256,192,78045,1,0
256,192,78178,1,8
256,192,78312,1,0
256,192,78445,1,8
256,192,78578,1,0
256,192,78845,1,0
256,192,79111,1,4
256,192,79511,1,12
256,192,79911,1,4
256,192,80311,1,12
256,192,80711,1,8
256,192,80978,1,0
256,192,81245,1,0
256,192,81378,1,8
256,192,81512,1,0
256,192,81645,1,8
256,192,81778,1,0
256,192,81912,1,8
256,192,82045,1,0
256,192,82179,1,8
256,192,82312,1,0
256,192,82445,1,8
256,192,82579,1,0
256,192,82712,1,8
256,192,82845,1,0
256,192,83112,1,0
256,192,83378,1,4
256,192,83778,1,12
256,192,84178,1,4
256,192,84578,1,12
256,192,84978,1,8
256,192,85245,1,0
256,192,85512,1,4
