osu file format v9

[General]
AudioFilename: 03 Skate or Live.mp3
AudioLeadIn: 1985
PreviewTime: 21512
Countdown: 0
SampleSet: Soft
StackLeniency: 0.7
Mode: 0
LetterboxInBreaks: 0

[Editor]
Bookmarks: 445,42845
DistanceSpacing: 0.7
BeatDivisor: 2
GridSize: 8

[Metadata]
Title:Skate or Live
Artist:Anamanaguchi
Creator:Sushi
Version:Average Joe
Source:Scott Pilgrim vs The World: The Game
Tags:8bit chiptunes Lucas Lee

[Difficulty]
HPDrainRate:2
CircleSize:3
OverallDifficulty:1
ApproachRate:3
SliderMultiplier:0.9
SliderTickRate:1

[Events]
//Background and Video events
0,0,"skate.png"
//Break Periods
2,43045,49939
//Storyboard Layer 0 (Background)
//Storyboard Layer 1 (Fail)
//Storyboard Layer 2 (Pass)
//Storyboard Layer 3 (Foreground)
//Storyboard Sound Samples
//Background Colour Transformations
3,100,128,128,128

[TimingPoints]
179,266.666666666667,4,2,2,100,1,0
34312,-100,4,2,1,100,0,1
42845,-100,4,1,0,69,0,0
43112,-100,4,2,2,100,0,0
76979,-100,4,2,1,100,0,1
85512,-100,4,1,0,71,0,0

[Colours]
Combo1 : 182,107,107
Combo2 : 29,169,152
Combo3 : 236,198,207
Combo4 : 0,101,202

[HitObjects]
80,160,179,2,0,B|16:256|80:360|216:360|264:256,2,360,4|4|4
168,72,2845,5,8
256,160,3379,1,4
312,184,3645,1,4
368,160,3912,1,8
440,264,4445,6,0,B|352:320|267:272|184:224|88:264,2,360,4|4|4
440,136,7112,5,8
320,88,7645,1,4
256,88,7912,1,4
192,88,8179,1,8
136,200,8712,6,0,B|24:112|-120:288|88:408|152:296|144:256,2,360,4|4|4
232,280,11379,5,8
352,240,11912,1,4
408,208,12179,1,4
416,144,12445,1,8
344,40,12979,6,0,B|240:-16|136:48|128:160|208:224|248:224,2,360,4|4|4
344,165,15645,1,4
344,288,16179,1,4
256,48,17245,5,4
256,112,17512,1,2
256,176,17779,1,8
144,232,18312,1,4
24,264,18845,6,0,B|24:312|80:336|128:312,2,135,8|6|8
24,200,19912,2,0,B|24:152|80:128|128:152,2,135,6|4|8
144,232,21245,1,8
256,296,21779,5,6
320,296,22045,1,8
392,192,22579,1,4
360,72,23112,6,0,B|352:72|352:72|272:72|272:152,2,135,8|6|6
424,72,24179,2,0,B|432:72|432:72|512:72|512:152,2,135,8|8|6
392,128,25245,1,8
392,192,25512,1,8
392,256,25779,6,0,B|120:256,1,270,4|8
56,256,26845,6,0,B|-16:160|64:56|176:56|232:104|232:168,1,360,2|4
328,240,28445,1,2
448,216,28979,2,0,B|496:216|544:200,2,90,4|4|8
400,96,30045,6,0,B|120:96,1,270,4|8
80,136,31112,6,0,B|-16:200|16:328|144:312,1,270,2|8
200,304,32179,2,4,B|240:296|288:272,4,90
256,48,34312,5,6
320,48,34579,1,8
384,48,34845,1,4
448,48,35112,1,8
488,96,35379,5,6
488,160,35645,1,8
488,224,35912,1,4
488,288,36179,1,8
440,328,36445,6,0,B|272:328,4,135,6|8|6|8|6
336,256,38579,5,10
232,192,39112,1,4
336,128,39645,1,10
336,256,40179,1,4
232,328,40712,6,0,B|176:352|96:352,4,135,6|8|6|8|4
248,264,42579,1,8
256,200,42845,1,4
256,72,51379,6,0,B|432:72|432:264|256:264,2,360,4|4|4
136,112,54045,5,8
40,192,54579,1,4
40,256,54845,1,4
40,320,55112,1,8
152,376,55645,6,0,B|288:376|400:376|440:224,2,360,4|4|4
152,248,58312,1,4
152,120,58845,1,4
392,192,59912,5,4
328,192,60179,1,2
264,192,60445,1,8
136,192,60979,1,6
136,320,61512,6,0,B|272:320,2,135,8|4|8
72,320,62579,2,0,B|-24:320|0:200,2,135,6|4|8
128,208,63912,1,8
256,192,64445,5,6
320,192,64712,1,8
448,192,65245,1,4
368,96,65779,6,0,B|424:48|512:48,2,135,8|6|6
304,96,66845,2,0,B|248:48|160:48,2,135,8|8|6
336,152,67912,1,8
336,216,68179,1,8
336,280,68445,6,0,B|264:312|144:312|72:280,1,270,4|8
40,224,69512,6,0,B|110:158|312:160|376:232,1,360,2|4
465,321,71112,1,2
488,200,71645,2,0,B|504:112,2,90,4|4|8
384,128,72712,6,0,B|312:96|192:96|120:128,1,270,4|8
120,192,73779,6,0,B|191:223|311:223|383:191,1,270,2|8
384,128,74845,2,4,B|384:16,4,90
256,344,76979,5,6
192,344,77245,1,8
128,344,77512,1,4
64,344,77779,1,8
24,296,78045,5,6
24,232,78312,1,8
24,168,78579,1,4
24,104,78845,1,8
64,56,79112,6,0,B|120:24|200:24,4,135,6|8|6|8|6
152,144,81246,5,10
280,144,81779,1,4
192,232,82312,1,10
320,232,82846,1,4
240,328,83379,6,0,B|304:344|376:328,4,135,6|8|6|8|4
176,312,85245,1,8
120,280,85512,1,4
