osu file format v12

[General]
AudioFilename: STILLSPLODINTHO.mp3
AudioLeadIn: 2513
PreviewTime: 28721
Countdown: 0
SampleSet: Normal
StackLeniency: 0.7
Mode: 0
LetterboxInBreaks: 0
WidescreenStoryboard: 0

[Editor]
Bookmarks: 56224
DistanceSpacing: 1
BeatDivisor: 2
GridSize: 4

[Metadata]
Title:STILL SPLODIN' THO (Interlude)
TitleUnicode:STILL SPLODIN' THO (Interlude)
Artist:Anamanaguchi
ArtistUnicode:Anamanaguchi
Creator:Liiraye
Version:Normal
Source:
Tags:Kyshiro Dolphin HanzeR Kin Chiptune Indie rock Endless Fantasy
BeatmapID:274195
BeatmapSetID:104151

[Difficulty]
HPDrainRate:4
CircleSize:3
OverallDifficulty:4
ApproachRate:4
SliderMultiplier:1.1
SliderTickRate:1

[Events]
//Background and Video events
0,0,"background2.png",0,0
//Break Periods
//Storyboard Layer 0 (Background)
//Storyboard Layer 1 (Fail)
//Storyboard Layer 2 (Pass)
//Storyboard Layer 3 (Foreground)
//Storyboard Sound Samples
//Background Colour Transformations
3,100,163,162,255

[TimingPoints]
72,298.749732370031,4,1,0,35,1,0
669,-111.111111111111,4,1,0,35,0,0
1266,-111.111111111111,4,1,0,50,0,1
10826,-111.111111111111,4,1,0,35,0,0
29946,-111.111111111111,4,1,0,50,0,1
58626,-111.111111111111,4,1,0,35,0,0
61016,-111.111111111111,4,1,0,25,0,0
62809,-111.111111111111,4,1,0,15,0,0

[Colours]
Combo1 : 200,0,0
Combo2 : 255,128,128
Combo3 : 0,0,255
Combo4 : 200,0,200
Combo5 : 230,230,0

[HitObjects]
8,88,669,2,0,L|104:52,1,98.9999969787599,0|0,3:0|0:0,0:0:0:0:
196,28,1266,6,0,B|277:82|277:82|285:180,1,197.99999395752,6|2,0:0|0:0,0:0:0:0:
480,152,2461,2,0,L|448:260,1,98.9999969787599,0|8,0:0|0:0,0:0:0:0:
368,300,3059,2,0,P|332:328|274:339,1,98.9999969787599,0|8,1:0|1:0,0:0:0:0:
181,336,3656,2,0,P|98:303|81:203,1,197.99999395752
174,237,4552,1,8,1:0:0:0:
176,143,4851,2,0,P|236:79|344:79,1,197.99999395752,0|0,1:0|1:0,0:0:0:0:
439,87,5747,2,0,L|479:47,2,49.4999984893799,8|0|2,1:0|0:0|0:0,0:0:0:0:
376,164,6345,6,0,B|428:180|428:180|468:224,1,98.9999969787599,8|2,0:0|0:0,0:0:0:0:
369,257,6942,2,0,P|385:309|341:361,1,98.9999969787599,8|0,0:0|0:0,0:0:0:0:
284,292,7540,2,0,B|284:236|284:236|284:179,1,98.9999969787599,8|0,0:0|0:0,0:0:0:0:
199,258,8137,2,0,P|182:308|205:350,1,98.9999969787599,8|0,0:0|0:0,0:0:0:0:
104,336,8735,5,8,0:0:0:0:
60,248,9033,1,0,0:0:0:0:
72,148,9332,1,8,0:0:0:0:
140,76,9631,2,0,B|200:45|200:45|204:84|228:116|264:124|292:124,1,197.99999395752,0|0,2:0|0:0,0:0:0:0:
390,120,10527,2,0,L|419:77,2,49.4999984893799,8|0|4,1:0|2:0|2:0,0:0:0:0:
431,323,11424,6,0,P|414:278|372:253,1,98.9999969787599,0|8,2:0|0:0,0:0:0:0:
275,248,12021,2,0,B|217:247|217:247|171:222,1,98.9999969787599,0|8,0:0|0:0,0:0:0:0:
128,142,12619,2,0,P|92:177|80:224,1,98.9999969787599,0|8,0:0|0:0,0:0:0:0:
236,344,13514,1,8,0:0:0:0:
368,300,14113,6,0,B|357:238|404:192|404:192|356:140|367:73,1,247.4999924469,8|0,0:0|0:0,0:0:0:0:
267,47,15158,2,0,P|222:31|176:47,1,98.9999969787599,0|0,0:0|0:0,0:0:0:0:
48,256,16203,6,0,P|58:346|135:311,1,197.99999395752,2|2,0:0|0:0,0:0:0:0:
264,168,17399,2,0,B|282:185|308:190|308:190|322:208|347:217,1,98.9999969787599,2|8,0:0|0:0,0:0:0:0:
412,292,17996,2,0,L|472:292,2,49.4999984893799,0|0|8,0:0|0:0|0:0,0:0:0:0:
312,292,18593,1,0,0:0:0:0:
212,291,18893,6,0,P|98:258|67:144,1,247.4999924469,8|2,0:0|0:0,0:0:0:0:
30,50,19938,2,0,P|78:42|122:61,1,98.9999969787599,2|2,0:0|0:0,0:0:0:0:
368,35,20984,6,0,P|414:48|442:88,1,98.9999969787599,2|8,0:0|0:0,0:0:0:0:
432,184,21581,2,0,P|376:168|356:121,1,98.9999969787599,2|8,0:0|0:0,0:0:0:0:
272,84,22178,2,0,P|176:76|104:144,1,197.99999395752,2|0,0:0|2:0,0:0:0:0:
147,228,23075,2,0,P|120:268|76:289,2,98.9999969787599,8|0|10,0:0|0:0|0:0,0:0:0:0:
248,228,23971,6,0,B|260:300|260:300|334:314,1,148.49999546814,2|2,0:0|0:0,0:0:0:0:
427,276,24718,2,0,P|447:232|428:188,1,98.9999969787599,0|2,0:0|0:0,0:0:0:0:
187,104,25764,6,0,P|228:76|252:33,1,98.9999969787599,2|8,0:0|0:0,0:0:0:0:
328,96,26361,2,0,B|374:173|374:173|314:170|281:228,1,197.99999395752,2|2,0:0|0:0,0:0:0:0:
197,182,27257,2,0,P|237:306|369:263,1,296.99999093628,10|0,0:0|0:0,0:0:0:0:
408,176,28453,2,0,P|372:68|256:76,1,247.4999924469,8|0,0:0|0:0,0:0:0:0:
208,80,29349,2,0,P|188:64|148:60,2,49.4999984893799,0|0|8,0:0|0:0|0:0,0:0:0:0:
132,156,29946,6,0,P|80:180|56:220,1,98.9999969787599,6|10,0:0|0:0,0:0:0:0:
120,304,30544,2,0,P|172:296|205:262,1,98.9999969787599,2|8,0:0|0:0,0:0:0:0:
204,216,30992,2,0,P|248:188|293:183,1,98.9999969787599
376,232,31589,2,0,P|428:236|468:215,1,98.9999969787599,2|0,0:0|0:0,0:0:0:0:
468,165,32037,6,2,P|376:137|324:47,1,197.99999395752,8|8,0:0|0:0,0:0:0:0:
226,43,32933,2,0,L|170:43,1,49.4999984893799,0|0,0:0|2:0,0:0:0:0:
128,52,33232,2,2,B|132:164|20:216,1,197.99999395752,8|8,0:0|0:0,0:0:0:0:
96,284,34129,2,0,P|148:308|196:308,1,98.9999969787599,2|10,0:0|0:0,0:0:0:0:
288,304,34726,6,0,P|260:264|249:215,1,98.9999969787599,2|10,0:0|1:0,0:0:0:0:
300,132,35323,6,0,P|228:76|149:128,1,197.99999395752,2|0,0:0|0:0,0:0:0:0:
76,204,36219,1,8,0:0:0:0:
112,300,36519,2,0,L|72:336,2,49.4999984893799,0|0|8,0:0|0:0|0:0,0:0:0:0:
204,336,37116,6,0,P|280:336|380:260,1,197.99999395752,0|0,0:0|0:0,0:0:0:0:
360,168,38012,1,8,0:0:0:0:
412,72,38311,2,0,L|438:118,2,49.4999984893799,0|0|8,0:0|0:0|0:0,0:0:0:0:
312,72,38909,2,0,L|289:27,2,49.4999984893799,0|0|8,0:0|1:0|0:0,0:0:0:0:
232,128,39506,6,0,P|165:63|73:91,1,197.99999395752,2|2,0:0|0:0,0:0:0:0:
72,192,40402,2,0,L|72:300,1,98.9999969787599,10|0,0:0|0:0,0:0:0:0:
160,336,40999,1,8,0:0:0:0:
260,348,41298,1,0,0:0:0:0:
360,336,41597,6,2,B|476:194|333:61,1,296.99999093628,8|2,0:0|2:0,0:0:0:0:
244,68,42792,2,2,B|148:92|148:92|96:188,1,197.99999395752,10|10,0:0|0:0,0:0:0:0:
120,276,43688,1,0,0:0:0:0:
200,340,43987,1,8,0:0:0:0:
300,344,44286,6,0,P|388:293|388:204,1,197.99999395752,2|2,0:0|0:0,0:0:0:0:
302,248,45182,1,8,0:0:0:0:
248,168,45481,2,0,P|214:205|206:257,2,98.9999969787599,0|8|0,2:0|0:0|0:0,0:0:0:0:
356,144,46377,6,2,B|416:144|416:144|416:80|416:80|376:44|336:32|296:44|260:72,1,296.99999093628,8|0,0:0|2:0,0:0:0:0:
180,132,47572,2,2,P|153:88|113:58,1,98.9999969787599,8|0,0:0|0:0,0:0:0:0:
28,124,48170,2,0,P|92:180|80:284,1,197.99999395752,8|8,0:0|0:0,0:0:0:0:
176,312,49066,6,0,L|200:264,2,49.4999984893799,0|0|8,3:0|0:0|0:0,0:0:0:0:
272,336,49664,2,0,P|324:344|368:324,1,98.9999969787599,0|8,0:0|1:0,0:0:0:0:
432,252,50260,1,0,0:0:0:0:
433,152,50560,2,0,P|388:166|336:152,2,98.9999969787599,8|0|8,0:0|0:0|0:0,0:0:0:0:
384,72,51456,6,2,P|284:36|208:80,1,197.99999395752,0|2,2:0|0:0,0:0:0:0:
36,174,52651,2,2,P|84:258|177:274,1,197.99999395752,0|2,0:0|0:0,0:0:0:0:
352,284,53846,6,2,B|340:188|340:188|232:164|192:64|192:64|96:52,1,395.999987915039
28,240,55639,2,0,P|40:280|92:312,1,98.9999969787599,0|8,0:0|0:0,0:0:0:0:
256,192,56235,12,0,58625,0:0:0:0:
360,116,59223,5,4,1:3:0:0:
184,28,59821,2,0,P|112:96|105:190,1,197.99999395752,0|4,0:0|3:3,0:0:0:0:
244,328,61016,2,0,B|292:280|196:184|245:139,2,197.99999395752,0|4|0,0:0|0:3|0:0,0:0:0:0:
412,248,62808,2,0,B|407:179|407:179|439:115|425:53,1,197.99999395752,4|4,0:3|2:0,0:0:0:0:
