osu file format v12

[General]
AudioFilename: STILLSPLODINTHO.mp3
AudioLeadIn: 2513
PreviewTime: 28721
Countdown: 0
SampleSet: Normal
StackLeniency: 0.7
Mode: 0
LetterboxInBreaks: 0
WidescreenStoryboard: 0

[Editor]
Bookmarks: 56224,63394
DistanceSpacing: 1
BeatDivisor: 4
GridSize: 4

[Metadata]
Title:STILL SPLODIN' THO (Interlude)
TitleUnicode:STILL SPLODIN' THO (Interlude)
Artist:Anamanaguchi
ArtistUnicode:Anamanaguchi
Creator:Liiraye
Version:Hard
Source:
Tags:Kyshiro Dolphin HanzeR Kin Chiptune Indie rock Endless Fantasy
BeatmapID:274155
BeatmapSetID:104151

[Difficulty]
HPDrainRate:5
CircleSize:4
OverallDifficulty:6
ApproachRate:7
SliderMultiplier:2.2
SliderTickRate:1

[Events]
//Background and Video events
0,0,"background2.png",0,0
//Break Periods
//Storyboard Layer 0 (Background)
//Storyboard Layer 1 (Fail)
//Storyboard Layer 2 (Pass)
//Storyboard Layer 3 (Foreground)
//Storyboard Sound Samples
//Background Colour Transformations
3,100,163,162,255

[TimingPoints]
72,298.749732370031,4,1,0,35,1,0
669,-133.333333333333,4,1,0,35,0,0
1266,-133.333333333333,4,1,0,50,0,1
10826,-133.333333333333,4,1,0,35,0,0
29946,-133.333333333333,4,1,0,50,0,1
58626,-133.333333333333,4,1,0,35,0,0
60718,-133.333333333333,4,1,0,25,0,0
61614,-133.333333333333,4,1,0,15,0,0

[Colours]
Combo1 : 200,0,0
Combo2 : 255,128,128
Combo3 : 0,0,255
Combo4 : 200,0,200
Combo5 : 230,230,0

[HitObjects]
308,236,669,2,0,L|336:288,6,41.2500015735627,0|0|0|0|0|0|0,0:0|0:0|0:0|0:0|0:0|0:0|0:0,0:0:0:0:
227,232,1266,2,0,P|273:161|348:166,1,165.000006294251,6|8,0:0|0:0,0:0:0:0:
359,327,1864,2,0,B|184:328,1,165.000006294251,0|8,0:0|0:0,0:0:0:0:
40,264,2461,2,0,P|56:180|111:126,1,165.000006294251,2|8,0:0|0:0,0:0:0:0:
264,64,3058,6,0,P|308:68|340:92,1,82.5000031471254,0|0,2:0|2:0,0:0:0:0:
412,52,3357,2,0,P|420:97|411:132,1,82.5000031471254,8|0,1:0|0:0,0:0:0:0:
340,168,3656,2,0,P|432:164|484:208,1,165.000006294251,2|8,0:0|0:0,0:0:0:0:
403,308,4253,2,0,B|364:304|364:304|332:276,1,82.5000031471254,0|0,0:0|2:0,0:0:0:0:
260,316,4552,2,0,L|176:248,1,82.5000031471254,8|0,1:0|2:0,0:0:0:0:
112,272,4851,5,0,1:0:0:0:
36,236,5000,1,0,1:0:0:0:
16,156,5150,1,8,0:0:0:0:
68,92,5299,1,0,2:0:0:0:
148,68,5449,2,0,P|224:116|296:113,1,165.000006294251,2|8,1:0|1:0,0:0:0:0:
380,96,5897,6,0,L|372:56,2,41.2500015735627,0|0|2,0:0|0:0|0:0,0:0:0:0:
464,104,6195,1,0,0:0:0:0:
472,188,6345,2,0,P|476:232|460:266,1,82.5000031471254,8|0,0:0|0:0,0:0:0:0:
380,284,6644,2,0,P|352:320|347:359,2,82.5000031471254,2|0|8,2:0|0:0|0:0,0:0:0:0:
380,201,7091,1,0,0:0:0:0:
312,153,7241,6,0,L|248:96,1,82.5000031471254,2|2,0:0|2:0,0:0:0:0:
204,168,7540,2,0,L|140:111,1,82.5000031471254,8|2,0:0|2:0,0:0:0:0:
92,180,7838,2,0,P|80:224|87:259,1,82.5000031471254,0|0,0:0|2:0,0:0:0:0:
152,312,8137,1,8,0:0:0:0:
232,332,8287,6,2,L|392:268,2,165.000006294251,0|2|0,0:0|2:0|0:0,0:0:0:0:
332,200,9183,1,0,0:0:0:0:
416,192,9332,2,2,P|402:153|372:126,1,82.5000031471254,10|2,0:0|0:0,0:0:0:0:
224,48,9780,2,0,L|52:48,2,165.000006294251,0|0|0,1:0|0:0|2:0,0:0:0:0:
236,128,10527,1,8,1:0:0:0:
176,184,10677,2,0,L|128:184|128:184,2,41.2500015735627,0|0|4,2:0|0:0|2:0,0:0:0:0:
332,244,11125,5,8,0:0:0:0:
176,292,11424,2,0,P|95:305|36:240,1,165.000006294251,0|8,2:0|0:0,0:0:0:0:
60,88,12021,2,0,P|120:144|120:232,1,165.000006294251,0|8,0:0|0:0,0:0:0:0:
288,222,12619,2,0,P|291:143|351:87,1,165.000006294251,0|8,0:0|0:0,0:0:0:0:
488,180,13216,6,0,L|468:268,1,82.5000031471254,0|0,2:0|2:0,0:0:0:0:
388,252,13515,1,8,0:0:0:0:
344,320,13664,1,0,0:0:0:0:
264,332,13813,2,0,P|240:284|192:252,1,82.5000031471254,0|0,2:0|2:0,0:0:0:0:
147,225,14112,6,0,P|136:260|144:304,1,82.5000031471254,8|0,0:0|0:0,0:0:0:0:
219,265,14411,2,0,P|271:209|279:117,1,165.000006294251,0|8,0:0|0:0,0:0:0:0:
364,112,14859,1,2,0:0:0:0:
200,112,15158,1,2,0:0:0:0:
52,184,15457,1,2,1:0:0:0:
52,184,15606,2,0,P|56:144|82:112,1,82.5000031471254,0|0,0:0|1:0,0:0:0:0:
132,176,15905,2,0,L|224:176,1,82.5000031471254,8|0,0:0|0:0,0:0:0:0:
208,260,16204,6,2,P|284:224|292:140,1,165.000006294251,0|8,0:0|0:0,0:0:0:0:
432,48,16801,2,2,P|432:136|405:209,1,165.000006294251,0|8,0:0|0:0,0:0:0:0:
296,336,17399,2,0,P|368:292|445:298,1,165.000006294251,2|10,0:0|0:0,0:0:0:0:
376,140,17996,6,0,B|376:96|376:96|352:56,1,82.5000031471254,0|0,0:0|1:0,0:0:0:0:
296,120,18295,2,0,L|260:40,1,82.5000031471254,8|0,0:0|0:0,0:0:0:0:
180,48,18593,2,0,L|100:72,1,82.5000031471254,0|0,0:0|0:0,0:0:0:0:
144,144,18892,6,0,P|103:155|60:144,2,82.5000031471254,10|2|2,0:0|0:0|0:0,0:0:0:0:
242,277,19490,1,8,0:0:0:0:
242,277,19639,1,2,0:0:0:0:
297,120,19938,1,2,0:0:0:0:
438,204,20237,1,2,0:0:0:0:
438,204,20386,2,0,P|410:268|338:332,1,165.000006294251,0|8,0:0|0:0,0:0:0:0:
172,340,20984,6,0,P|212:260|272:212,1,165.000006294251,2|8,0:0|0:0,0:0:0:0:
380,88,21581,2,0,P|296:96|224:60,1,165.000006294251,2|8,0:0|0:0,0:0:0:0:
68,108,22179,2,0,P|152:144|180:207,1,165.000006294251,2|10,0:0|0:0,0:0:0:0:
296,324,22776,5,0,1:0:0:0:
380,332,22925,1,0,1:0:0:0:
456,300,23075,2,0,P|480:256|480:216,1,82.5000031471254,8|0,0:0|1:0,0:0:0:0:
412,180,23373,1,0,0:0:0:0:
328,172,23523,1,0,0:0:0:0:
260,224,23672,6,0,P|243:186|246:146,2,82.5000031471254,10|2|2,0:0|0:0|0:0,0:0:0:0:
380,108,24270,2,0,P|360:72|316:52,1,82.5000031471254,8|2,0:0|0:0,0:0:0:0:
152,52,24718,1,2,0:0:0:0:
36,168,25016,1,2,0:0:0:0:
36,168,25166,2,0,L|48:256,1,82.5000031471254,0|0,0:0|0:0,0:0:0:0:
128,244,25465,2,0,L|164:332,1,82.5000031471254,8|0,0:0|2:0,0:0:0:0:
240,296,25764,6,0,P|316:328|388:297,1,165.000006294251,2|8,0:0|0:0,0:0:0:0:
260,192,26361,2,0,P|236:112|144:84,1,165.000006294251,2|8,0:0|0:0,0:0:0:0:
332,88,26959,2,0,B|376:160|376:160|468:196,1,165.000006294251,2|10,0:0|0:0,0:0:0:0:
180,180,28452,6,0,P|148:148|136:113,2,82.5000031471254,8|0|0,0:0|1:0|1:0,3:0:0:0:
236,240,28900,1,0,3:3:0:0:
228,324,29050,1,8,3:1:0:0:
148,348,29199,1,0,3:3:0:0:
68,324,29348,2,0,L|24:316,6,41.2500015735627,0|0|0|0|8|0|0,0:0|0:0|0:0|0:0|0:0|0:0|0:0,0:0:0:0:
92,244,29946,6,2,P|104:200|127:172,1,82.5000031471254,6|2,0:0|0:0,0:0:0:0:
208,164,30245,2,2,P|204:200|176:240,1,82.5000031471254,8|2,0:0|0:0,0:0:0:0:
252,276,30543,2,2,L|333:263,1,82.5000031471254,2|0,0:0|2:0,0:0:0:0:
407,226,30842,2,0,P|379:194|339:182,1,82.5000031471254,8|2,0:0|1:0,0:0:0:0:
220,72,31290,1,2,1:0:0:0:
108,196,31589,1,2,1:0:0:0:
188,340,31888,1,2,1:0:0:0:
213,261,32037,6,0,P|249:285|268:321,1,82.5000031471254,8|0,0:0|2:0,0:0:0:0:
348,332,32336,2,0,L|348:384,2,41.2500015735627,0|0|0,0:0|0:0|0:0,0:0:0:0:
420,288,32635,2,0,L|464:316,2,41.2500015735627,8|0|0,0:0|0:0|0:0,0:0:0:0:
440,208,32933,2,0,L|504:208,2,41.2500015735627,0|0|0,0:0|0:0|0:0,0:0:0:0:
391,141,33232,6,0,P|351:125|327:95,1,82.5000031471254,10|2,0:0|0:0,0:0:0:0:
311,13,33531,2,0,P|270:35|248:70,1,82.5000031471254,0|0,0:0|2:0,0:0:0:0:
191,133,33830,2,0,P|231:129|266:150,1,82.5000031471254,8|0,0:0|2:0,0:0:0:0:
210,218,34128,2,0,P|246:238|294:231,1,82.5000031471254,0|0,0:0|2:0,0:0:0:0:
288,316,34427,2,0,L|332:344,2,41.2500015735627,8|0|0,0:0|0:0|0:0,0:0:0:0:
176,332,34726,6,2,P|136:336|96:312,1,82.5000031471254,2|2,0:0|1:0,0:0:0:0:
80,228,35025,2,2,L|172:256,1,82.5000031471254,10|2,0:0|1:0,0:0:0:0:
240,252,35323,2,2,B|232:208|232:208|202:183,1,82.5000031471254,2|0,0:0|1:0,0:0:0:0:
124,160,35622,2,0,B|136:116|136:116|168:96,1,82.5000031471254,8|2,0:0|1:0,0:0:0:0:
328,64,36070,1,2,0:0:0:0:
408,208,36369,1,2,0:0:0:0:
328,64,36668,1,2,0:0:0:0:
248,48,36817,6,0,L|165:44,1,82.5000031471254,8|0,0:0|0:0,0:0:0:0:
104,100,37116,2,0,L|72:136,2,41.2500015735627,0|0|0,0:0|0:0|0:0,0:0:0:0:
152,168,37415,2,0,L|188:208,2,41.2500015735627,8|0|0,0:0|0:0|0:0,0:0:0:0:
104,236,37713,2,0,L|72:272,2,41.2500015735627,0|0|0,0:0|0:0|0:0,0:0:0:0:
152,304,38012,6,0,P|188:324|228:325,1,82.5000031471254,10|2,0:0|0:0,0:0:0:0:
296,280,38311,2,0,L|260:248,2,41.2500015735627,0|0|0,0:0|0:0|0:0,0:0:0:0:
380,288,38610,2,0,L|424:326,2,41.2500015735627,8|0|0,0:0|0:0|0:0,0:0:0:0:
400,208,38908,2,0,P|434:187|453:147,1,82.5000031471254,0|0,0:0|1:0,0:0:0:0:
372,132,39207,2,0,L|372:86,2,41.2500015735627,8|0|0,0:0|0:0|0:0,0:0:0:0:
308,188,39506,5,2,0:0:0:0:
248,132,39655,1,2,0:0:0:0:
224,52,39805,2,2,P|180:56|146:73,1,82.5000031471254,8|2,0:0|0:0,0:0:0:0:
84,128,40103,1,2,0:0:0:0:
83,211,40253,1,0,0:0:0:0:
141,269,40402,2,0,P|181:257|225:261,1,82.5000031471254,8|2,0:0|0:0,0:0:0:0:
302,270,40701,6,0,P|286:314|290:348,1,82.5000031471254,0|2,0:0|0:0,0:0:0:0:
368,320,41000,2,0,P|410:314|442:290,1,82.5000031471254,8|2,0:0|0:0,0:0:0:0:
472,212,41298,2,0,L|472:120,1,82.5000031471254,0|2,0:0|0:0,0:0:0:0:
429,58,41597,1,8,0:0:0:0:
350,31,41747,1,0,0:0:0:0:
268,40,41896,6,0,L|268:136,1,82.5000031471254,0|0,0:0|0:0,0:0:0:0:
190,152,42195,2,0,L|190:68,1,82.5000031471254,8|0,0:0|0:0,0:0:0:0:
112,41,42493,2,0,L|112:137,1,82.5000031471254,0|0,0:0|2:0,0:0:0:0:
35,155,42792,2,0,L|35:63,1,82.5000031471254,10|2,0:0|0:0,0:0:0:0:
112,124,43091,5,0,0:0:0:0:
128,204,43240,1,0,0:0:0:0:
113,284,43390,2,0,P|81:316|69:356,1,82.5000031471254,8|0,0:0|0:0,0:0:0:0:
153,356,43688,2,0,P|194:358|231:342,1,82.5000031471254,0|0,0:0|0:0,0:0:0:0:
312,352,43987,2,0,P|354:340|391:348,1,82.5000031471254,8|0,0:0|3:0,0:0:0:0:
468,320,44286,5,2,0:0:0:0:
328,224,44585,1,10,0:0:0:0:
480,160,44883,1,2,0:0:0:0:
328,224,45182,1,8,0:0:0:0:
348,60,45481,1,2,0:0:0:0:
328,224,45780,1,10,0:0:0:0:
192,132,46078,1,2,0:0:0:0:
328,224,46377,1,8,0:0:0:0:
172,276,46676,6,0,P|120:276|88:296,1,82.5000031471254,0|0,2:0|0:0,0:0:0:0:
72,212,46975,2,0,P|24:192|0:160,1,82.5000031471254,8|0,0:0|0:0,0:0:0:0:
76,128,47273,2,0,L|88:40,1,82.5000031471254,0|0,2:0|0:0,0:0:0:0:
164,80,47572,2,0,B|200:60|200:60|240:68,1,82.5000031471254,10|2,0:0|0:0,0:0:0:0:
322,74,47871,6,0,L|417:62,1,82.5000031471254,0|0,0:0|0:0,0:0:0:0:
428,141,48170,2,0,L|340:151,1,82.5000031471254,8|0,0:0|0:0,0:0:0:0:
285,206,48468,2,0,L|364:229,1,82.5000031471254,0|0,2:0|0:0,0:0:0:0:
355,310,48767,2,0,L|258:280,1,82.5000031471254,8|0,0:0|0:0,0:0:0:0:
193,246,49066,6,0,L|160:295,2,41.2500015735627
136,176,49364,1,8,0:0:0:0:
136,176,49514,2,0,P|110:103|172:39,1,165.000006294251,0|0,0:0|0:0,0:0:0:0:
240,36,49962,1,8,0:0:0:0:
328,176,50261,6,0,P|360:140|368:107,1,82.5000031471254,0|0,0:0|0:0,0:0:0:0:
444,144,50560,2,0,L|488:228,1,82.5000031471254,8|0,0:0|0:0,0:0:0:0:
420,272,50858,2,0,P|396:308|392:352,1,82.5000031471254,0|0,1:0|0:0,0:0:0:0:
312,320,51157,2,0,P|300:280|267:258,1,82.5000031471254,8|0,0:0|0:0,0:0:0:0:
184,260,51456,6,0,L|162:224,2,41.2500015735627
104,280,51754,1,8,0:0:0:0:
104,280,51904,1,0,0:0:0:0:
40,128,52203,1,0,0:0:0:0:
40,128,52352,1,0,0:0:0:0:
192,60,52651,1,0,0:0:0:0:
192,60,52800,1,0,0:0:0:0:
340,136,53099,5,0,0:0:0:0:
344,48,53248,2,2,P|385:66|432:72,1,82.5000031471254,0|0,0:0|0:0,0:0:0:0:
428,156,53547,2,0,L|484:140,4,41.2500015735627,8|0|0|0|2,0:0|0:0|0:0|0:0|0:0,0:0:0:0:
320,304,54145,1,8,0:0:0:0:
320,304,54294,1,2,2:0:0:0:
320,304,54443,2,0,P|280:288|252:260,1,82.5000031471254,2|2,0:0|0:0,0:0:0:0:
216,184,54742,1,8,0:0:0:0:
112,56,55041,6,0,P|76:84|63:117,1,82.5000031471254,0|2,2:0|0:0,0:0:0:0:
60,200,55340,1,8,0:0:0:0:
170,322,55638,2,0,P|205:301|228:267,1,82.5000031471254,2|0,0:0|2:0,0:0:0:0:
216,184,55937,2,0,P|227:146|249:110,1,82.5000031471254,8|0,0:0|2:0,0:0:0:0:
328,72,56236,6,0,L|358:44,6,41.2500015735627,0|0|0|0|8|0|0,0:0|0:0|0:0|0:0|0:0|0:0|0:0,0:0:0:0:
348,152,56833,2,0,L|296:152,6,41.2500015735627,0|0|0|0|8|0|0,0:0|0:0|0:0|0:0|0:0|0:0|0:0,0:0:0:0:
324,232,57431,2,0,L|376:232,6,41.2500015735627,0|0|0|0|8|0|0,0:0|0:0|0:0|0:0|0:0|0:0|0:0,0:0:0:0:
356,308,58028,2,0,L|312:348,8,41.2500015735627,0|0|0|0|8|0|0|0|0,1:0|0:0|0:0|1:0|1:0|0:0|0:0|0:0|0:0,0:0:0:0:
120,76,59223,5,4,0:3:0:0:
12,200,59522,2,0,P|47:177|89:177,1,82.5000031471254,8|0,0:0|0:0,0:0:0:0:
72,256,59821,2,0,P|58:294|65:333,1,82.5000031471254
140,300,60120,2,0,P|208:260|292:304,1,165.000006294251,8|4,0:0|0:3,0:0:0:0:
360,144,60717,1,8,0:0:0:0:
488,248,61016,6,0,L|472:336,1,82.5000031471254
392,336,61315,2,0,L|406:254,1,82.5000031471254,8|0,0:0|0:0,0:0:0:0:
324,264,61613,2,0,P|297:231|260:212,1,82.5000031471254,4|0,1:3|2:0,0:0:0:0:
96,224,62061,5,0,0:0:0:0:
96,224,62510,1,8,0:0:0:0:
208,103,62808,2,0,P|332:75|256:178,1,330.000012588501,4|4,0:3|2:0,0:0:0:0:
