osu file format v12

[General]
AudioFilename: STILLSPLODINTHO.mp3
AudioLeadIn: 2513
PreviewTime: 28721
Countdown: 0
SampleSet: Soft
StackLeniency: 0.7
Mode: 3
LetterboxInBreaks: 0
SpecialStyle: 0
WidescreenStoryboard: 0

[Editor]
Bookmarks: 56224
DistanceSpacing: 1.5
BeatDivisor: 4
GridSize: 4

[Metadata]
Title:STILL SPLODIN' THO (Interlude)
TitleUnicode:STILL SPLODIN' THO (Interlude)
Artist:Anamanaguchi
ArtistUnicode:Anamanaguchi
Creator:Liiraye
Version:HanzeR's Normal
Source:
Tags:Kyshiro Dolphin HanzeR Kin Chiptune Indie rock Endless Fantasy
BeatmapID:279133
BeatmapSetID:104151

[Difficulty]
HPDrainRate:6
CircleSize:7
OverallDifficulty:6
ApproachRate:9
SliderMultiplier:2.2
SliderTickRate:1

[Events]
//Background and Video events
0,0,"background2.png",0,0
//Break Periods
//Storyboard Layer 0 (Background)
//Storyboard Layer 1 (Fail)
//Storyboard Layer 2 (Pass)
//Storyboard Layer 3 (Foreground)
//Storyboard Sound Samples
//Background Colour Transformations
3,100,163,162,255

[TimingPoints]
72,298.749732370031,4,2,0,40,1,0
1266,-100,4,2,0,40,0,1
20386,-100,4,2,0,40,0,0
29946,-100,4,2,0,40,0,1
58626,-100,4,2,0,40,0,0

[Colours]
Combo1 : 200,0,0
Combo2 : 255,128,128
Combo3 : 170,170,255
Combo4 : 200,0,200
Combo5 : 255,255,0

[HitObjects]
475,192,669,1,0,0:0:0:0:
36,192,818,1,0,0:0:0:0:
475,192,968,1,0,0:0:0:0:
36,192,1117,1,0,0:0:0:0:
475,192,1266,128,0,1416:0:0:0:0:
182,192,1416,128,0,1565:0:0:0:0:
329,192,1565,128,0,1715:0:0:0:0:
36,192,1715,128,0,1864:0:0:0:0:
256,192,1864,128,0,2013:0:0:0:0:
109,192,2013,128,0,2163:0:0:0:0:
402,192,2163,128,0,2312:0:0:0:0:
256,192,2312,128,0,2461:0:0:0:0:
256,192,2611,128,0,2760:0:0:0:0:
256,192,2910,128,0,3059:0:0:0:0:
329,192,3208,128,0,3358:0:0:0:0:
182,192,3358,128,0,3507:0:0:0:0:
36,192,3507,128,0,3656:0:0:0:0:
36,192,3806,128,0,3955:0:0:0:0:
36,192,4105,128,0,4254:0:0:0:0:
182,192,4403,128,0,4553:0:0:0:0:
329,192,4553,128,0,4702:0:0:0:0:
256,192,4702,128,0,4851:0:0:0:0:
256,192,5001,128,0,5150:0:0:0:0:
256,192,5300,128,0,5449:0:0:0:0:
329,192,5598,128,0,5748:0:0:0:0:
182,192,5748,128,0,6046:0:0:0:0:
475,192,6046,128,0,6196:0:0:0:0:
182,192,6196,128,0,6345:0:0:0:0:
329,192,6345,128,0,6495:0:0:0:0:
36,192,6495,128,0,6644:0:0:0:0:
256,192,6644,128,0,6793:0:0:0:0:
109,192,6793,128,0,6943:0:0:0:0:
402,192,6943,128,0,7092:0:0:0:0:
256,192,7092,128,0,7241:0:0:0:0:
256,192,7391,128,0,7540:0:0:0:0:
256,192,7690,128,0,7839:0:0:0:0:
109,192,7988,128,0,8138:0:0:0:0:
402,192,8138,128,0,8287:0:0:0:0:
36,192,8287,128,0,8436:0:0:0:0:
36,192,8586,128,0,8735:0:0:0:0:
36,192,8885,128,0,9034:0:0:0:0:
109,192,9183,128,0,9333:0:0:0:0:
402,192,9333,128,0,9482:0:0:0:0:
256,192,9482,128,0,9631:0:0:0:0:
256,192,9781,128,0,9930:0:0:0:0:
256,192,10080,128,0,10229:0:0:0:0:
402,192,10378,128,0,10528:0:0:0:0:
109,192,10528,1,0,0:0:0:0:
475,192,10677,1,0,0:0:0:0:
36,192,10677,1,0,0:0:0:0:
182,192,10826,1,0,0:0:0:0:
329,192,10826,1,0,0:0:0:0:
182,192,11424,128,0,12021:0:0:0:0:
329,192,12021,128,0,12619:0:0:0:0:
402,192,12619,128,0,12918:0:0:0:0:
475,192,12918,128,0,13216:0:0:0:0:
36,192,14113,128,0,14262:0:0:0:0:
182,192,14262,128,0,14411:0:0:0:0:
329,192,14411,128,0,14561:0:0:0:0:
182,192,14710,128,0,14860:0:0:0:0:
329,192,14860,128,0,15009:0:0:0:0:
475,192,15158,128,0,15308:0:0:0:0:
329,192,15457,128,0,15606:0:0:0:0:
36,192,16204,128,0,16801:0:0:0:0:
329,192,16801,128,0,17399:0:0:0:0:
402,192,17399,128,0,17698:0:0:0:0:
475,192,17698,128,0,17996:0:0:0:0:
329,192,18893,128,0,19042:0:0:0:0:
475,192,19042,128,0,19191:0:0:0:0:
182,192,19191,128,0,19341:0:0:0:0:
109,192,19490,128,0,19640:0:0:0:0:
256,192,19640,128,0,19789:0:0:0:0:
402,192,19938,128,0,20088:0:0:0:0:
256,192,20237,128,0,20685:0:0:0:0:
36,192,20984,128,0,21581:0:0:0:0:
329,192,21581,128,0,22179:0:0:0:0:
402,192,22179,128,0,22478:0:0:0:0:
475,192,22478,128,0,22776:0:0:0:0:
36,192,23673,128,0,23822:0:0:0:0:
182,192,23822,128,0,23971:0:0:0:0:
329,192,23971,128,0,24121:0:0:0:0:
182,192,24270,128,0,24420:0:0:0:0:
329,192,24420,128,0,24569:0:0:0:0:
475,192,24718,128,0,24868:0:0:0:0:
256,192,25017,128,0,25166:0:0:0:0:
36,192,25764,128,0,26361:0:0:0:0:
329,192,26361,128,0,26959:0:0:0:0:
402,192,26959,128,0,27258:0:0:0:0:
475,192,27258,128,0,28453:0:0:0:0:
36,192,27556,128,0,28453:0:0:0:0:
109,192,28453,128,0,28602:0:0:0:0:
402,192,28602,128,0,28751:0:0:0:0:
256,192,28751,128,0,29050:0:0:0:0:
182,192,29050,128,0,29200:0:0:0:0:
329,192,29200,128,0,29498:0:0:0:0:
475,192,29498,128,0,29872:0:0:0:0:
256,192,29946,1,0,0:0:0:0:
109,192,30096,1,0,0:0:0:0:
402,192,30245,1,0,0:0:0:0:
256,192,30245,1,0,0:0:0:0:
109,192,30395,1,0,0:0:0:0:
329,192,30544,1,0,0:0:0:0:
182,192,30693,1,0,0:0:0:0:
475,192,30843,1,0,0:0:0:0:
329,192,30843,1,0,0:0:0:0:
36,192,30992,1,0,0:0:0:0:
182,192,31141,1,0,0:0:0:0:
36,192,31291,1,0,0:0:0:0:
329,192,31440,1,0,0:0:0:0:
182,192,31440,1,0,0:0:0:0:
36,192,31590,1,0,0:0:0:0:
182,192,31739,1,0,0:0:0:0:
36,192,31888,1,0,0:0:0:0:
329,192,32038,1,0,0:0:0:0:
182,192,32038,1,0,0:0:0:0:
402,192,32187,1,0,0:0:0:0:
256,192,32336,1,0,0:0:0:0:
402,192,32486,1,0,0:0:0:0:
36,192,32635,1,0,0:0:0:0:
182,192,32635,1,0,0:0:0:0:
402,192,32785,1,0,0:0:0:0:
256,192,32934,1,0,0:0:0:0:
402,192,33083,1,0,0:0:0:0:
182,192,33233,1,0,0:0:0:0:
36,192,33233,1,0,0:0:0:0:
475,192,33382,1,0,0:0:0:0:
36,192,33531,1,0,0:0:0:0:
475,192,33681,1,0,0:0:0:0:
182,192,33830,1,0,0:0:0:0:
329,192,33830,1,0,0:0:0:0:
475,192,33980,1,0,0:0:0:0:
36,192,34129,1,0,0:0:0:0:
475,192,34278,1,0,0:0:0:0:
182,192,34428,1,0,0:0:0:0:
329,192,34428,1,0,0:0:0:0:
109,192,34577,1,0,0:0:0:0:
402,192,34577,1,0,0:0:0:0:
256,192,34726,1,0,0:0:0:0:
109,192,34876,1,0,0:0:0:0:
475,192,35025,1,0,0:0:0:0:
329,192,35025,1,0,0:0:0:0:
256,192,35175,1,0,0:0:0:0:
109,192,35324,1,0,0:0:0:0:
256,192,35473,1,0,0:0:0:0:
475,192,35623,1,0,0:0:0:0:
329,192,35623,1,0,0:0:0:0:
36,192,35772,1,0,0:0:0:0:
182,192,35921,1,0,0:0:0:0:
36,192,36071,1,0,0:0:0:0:
256,192,36220,1,0,0:0:0:0:
402,192,36220,1,0,0:0:0:0:
182,192,36370,1,0,0:0:0:0:
36,192,36519,1,0,0:0:0:0:
182,192,36668,1,0,0:0:0:0:
256,192,36818,1,0,0:0:0:0:
109,192,36818,1,0,0:0:0:0:
402,192,36967,1,0,0:0:0:0:
256,192,37116,1,0,0:0:0:0:
402,192,37266,1,0,0:0:0:0:
182,192,37415,1,0,0:0:0:0:
36,192,37415,1,0,0:0:0:0:
402,192,37565,1,0,0:0:0:0:
256,192,37714,1,0,0:0:0:0:
402,192,37863,1,0,0:0:0:0:
182,192,38013,1,0,0:0:0:0:
36,192,38013,1,0,0:0:0:0:
475,192,38162,1,0,0:0:0:0:
109,192,38311,1,0,0:0:0:0:
256,192,38311,1,0,0:0:0:0:
182,192,38461,1,0,0:0:0:0:
256,192,38610,1,0,0:0:0:0:
402,192,38610,1,0,0:0:0:0:
329,192,38760,1,0,0:0:0:0:
109,192,38909,1,0,0:0:0:0:
256,192,38909,1,0,0:0:0:0:
182,192,39058,1,0,0:0:0:0:
329,192,39208,1,0,0:0:0:0:
475,192,39208,1,0,0:0:0:0:
182,192,39357,1,0,0:0:0:0:
36,192,39357,1,0,0:0:0:0:
329,192,39506,1,0,0:0:0:0:
475,192,39506,1,0,0:0:0:0:
182,192,39656,128,0,39805:0:0:0:0:
329,192,39805,128,0,39955:0:0:0:0:
36,192,39955,128,0,40104:0:0:0:0:
256,192,40104,128,0,40253:0:0:0:0:
109,192,40253,128,0,40403:0:0:0:0:
402,192,40403,128,0,40552:0:0:0:0:
256,192,40552,128,0,40701:0:0:0:0:
256,192,40851,128,0,41000:0:0:0:0:
256,192,41150,128,0,41299:0:0:0:0:
329,192,41448,128,0,41598:0:0:0:0:
182,192,41598,128,0,41747:0:0:0:0:
36,192,41747,128,0,41896:0:0:0:0:
36,192,42046,128,0,42195:0:0:0:0:
36,192,42345,128,0,42494:0:0:0:0:
182,192,42643,128,0,42793:0:0:0:0:
329,192,42793,128,0,42942:0:0:0:0:
256,192,42942,128,0,43091:0:0:0:0:
256,192,43241,128,0,43390:0:0:0:0:
256,192,43540,128,0,43689:0:0:0:0:
329,192,43838,128,0,43988:0:0:0:0:
182,192,43988,128,0,44286:0:0:0:0:
475,192,44286,128,0,44436:0:0:0:0:
182,192,44436,128,0,44585:0:0:0:0:
329,192,44585,128,0,44735:0:0:0:0:
36,192,44735,128,0,44884:0:0:0:0:
256,192,44884,128,0,45033:0:0:0:0:
109,192,45033,128,0,45183:0:0:0:0:
402,192,45183,128,0,45332:0:0:0:0:
256,192,45332,128,0,45481:0:0:0:0:
256,192,45631,128,0,45780:0:0:0:0:
256,192,45930,128,0,46079:0:0:0:0:
109,192,46228,128,0,46378:0:0:0:0:
402,192,46378,128,0,46527:0:0:0:0:
36,192,46527,128,0,46676:0:0:0:0:
36,192,46826,128,0,46975:0:0:0:0:
36,192,47125,128,0,47274:0:0:0:0:
109,192,47423,128,0,47573:0:0:0:0:
402,192,47573,128,0,47722:0:0:0:0:
256,192,47722,128,0,47871:0:0:0:0:
256,192,48021,128,0,48170:0:0:0:0:
256,192,48320,128,0,48469:0:0:0:0:
329,192,48618,128,0,48768:0:0:0:0:
182,192,48768,128,0,49066:0:0:0:0:
36,192,49066,128,0,53249:0:0:0:0:
182,192,50261,128,0,51456:0:0:0:0:
256,192,51456,128,0,53249:0:0:0:0:
475,192,53249,128,0,53846:0:0:0:0:
109,192,53846,128,0,58029:0:0:0:0:
402,192,55041,128,0,56236:0:0:0:0:
256,192,56236,128,0,58029:0:0:0:0:
402,192,58029,128,0,58626:0:0:0:0:
256,192,58626,128,0,63406:0:0:0:0:
