osu file format v12

[General]
AudioFilename: STILLSPLODINTHO.mp3
AudioLeadIn: 2513
PreviewTime: 28721
Countdown: 0
SampleSet: Normal
StackLeniency: 0.7
Mode: 0
LetterboxInBreaks: 0
WidescreenStoryboard: 0

[Editor]
Bookmarks: 29187,56224
DistanceSpacing: 2
BeatDivisor: 4
GridSize: 4

[Metadata]
Title:STILL SPLODIN' THO (Interlude)
TitleUnicode:STILL SPLODIN' THO (Interlude)
Artist:Anamanaguchi
ArtistUnicode:Anamanaguchi
Creator:Liiraye
Version:Extra
Source:
Tags:Kyshiro Dolphin HanzeR Kin Chiptune Indie rock Endless Fantasy
BeatmapID:274033
BeatmapSetID:104151

[Difficulty]
HPDrainRate:7
CircleSize:4
OverallDifficulty:8
ApproachRate:9
SliderMultiplier:2.2
SliderTickRate:1

[Events]
//Background and Video events
0,0,"background2.png",0,0
//Break Periods
//Storyboard Layer 0 (Background)
//Storyboard Layer 1 (Fail)
//Storyboard Layer 2 (Pass)
//Storyboard Layer 3 (Foreground)
//Storyboard Sound Samples
//Background Colour Transformations
3,100,163,162,255

[TimingPoints]
72,298.749732370031,4,1,0,35,1,0
1266,-100,4,1,0,50,0,1
10826,-133.333333333333,4,1,0,35,0,0
29349,-133.333333333333,4,1,0,45,0,0
29946,-100,4,1,0,50,0,1
58029,-100,4,1,0,60,0,1
58626,-133.333333333333,4,1,0,35,0,0
60867,-133.333333333333,4,1,0,25,0,0
62361,-133.333333333333,4,1,0,15,0,0

[Colours]
Combo1 : 200,0,0
Combo2 : 255,128,128
Combo3 : 0,0,255
Combo4 : 200,0,200
Combo5 : 230,230,0

[HitObjects]
29,101,669,1,0,3:0:0:0:
64,84,744,1,0,3:0:0:0:
101,75,819,1,0,3:0:0:0:
139,75,893,1,0,3:0:0:0:
177,84,968,1,0,3:0:0:0:
211,102,1043,1,0,3:0:0:0:
240,128,1117,1,0,3:0:0:0:
262,159,1192,1,0,3:0:0:0:
272,196,1267,6,6,P|252:252|208:292,1,110,6|0,0:0|0:0,0:0:0:0:
392,284,1566,2,0,L|380:172,1,110,8|0,0:0|0:0,0:0:0:0:
211,102,1865,2,0,P|275:94|323:70,1,110,2|0,0:0|0:0,1:0:0:0:
456,64,2164,1,8,0:0:0:0:
456,64,2313,2,2,P|488:164|476:276,2,220,2|2|0,0:0|0:0|1:0,0:0:0:0:
293,30,3060,5,2,1:0:0:0:
130,55,3209,2,0,B|76:81|76:81|55:126,1,110,2|8,0:0|0:0,0:0:0:0:
26,289,3508,1,0,0:0:0:0:
175,357,3657,2,2,P|195:301|191:249,1,110,0|2,0:0|0:0,0:0:0:0:
300,124,3956,2,0,P|344:152|384:196,1,110,8|2,0:0|0:0,0:0:0:0:
468,336,4255,1,2,0:0:0:0:
324,252,4404,1,0,0:0:0:0:
476,172,4554,2,0,P|454:132|407:87,1,110,8|0,1:0|0:0,0:0:0:0:
270,167,4852,5,2,1:0:0:0:
270,56,5002,1,2,1:0:0:0:
178,183,5151,1,8,0:0:0:0:
270,56,5301,1,2,0:0:0:0:
355,203,5450,1,2,1:0:0:0:
270,57,5599,1,0,1:0:0:0:
178,222,5749,1,8,1:0:0:0:
270,56,5898,5,0,0:0:0:0:
270,56,5973,1,0,0:0:0:0:
270,56,6047,2,2,L|270:176,1,110
112,252,6346,2,0,L|112:140,1,110,8|0,0:0|0:0,0:0:0:0:
190,16,6645,2,2,L|190:140,1,110,2|0,0:0|0:0,0:0:0:0:
178,291,6944,2,0,P|235:280|276:250,1,110,8|2,0:0|0:0,0:0:0:0:
437,209,7242,1,0,0:0:0:0:
437,209,7392,1,2,0:0:0:0:
472,60,7541,5,8,0:0:0:0:
304,60,7691,1,2,1:0:0:0:
204,192,7840,1,2,0:0:0:0:
40,192,7989,1,0,2:0:0:0:
152,68,8139,6,0,P|109:47|49:51,2,110,8|2|2,0:0|0:0|1:0,0:0:0:0:
188,228,8587,1,2,2:0:0:0:
326,325,8736,2,2,P|382:317|426:273,1,110,8|0,0:0|0:0,0:0:0:0:
280,180,9035,2,0,P|260:233|270:284,1,110,2|0,0:0|0:0,0:0:0:0:
425,214,9334,2,2,P|390:169|333:150,1,110,8|2,0:0|0:0,0:0:0:0:
202,49,9632,6,2,L|70:49,1,110,0|2,2:0|1:0,0:0:0:0:
170,179,9931,2,0,L|286:179,1,110,8|0,0:0|0:0,0:0:0:0:
158,309,10230,2,0,L|42:309,1,110,2|0,0:0|2:0,0:0:0:0:
76,144,10529,1,8,1:0:0:0:
236,112,10678,2,0,L|188:72,2,55,0|0|4,2:0|0:0|2:0,0:0:0:0:
411,287,11126,5,8,0:0:0:0:
236,112,11425,2,2,P|164:68|84:96,1,165.000006294251,0|8,1:0|0:0,0:0:0:0:
196,220,11873,1,0,2:0:0:0:
156,328,12022,2,10,P|224:360|304:328,1,165.000006294251,0|8,0:0|0:0,0:0:0:0:
368,224,12471,5,0,2:0:0:0:
276,144,12620,2,0,P|252:180|248:220,1,82.5000031471254,2|0,0:0|2:0,0:0:0:0:
304,328,12919,2,0,P|392:332|444:282,1,165.000006294251,10|0,0:0|2:0,0:0:0:0:
476,160,13367,1,0,2:0:0:0:
360,204,13516,2,0,P|315:197|284:168,1,82.5000031471254,8|0,0:0|0:0,0:0:0:0:
256,52,13815,1,0,2:0:0:0:
372,0,13964,1,0,2:0:0:0:
488,48,14114,6,2,P|444:76|426:99,1,82.5000031471254,10|2,0:0|0:0,0:0:0:0:
412,124,14412,2,2,P|352:188|264:184,1,165.000006294251,2|10,0:0|0:0,0:0:0:0:
188,272,14861,2,0,P|228:196|228:118,1,165.000006294251,0|2,0:0|0:0,0:0:0:0:
328,44,15309,1,8,0:0:0:0:
328,44,15458,2,2,P|408:80|446:144,1,165.000006294251,2|0,1:0|1:0,0:0:0:0:
456,268,15906,1,8,0:0:0:0:
228,171,16205,6,2,P|200:207|190:242,1,82.5000031471254,2|0,0:0|0:0,0:0:0:0:
84,304,16504,2,0,P|68:224|8:156,1,165.000006294251,8|2,0:0|0:0,0:0:0:0:
100,68,16952,1,0,2:0:0:0:
220,92,17101,2,0,P|216:140|228:172,1,82.5000031471254,8|0,0:0|2:0,0:0:0:0:
246,191,17400,2,2,P|334:147|357:89,1,165.000006294251,2|10,0:0|0:0,0:0:0:0:
414,311,17997,6,0,P|382:279|348:264,1,82.5000031471254,0|0,0:0|1:0,0:0:0:0:
246,191,18296,2,0,P|214:159|206:123,1,82.5000031471254,8|0,0:0|0:0,0:0:0:0:
387,125,18595,2,0,P|379:161|347:193,1,82.5000031471254,0|0,0:0|0:0,0:0:0:0:
246,263,18894,6,2,P|206:283|178:319,2,82.5000031471254,8|0|2,0:0|0:0|0:0,0:0:0:0:
330,355,19342,1,0,2:0:0:0:
454,343,19491,1,8,1:0:0:0:
499,226,19641,2,0,P|504:186|489:148,1,82.5000031471254,2|0,0:0|0:0,0:0:0:0:
406,52,19939,2,2,B|386:71|356:72|356:72|337:91|308:96|308:96|288:116|257:116,1,165.000006294251
164,28,20387,2,0,P|100:88|86:161,1,165.000006294251,0|8,0:0|0:0,0:0:0:0:
336,192,20985,6,2,P|268:144|168:156,1,165.000006294251,0|10,0:0|0:0,0:0:0:0:
76,200,21433,1,2,0:0:0:0:
148,292,21582,2,2,P|216:340|316:328,1,165.000006294251,0|10,0:0|0:0,0:0:0:0:
412,288,22031,1,0,0:0:0:0:
484,180,22180,2,2,P|450:104|372:71,2,165.000006294251,2|10|0,0:0|0:0|2:0,0:0:0:0:
372,232,22927,5,0,0:0:0:0:
252,264,23076,2,0,P|217:245|196:208,1,82.5000031471254,8|0,0:0|2:0,0:0:0:0:
84,260,23375,2,0,P|52:180|78:109,1,165.000006294251,0|10,0:0|0:0,0:0:0:0:
192,160,23823,5,0,0:0:0:0:
303,213,23972,2,0,P|335:133|309:62,1,165.000006294251,2|8,0:0|0:0,0:0:0:0:
421,107,24421,2,0,B|428:169|404:216|404:216|424:240|427:263,1,165.000006294251,2|2,1:0|0:0,0:0:0:0:
339,351,24869,1,10,0:0:0:0:
214,343,25018,1,2,0:0:0:0:
116,267,25167,2,0,P|89:225|85:189,1,82.5000031471254
181,115,25466,2,0,B|141:94|94:104,1,82.5000031471254,8|0,0:0|2:0,0:0:0:0:
174,199,25765,6,2,P|246:255|318:263,1,165.000006294251,2|8,0:0|0:0,0:0:0:0:
438,235,26213,1,0,2:0:0:0:
494,123,26362,2,0,P|414:115|333:168,1,165.000006294251,2|8,0:0|0:0,0:0:0:0:
249,239,26811,1,0,2:0:0:0:
150,313,26960,2,2,P|70:319|12:263,2,165.000006294251,2|10|0,0:0|0:0|0:0,0:0:0:0:
468,236,28454,6,0,P|468:192|445:162,1,82.5000031471254,8|0,3:1|2:0,3:3:0:0:
336,100,28752,1,0,3:3:0:0:
376,256,28902,1,0,3:3:0:0:
220,196,29051,1,8,0:1:0:0:
336,100,29201,1,0,0:3:0:0:
284,260,29349,5,0,0:0:0:0:
261,277,29424,1,0,0:0:0:0:
233,286,29498,1,0,0:0:0:0:
205,286,29573,1,0,0:0:0:0:
177,278,29648,1,8,0:0:0:0:
154,260,29722,1,0,0:0:0:0:
138,237,29797,1,0,0:0:0:0:
48,100,29947,6,2,L|156:60,1,110,6|2,0:0|0:0,0:0:0:0:
304,124,30246,2,2,P|308:180|340:244,1,110,8|2,0:0|0:0,0:0:0:0:
192,136,30545,2,0,B|229:93|229:93|237:34,1,110,2|0,0:0|2:0,0:0:0:0:
372,41,30844,2,0,B|379:93|379:93|416:136,1,110,8|2,0:0|2:0,0:0:0:0:
444,300,31142,6,0,P|392:280|338:274,1,110,0|2,0:0|0:0,0:0:0:0:
284,120,31441,2,0,P|328:160|375:175,1,110,8|0,0:0|2:0,0:0:0:0:
212,200,31740,1,2,0:0:0:0:
256,40,31889,1,0,2:0:0:0:
96,84,32039,2,0,P|64:132|52:182,1,110,8|0,0:0|2:0,0:0:0:0:
184,280,32337,6,0,L|156:328,2,55
316,180,32636,1,8,0:0:0:0:
316,180,32711,1,0,0:0:0:0:
316,180,32786,1,0,0:0:0:0:
404,320,32935,2,0,L|428:268,2,55
501,199,33234,6,0,P|485:143|445:107,1,110,8|2,0:0|2:0,0:0:0:0:
436,99,33682,1,2,2:0:0:0:
424,91,33981,1,2,2:0:0:0:
412,83,34279,1,2,2:0:0:0:
264,68,34429,6,0,L|242:120,3,55,8|2|0|0,0:0|0:0|0:0|0:0,3:0:0:0:
243,119,34727,2,2,P|275:167|272:220,1,110,0|2,0:0|1:0,0:0:0:0:
108,204,35026,2,2,P|80:160|24:139,1,110,10|0,0:0|2:0,0:0:0:0:
56,304,35325,2,0,P|112:320|160:306,1,110,2|0,0:0|1:0,0:0:0:0:
316,368,35624,2,0,P|336:320|323:265,1,110,8|2,0:0|1:0,0:0:0:0:
480,200,35922,5,2,0:0:0:0:
420,44,36072,1,2,0:0:0:0:
272,112,36221,1,8,0:0:0:0:
132,40,36371,1,0,0:0:0:0:
60,192,36520,1,2,0:0:0:0:
272,124,36669,1,0,0:0:0:0:
324,296,36819,6,0,L|214:296,1,110,8|0,0:0|0:0,0:0:0:0:
168,108,37117,2,2,P|136:156|136:212,1,110,2|0,0:0|0:0,0:0:0:0:
272,222,37416,2,0,L|272:112,1,110,8|0,0:0|0:0,0:0:0:0:
380,108,37715,2,2,P|412:156|412:212,1,110,2|2,0:0|0:0,0:0:0:0:
408,36,38014,1,8,0:0:0:0:
140,36,38163,1,2,0:0:0:0:
60,180,38312,5,0,0:0:0:0:
60,180,38387,1,0,0:0:0:0:
60,180,38462,1,0,0:0:0:0:
152,316,38611,1,8,0:0:0:0:
152,316,38686,1,0,3:0:0:0:
152,316,38761,1,0,0:0:0:0:
256,188,38910,5,0,0:0:0:0:
256,188,39059,1,0,1:0:0:0:
360,316,39209,1,8,0:0:0:0:
360,316,39283,1,0,3:0:0:0:
360,316,39358,1,0,0:0:0:0:
424,184,39507,6,2,P|484:212|504:256,1,110,2|2,0:0|0:0,0:0:0:0:
376,118,39806,2,2,P|434:106|482:128,1,110,10|2,0:0|2:0,0:0:0:0:
296,96,40105,2,0,P|334:52|383:40,1,110,2|0,0:0|0:0,0:0:0:0:
256,200,40404,1,8,0:0:0:0:
103,132,40553,2,2,B|47:136|15:76|15:76|47:16|115:16|115:16,2,220,2|0|2,0:0|0:0|0:0,0:0:0:0:
257,200,41300,1,2,0:0:0:0:
104,256,41449,1,0,2:0:0:0:
257,200,41599,2,2,B|231:254|259:306,1,110,8|2,0:0|1:0,0:0:0:0:
402,269,41897,37,0,0:0:0:0:
496,132,42047,1,2,1:0:0:0:
416,200,42196,1,8,0:0:0:0:
400,36,42346,1,2,1:0:0:0:
394,134,42495,1,0,1:0:0:0:
268,28,42644,1,2,0:0:0:0:
336,96,42794,1,10,0:0:0:0:
172,80,42943,1,2,1:0:0:0:
279,150,43092,6,0,P|340:208|314:278,1,165,2|0,0:0|2:0,0:0:0:0:
306,278,43391,2,0,L|149:225,1,165,10|0,0:0|2:0,0:0:0:0:
148,216,43690,2,2,P|139:292|195:368,1,165,2|0,0:0|2:0,0:0:0:0:
192,356,43989,2,0,P|140:328|90:320,1,110,8|0,0:0|3:0,0:0:0:0:
76,312,44213,1,0,3:0:0:0:
64,300,44287,6,2,L|24:196,1,110
128,68,44586,2,0,L|172:176,1,110,8|0,0:0|2:0,0:0:0:0:
335,169,44885,2,0,L|377:67,2,110,2|0|8,0:0|0:0|0:0,0:0:0:0:
496,136,45333,1,2,1:0:0:0:
444,292,45482,2,0,P|388:300|342:277,1,110,0|2,2:0|1:0,0:0:0:0:
176,272,45781,2,0,P|232:278|274:310,1,110,8|2,0:0|2:0,0:0:0:0:
335,169,46080,2,0,P|280:172|232:144,1,110,2|0,0:0|2:0,0:0:0:0:
104,44,46379,1,0,0:0:0:0:
104,44,46528,2,0,P|56:68|55:232,2,220
308,348,47424,1,2,1:0:0:0:
276,188,47574,1,8,0:0:0:0:
308,24,47723,1,2,0:0:0:0:
177,77,47872,6,2,P|233:85|277:129,1,110,0|2,0:0|0:0,0:0:0:0:
131,222,48171,2,0,P|111:169|121:118,1,110,8|0,0:0|0:0,0:0:0:0:
276,188,48470,2,2,P|241:233|184:252,1,110,0|2,0:0|0:0,0:0:0:0:
36,204,48769,1,8,0:0:0:0:
168,114,48918,5,0,0:0:0:0:
186,93,48993,1,0,3:0:0:0:
211,83,49067,2,2,P|269:52|330:75,1,110,0|2,3:0|0:0,0:0:0:0:
310,61,49292,1,0,3:0:0:0:
310,61,49366,2,0,P|363:31|409:39,1,110,8|2,0:0|0:0,0:0:0:0:
488,184,49665,1,0,2:0:0:0:
328,228,49814,1,0,2:0:0:0:
440,324,49964,2,0,P|440:272|412:222,1,110,8|0,0:0|2:0,0:0:0:0:
260,160,50262,6,2,L|140:216,1,110,2|2,2:0|0:0,0:0:0:0:
260,340,50561,2,0,L|376:288,1,110,8|0,0:0|0:0,0:0:0:0:
236,156,50860,2,0,L|160:248,1,110,2|2,2:0|0:0,0:0:0:0:
292,348,51159,2,0,L|368:244,1,110,8|0,0:0|0:0,0:0:0:0:
396,100,51457,5,0,2:0:0:0:
244,40,51607,1,0,3:0:0:0:
216,45,51682,1,0,3:0:0:0:
189,50,51756,1,8,1:0:0:0:
48,140,51906,1,0,1:0:0:0:
136,276,52055,2,0,P|160:224|162:170,2,110,2|0|8,0:0|1:0|0:0,0:0:0:0:
292,216,52503,1,0,1:0:0:0:
448,264,52652,2,0,P|424:312|364:348,2,110,0|0|8,0:0|0:0|0:0,0:0:0:0:
408,104,53101,1,0,2:0:0:0:
248,136,53250,2,2,P|276:88|323:65,1,110,2|2,0:0|2:0,0:0:0:0:
160,68,53549,5,8,0:0:0:0:
119,64,53623,1,0,0:0:0:0:
84,75,53698,1,0,0:0:0:0:
54,99,53773,1,0,0:0:0:0:
35,133,53847,1,0,0:0:0:0:
29,171,53922,1,0,0:0:0:0:
39,208,53997,1,0,0:0:0:0:
60,238,54071,1,0,0:0:0:0:
90,261,54146,6,0,P|149:277|200:255,1,110,8|2,0:0|2:0,0:0:0:0:
316,136,54445,2,2,P|372:120|420:136,1,110
496,276,54744,2,0,P|448:292|392:276,1,110,8|0,0:0|2:0,0:0:0:0:
260,180,55042,1,0,2:0:0:0:
184,328,55192,1,2,0:0:0:0:
116,176,55341,2,0,P|144:228|196:252,1,110,8|0,0:0|2:0,0:0:0:0:
344,200,55640,2,2,P|316:250|317:306,1,110,2|0,0:0|2:0,0:0:0:0:
458,218,55939,2,0,P|479:161|474:113,1,110,8|0,0:0|2:0,0:0:0:0:
296,52,56237,5,0,0:0:0:0:
268,79,56311,1,0,0:0:0:0:
235,97,56386,1,0,0:0:0:0:
198,107,56461,1,0,0:0:0:0:
159,105,56536,2,0,P|131:103|110:82,3,55,8|0|0|0,0:0|0:0|0:0|0:0,0:0:0:0:
108,124,56835,5,0,0:0:0:0:
108,162,56909,1,0,0:0:0:0:
97,199,56984,1,0,0:0:0:0:
77,230,57059,1,0,0:0:0:0:
48,256,57134,2,0,P|28:276|24:308,3,55,8|0|0|0,0:0|0:0|0:0|0:0,0:0:0:0:
44,336,57432,5,0,0:0:0:0:
71,362,57506,1,0,0:0:0:0:
107,377,57581,1,0,0:0:0:0:
145,380,57656,1,0,0:0:0:0:
182,369,57731,2,0,P|213:353|224:328,3,55,8|0|0|0,0:0|0:0|0:0|0:0,0:0:0:0:
211,299,58029,5,0,0:0:0:0:
218,261,58104,1,0,0:0:0:0:
237,228,58178,1,0,0:0:0:0:
267,204,58253,1,0,0:0:0:0:
303,193,58328,1,8,0:0:0:0:
342,194,58402,1,0,0:0:0:0:
377,209,58477,1,0,0:0:0:0:
405,236,58552,1,0,0:0:0:0:
422,270,58626,1,0,0:0:0:0:
352,32,58926,6,0,P|392:24|432:32,2,82.5000031471254,4|0|0,1:3|0:0|1:0,0:0:0:0:
272,132,59374,1,0,1:1:0:0:
140,92,59524,1,4,1:3:0:0:
236,12,59673,1,0,0:0:0:0:
200,132,59822,2,0,P|180:176|148:200,1,82.5000031471254,0|0,0:0|0:0,0:0:0:0:
28,188,60121,2,0,P|40:270|105:311,1,165.000006294251,4|0,1:3|0:0,0:0:0:0:
404,332,60868,5,0,2:0:0:0:
404,332,61017,2,0,P|420:272|452:232,1,82.5000031471254,4|0,0:3|0:0,0:0:0:0:
384,140,61316,1,0,0:0:0:0:
191,49,61615,2,0,P|156:52|112:68,1,82.5000031471254,4|4,1:3|1:3,0:0:0:0:
48,308,62063,1,4,1:3:0:0:
48,308,62362,5,0,0:0:0:0:
160,355,62511,1,0,1:0:0:0:
261,283,62661,1,0,0:0:0:0:
254,162,62810,1,0,0:2:0:0:
254,162,63407,1,4,2:0:0:0:
