osu file format v12

[General]
AudioFilename: STILLSPLODINTHO.mp3
AudioLeadIn: 2513
PreviewTime: 28721
Countdown: 0
SampleSet: Normal
StackLeniency: 0.7
Mode: 0
LetterboxInBreaks: 0
WidescreenStoryboard: 0

[Editor]
Bookmarks: 56224
DistanceSpacing: 1
BeatDivisor: 2
GridSize: 4

[Metadata]
Title:STILL SPLODIN' THO (Interlude)
TitleUnicode:STILL SPLODIN' THO (Interlude)
Artist:Anamanaguchi
ArtistUnicode:Anamanaguchi
Creator:Liiraye
Version:Easy
Source:
Tags:Kyshiro Dolphin HanzeR Kin Chiptune Indie rock Endless Fantasy
BeatmapID:274224
BeatmapSetID:104151

[Difficulty]
HPDrainRate:2
CircleSize:2
OverallDifficulty:2
ApproachRate:2
SliderMultiplier:1.1
SliderTickRate:1

[Events]
//Background and Video events
0,0,"background2.png",0,0
//Break Periods
//Storyboard Layer 0 (Background)
//Storyboard Layer 1 (Fail)
//Storyboard Layer 2 (Pass)
//Storyboard Layer 3 (Foreground)
//Storyboard Sound Samples
//Background Colour Transformations
3,100,163,162,255

[TimingPoints]
72,298.749732370031,4,1,0,35,1,0
669,-133.333333333333,4,1,0,35,0,0
1266,-133.333333333333,4,1,0,50,0,1
10826,-133.333333333333,4,1,0,35,0,0
29946,-133.333333333333,4,1,0,50,0,1
58626,-133.333333333333,4,1,0,35,0,0
61016,-133.333333333333,4,1,0,25,0,0
62809,-133.333333333333,4,1,0,15,0,0

[Colours]
Combo1 : 200,0,0
Combo2 : 255,128,128
Combo3 : 0,0,255
Combo4 : 200,0,200
Combo5 : 230,230,0

[HitObjects]
144,208,669,2,0,L|144:112,2,82.5,0|0|6,3:0|3:0|0:0,0:0:0:0:
308,208,1864,1,2,0:0:0:0:
412,80,2461,2,2,P|336:48|264:80,1,165.000006294251,0|2,0:0|1:0,0:0:0:0:
99,79,3656,5,0,0:0:0:0:
52,236,4254,1,0,0:0:0:0:
188,328,4851,2,0,P|204:244|260:184,1,165.000006294251,0|0,1:0|1:0,0:0:0:0:
400,268,6046,6,0,L|400:100,1,165.000006294251,2|2,0:0|0:0,0:0:0:0:
236,104,7241,1,0,0:0:0:0:
76,148,7839,1,2,0:0:0:0:
44,308,8436,6,0,L|210:308,1,165.000006294251,2|0,1:0|0:0,0:0:0:0:
120,164,9631,2,0,L|285:164,1,165.000006294251,2|0,1:0|0:0,0:0:0:0:
450,164,10826,1,4,0:0:0:0:
440,328,11424,6,0,B|396:356|396:356|332:356|332:356|292:328|292:328,1,165.000006294251,0|0,1:0|0:0,0:0:0:0:
128,344,12619,2,0,L|52:288,1,82.5000031471254,0|8,0:0|0:0,0:0:0:0:
161,163,13515,1,8,0:0:0:0:
271,40,14113,6,0,P|372:42|456:99,1,206.250007867813,8|0,0:0|0:0,0:0:0:0:
456,181,15158,2,0,P|420:209|384:217,1,82.5000031471254,0|0,0:0|0:0,0:0:0:0:
276,160,15905,1,8,0:0:0:0:
200,188,16204,6,2,P|89:224|31:127,1,247.500009441376,2|8,0:0|0:0,0:0:0:0:
123,140,17399,2,0,P|113:217|138:319,1,165.000006294251,2|0,0:0|0:0,0:0:0:0:
204,340,18295,1,8,0:0:0:0:
368,344,18893,6,0,B|368:241|368:241|408:156|312:112|312:112|255:137|244:196,1,371.250014162064,8|2,0:0|0:0,0:0:0:0:
53,266,20984,6,2,P|24:236|12:191,1,82.5000031471254,0|8,0:0|0:0,0:0:0:0:
108,185,21581,2,2,P|146:294|56:364,1,247.500009441376,0|10,0:0|0:0,0:0:0:0:
196,72,23673,6,2,B|244:140|244:140|328:140,1,165.000006294251,8|8,0:0|0:0,0:0:0:0:
440,184,24718,2,0,L|440:268,1,82.5000031471254,2|2,0:0|0:0,0:0:0:0:
320,308,25465,1,8,0:0:0:0:
237,308,25764,6,2,B|153:308|153:308|128:228,1,165.000006294251,2|2,0:0|0:0,0:0:0:0:
264,132,26959,1,2,0:0:0:0:
346,133,27258,6,2,B|430:133|430:133|455:213,1,165.000006294251,2|0,0:0|0:0,0:0:0:0:
256,192,28453,12,4,29946,0:0:0:0:
294,112,30544,5,2,0:0:0:0:
439,34,31141,2,0,P|471:110|442:182,1,165.000006294251,2|2,0:0|0:0,0:0:0:0:
336,312,32336,1,0,0:0:0:0:
170,312,32934,6,0,L|46:312,1,123.750004720688,0|0,0:0|0:0,0:0:0:0:
24,229,33681,1,0,0:0:0:0:
24,146,33980,1,0,0:0:0:0:
46,63,34278,2,0,L|174:63,1,123.750004720688,0|2,0:0|0:0,0:0:0:0:
334,63,35324,5,2,0:0:0:0:
496,64,35921,2,0,P|496:108|480:148,1,82.5000031471254,0|8,0:0|0:0,0:0:0:0:
432,212,36519,1,0,0:0:0:0:
348,220,36818,1,8,0:0:0:0:
280,172,37116,6,2,P|208:300|76:328,1,247.500009441376,2|8,0:0|0:0,0:0:0:0:
44,300,38311,2,0,L|-8:216,1,82.5000031471254,0|8,0:0|0:0,0:0:0:0:
0,147,38909,2,0,L|60:71,1,82.5000031471254,0|8,0:0|0:0,0:0:0:0:
128,64,39506,6,2,B|216:64|216:64|275:5,1,165.000006294251,2|2,0:0|0:0,0:0:0:0:
416,84,40701,2,0,L|292:208,1,165.000006294251,0|2,0:0|0:0,0:0:0:0:
139,236,41896,2,2,P|160:316|228:356,2,165.000006294251,2|0|2,0:0|0:0|0:0,0:0:0:0:
132,72,43689,1,0,0:0:0:0:
40,213,44286,6,0,L|40:305,1,82.5000031471254,2|10,0:0|0:0,0:0:0:0:
128,296,44884,2,0,B|128:212|128:212|188:148,1,165.000006294251,2|0,0:0|1:0,0:0:0:0:
344,136,46079,1,0,0:0:0:0:
428,136,46378,6,2,P|492:240|427:330,1,247.500009441376,8|0,0:0|1:1,0:0:0:0:
344,348,47573,1,8,1:0:0:0:
262,330,47871,1,0,1:0:0:0:
394,234,48469,2,2,P|356:220|304:232,1,82.5000031471254,2|10,0:0|0:0,0:0:0:0:
232,248,49066,6,0,L|232:76,1,165.000006294251,0|0,3:0|1:0,0:0:0:0:
96,184,50261,2,0,P|99:269|153:323,1,165.000006294251,0|0,3:3|1:0,0:0:0:0:
312,324,51456,2,0,P|364:268|361:167,1,165.000006294251,0|0,3:3|1:0,0:0:0:0:
232,75,52651,1,0,1:0:0:0:
184,228,53249,2,2,P|232:173|280:229,1,165.000006294251,2|2,0:0|0:0,0:0:0:0:
432,192,54444,5,0,0:0:0:0:
316,308,55041,1,0,1:0:0:0:
150,308,55639,1,0,0:0:0:0:
5,228,56236,2,2,P|113:192|173:80,1,247.500009441376,2|8,0:0|0:0,0:0:0:0:
250,43,57431,2,0,L|296:120,2,82.5000031471254,0|8|2,0:0|0:0|0:0,0:0:0:0:
412,64,58626,5,4,0:0:0:0:
352,216,59224,1,4,1:3:0:0:
180,216,59821,2,0,P|209:180|209:132,2,82.5000031471254,0|8|0,0:0|0:0|0:0,0:0:0:0:
40,168,61016,6,2,P|80:316|236:342,1,330.000012588501,2|0,0:0|0:0,0:0:0:0:
348,220,62809,1,4,1:3:0:0:
220,116,63406,1,6,2:2:0:0:
