osu file format v12

[General]
AudioFilename: STILLSPLODINTHO.mp3
AudioLeadIn: 2513
PreviewTime: 28721
Countdown: 0
SampleSet: Normal
StackLeniency: 0.7
Mode: 1
LetterboxInBreaks: 0
WidescreenStoryboard: 0

[Editor]
DistanceSpacing: 1.5
BeatDivisor: 4
GridSize: 32

[Metadata]
Title:STILL SPLODIN' THO (Interlude)
TitleUnicode:STILL SPLODIN' THO (Interlude)
Artist:Anamanaguchi
ArtistUnicode:Anamanaguchi
Creator:Liiraye
Version:Donphin Oni
Source:
Tags:Kyshiro Dolphin HanzeR Kin Chiptune Indie rock Endless Fantasy
BeatmapID:274500
BeatmapSetID:104151

[Difficulty]
HPDrainRate:6
CircleSize:4
OverallDifficulty:6
ApproachRate:5
SliderMultiplier:1.4
SliderTickRate:1

[Events]
//Background and Video events
0,0,"background2.png",0,0
//Break Periods
//Storyboard Layer 0 (Background)
//Storyboard Layer 1 (Fail)
//Storyboard Layer 2 (Pass)
//Storyboard Layer 3 (Foreground)
//Storyboard Sound Samples
//Background Colour Transformations
3,100,163,162,255

[TimingPoints]
72,298.749732370031,4,1,0,80,1,0
1266,-100,4,1,0,80,0,1
10826,-100,4,1,0,80,0,0
29946,-100,4,1,0,80,0,1
58626,-100,4,1,0,80,0,0

[Colours]
Combo1 : 200,0,0
Combo2 : 255,128,128
Combo3 : 170,170,255
Combo4 : 200,0,200
Combo5 : 255,255,0

[HitObjects]
256,192,669,1,0,0:0:0:0:
256,192,744,1,0,0:0:0:0:
256,192,818,1,0,0:0:0:0:
256,192,893,1,0,0:0:0:0:
256,192,968,1,0,0:0:0:0:
256,192,1042,1,0,0:0:0:0:
256,192,1117,1,0,0:0:0:0:
256,192,1192,1,0,0:0:0:0:
256,192,1266,1,8,0:0:0:0:
256,192,1416,1,0,0:0:0:0:
256,192,1565,1,8,0:0:0:0:
256,192,1715,1,0,0:0:0:0:
256,192,1789,1,0,0:0:0:0:
256,192,1864,1,8,0:0:0:0:
256,192,2013,1,0,0:0:0:0:
256,192,2163,1,0,0:0:0:0:
256,192,2312,1,8,0:0:0:0:
256,192,2461,1,0,0:0:0:0:
256,192,2611,1,8,0:0:0:0:
256,192,2686,1,0,0:0:0:0:
256,192,2760,1,0,0:0:0:0:
256,192,2910,1,8,0:0:0:0:
256,192,3059,1,0,0:0:0:0:
256,192,3208,1,8,0:0:0:0:
256,192,3283,1,0,0:0:0:0:
256,192,3358,1,8,0:0:0:0:
256,192,3507,1,8,0:0:0:0:
256,192,3656,1,0,0:0:0:0:
256,192,3806,1,8,0:0:0:0:
256,192,3955,1,0,0:0:0:0:
256,192,4030,1,0,0:0:0:0:
256,192,4105,1,8,0:0:0:0:
256,192,4254,1,8,0:0:0:0:
256,192,4403,1,0,0:0:0:0:
256,192,4553,1,8,0:0:0:0:
256,192,4702,1,8,0:0:0:0:
256,192,4777,1,0,0:0:0:0:
256,192,4851,1,0,0:0:0:0:
256,192,5001,1,8,0:0:0:0:
256,192,5150,1,0,0:0:0:0:
256,192,5300,1,8,0:0:0:0:
256,192,5374,1,0,0:0:0:0:
256,192,5449,1,0,0:0:0:0:
256,192,5598,1,8,0:0:0:0:
256,192,5748,1,8,0:0:0:0:
256,192,5897,1,0,0:0:0:0:
256,192,5972,1,0,0:0:0:0:
256,192,6046,1,8,0:0:0:0:
256,192,6196,1,0,0:0:0:0:
256,192,6345,1,8,0:0:0:0:
256,192,6495,1,0,0:0:0:0:
256,192,6569,1,0,0:0:0:0:
256,192,6644,1,8,0:0:0:0:
256,192,6793,1,0,0:0:0:0:
256,192,6943,1,0,0:0:0:0:
256,192,7092,1,8,0:0:0:0:
256,192,7241,1,0,0:0:0:0:
256,192,7391,1,8,0:0:0:0:
256,192,7466,1,0,0:0:0:0:
256,192,7540,1,0,0:0:0:0:
256,192,7690,1,8,0:0:0:0:
256,192,7839,1,0,0:0:0:0:
256,192,7988,1,8,0:0:0:0:
256,192,8063,1,0,0:0:0:0:
256,192,8138,1,8,0:0:0:0:
256,192,8287,1,8,0:0:0:0:
256,192,8436,1,0,0:0:0:0:
256,192,8586,1,8,0:0:0:0:
256,192,8735,1,0,0:0:0:0:
256,192,8810,1,0,0:0:0:0:
256,192,8885,1,8,0:0:0:0:
256,192,9034,1,8,0:0:0:0:
256,192,9183,1,0,0:0:0:0:
256,192,9333,1,8,0:0:0:0:
256,192,9482,1,8,0:0:0:0:
256,192,9557,1,0,0:0:0:0:
256,192,9631,1,0,0:0:0:0:
256,192,9781,1,8,0:0:0:0:
256,192,9930,1,0,0:0:0:0:
256,192,10080,1,8,0:0:0:0:
256,192,10154,1,0,0:0:0:0:
256,192,10229,1,0,0:0:0:0:
256,192,10378,1,8,0:0:0:0:
256,192,10528,1,8,0:0:0:0:
256,192,10677,1,8,0:0:0:0:
256,192,10752,1,8,0:0:0:0:
256,192,10826,1,0,0:0:0:0:
256,192,11125,1,8,0:0:0:0:
256,192,11424,1,0,0:0:0:0:
256,192,11723,1,8,0:0:0:0:
256,192,12021,1,8,0:0:0:0:
256,192,12320,1,8,0:0:0:0:
256,192,12619,1,0,0:0:0:0:
256,192,12918,1,8,0:0:0:0:
256,192,13515,1,8,0:0:0:0:
256,192,13814,1,0,0:0:0:0:
256,192,14113,1,8,0:0:0:0:
256,192,14262,1,0,0:0:0:0:
256,192,14411,1,8,0:0:0:0:
256,192,14710,1,0,0:0:0:0:
256,192,14860,1,8,0:0:0:0:
256,192,15158,1,8,0:0:0:0:
256,192,15308,1,8,0:0:0:0:
256,192,15457,1,0,0:0:0:0:
256,192,15905,1,8,0:0:0:0:
256,192,16204,1,0,0:0:0:0:
256,192,16503,1,8,0:0:0:0:
256,192,16801,1,8,0:0:0:0:
256,192,17100,1,8,0:0:0:0:
256,192,17399,1,0,0:0:0:0:
256,192,17698,1,8,0:0:0:0:
256,192,18295,1,8,0:0:0:0:
256,192,18594,1,0,0:0:0:0:
256,192,18893,1,8,0:0:0:0:
256,192,19042,1,0,0:0:0:0:
256,192,19191,1,0,0:0:0:0:
256,192,19490,1,0,0:0:0:0:
256,192,19640,1,8,0:0:0:0:
256,192,19938,1,8,0:0:0:0:
256,192,20088,1,8,0:0:0:0:
256,192,20237,1,0,0:0:0:0:
256,192,20685,1,8,0:0:0:0:
256,192,20984,1,0,0:0:0:0:
256,192,21283,1,8,0:0:0:0:
256,192,21581,1,8,0:0:0:0:
256,192,21880,1,8,0:0:0:0:
256,192,22179,1,0,0:0:0:0:
256,192,22478,1,8,0:0:0:0:
256,192,23075,1,8,0:0:0:0:
256,192,23374,1,0,0:0:0:0:
256,192,23673,1,8,0:0:0:0:
256,192,23822,1,0,0:0:0:0:
256,192,23971,1,8,0:0:0:0:
256,192,24270,1,0,0:0:0:0:
256,192,24420,1,8,0:0:0:0:
256,192,24718,1,8,0:0:0:0:
256,192,24868,1,8,0:0:0:0:
256,192,25017,1,0,0:0:0:0:
256,192,25465,1,8,0:0:0:0:
256,192,25764,1,0,0:0:0:0:
256,192,26063,1,8,0:0:0:0:
256,192,26361,1,8,0:0:0:0:
256,192,26660,1,8,0:0:0:0:
256,192,26959,1,0,0:0:0:0:
256,192,27258,1,8,0:0:0:0:
256,192,27855,1,8,0:0:0:0:
256,192,28154,1,0,0:0:0:0:
256,192,28453,1,0,0:0:0:0:
256,192,28602,1,8,0:0:0:0:
256,192,28751,1,8,0:0:0:0:
256,192,28901,1,0,0:0:0:0:
256,192,29050,1,0,0:0:0:0:
256,192,29200,1,8,0:0:0:0:
256,192,29349,1,8,0:0:0:0:
256,192,29498,1,0,0:0:0:0:
256,192,29648,1,8,0:0:0:0:
256,192,29722,1,8,0:0:0:0:
256,192,29797,1,8,0:0:0:0:
256,192,29872,1,8,0:0:0:0:
256,192,29946,1,8,0:0:0:0:
256,192,30096,1,0,0:0:0:0:
256,192,30245,1,8,0:0:0:0:
256,192,30395,1,0,0:0:0:0:
256,192,30469,1,0,0:0:0:0:
256,192,30544,1,8,0:0:0:0:
256,192,30693,1,0,0:0:0:0:
256,192,30843,1,8,0:0:0:0:
256,192,30992,1,8,0:0:0:0:
256,192,31067,1,8,0:0:0:0:
256,192,31141,1,0,0:0:0:0:
256,192,31291,1,0,0:0:0:0:
256,192,31440,1,8,0:0:0:0:
256,192,31590,1,8,0:0:0:0:
256,192,31739,1,0,0:0:0:0:
256,192,31888,1,0,0:0:0:0:
256,192,31963,1,0,0:0:0:0:
256,192,32038,1,8,0:0:0:0:
256,192,32112,1,0,0:0:0:0:
256,192,32187,1,8,0:0:0:0:
256,192,32336,1,0,0:0:0:0:
256,192,32486,1,8,0:0:0:0:
256,192,32561,1,8,0:0:0:0:
256,192,32635,1,0,0:0:0:0:
256,192,32785,1,0,0:0:0:0:
256,192,32934,1,8,0:0:0:0:
256,192,33083,1,0,0:0:0:0:
256,192,33158,1,0,0:0:0:0:
256,192,33233,1,8,0:0:0:0:
256,192,33382,1,8,0:0:0:0:
256,192,33531,1,0,0:0:0:0:
256,192,33681,1,8,0:0:0:0:
256,192,33756,1,8,0:0:0:0:
256,192,33830,1,0,0:0:0:0:
256,192,33980,1,8,0:0:0:0:
256,192,34054,1,8,0:0:0:0:
256,192,34129,1,0,0:0:0:0:
256,192,34278,1,8,0:0:0:0:
256,192,34353,1,8,0:0:0:0:
256,192,34428,1,8,0:0:0:0:
256,192,34577,1,8,0:0:0:0:
256,192,34726,1,8,0:0:0:0:
256,192,34876,1,0,0:0:0:0:
256,192,35025,1,8,0:0:0:0:
256,192,35175,1,0,0:0:0:0:
256,192,35249,1,0,0:0:0:0:
256,192,35324,1,8,0:0:0:0:
256,192,35473,1,0,0:0:0:0:
256,192,35623,1,8,0:0:0:0:
256,192,35772,1,8,0:0:0:0:
256,192,35847,1,8,0:0:0:0:
256,192,35921,1,0,0:0:0:0:
256,192,36071,1,0,0:0:0:0:
256,192,36220,1,8,0:0:0:0:
256,192,36370,1,8,0:0:0:0:
256,192,36519,1,0,0:0:0:0:
256,192,36668,1,0,0:0:0:0:
256,192,36743,1,0,0:0:0:0:
256,192,36818,1,8,0:0:0:0:
256,192,36892,1,0,0:0:0:0:
256,192,36967,1,8,0:0:0:0:
256,192,37116,1,0,0:0:0:0:
256,192,37266,1,8,0:0:0:0:
256,192,37341,1,8,0:0:0:0:
256,192,37415,1,0,0:0:0:0:
256,192,37565,1,0,0:0:0:0:
256,192,37714,1,8,0:0:0:0:
256,192,37863,1,0,0:0:0:0:
256,192,37938,1,0,0:0:0:0:
256,192,38013,1,8,0:0:0:0:
256,192,38162,1,8,0:0:0:0:
256,192,38311,1,0,0:0:0:0:
256,192,38461,1,8,0:0:0:0:
256,192,38536,1,0,0:0:0:0:
256,192,38610,1,0,0:0:0:0:
256,192,38685,1,0,0:0:0:0:
256,192,38760,1,0,0:0:0:0:
256,192,38834,1,0,0:0:0:0:
256,192,38909,1,0,0:0:0:0:
256,192,38984,1,0,0:0:0:0:
256,192,39058,1,0,0:0:0:0:
256,192,39133,1,0,0:0:0:0:
256,192,39208,1,0,0:0:0:0:
256,192,39282,1,0,0:0:0:0:
256,192,39357,1,0,0:0:0:0:
256,192,39432,1,0,0:0:0:0:
256,192,39506,1,8,0:0:0:0:
256,192,39656,1,0,0:0:0:0:
256,192,39805,1,8,0:0:0:0:
256,192,39955,1,0,0:0:0:0:
256,192,40029,1,0,0:0:0:0:
256,192,40104,1,8,0:0:0:0:
256,192,40253,1,0,0:0:0:0:
256,192,40403,1,8,0:0:0:0:
256,192,40552,1,8,0:0:0:0:
256,192,40627,1,8,0:0:0:0:
256,192,40701,1,0,0:0:0:0:
256,192,40851,1,0,0:0:0:0:
256,192,41000,1,8,0:0:0:0:
256,192,41150,1,8,0:0:0:0:
256,192,41299,1,0,0:0:0:0:
256,192,41448,1,0,0:0:0:0:
256,192,41523,1,0,0:0:0:0:
256,192,41598,1,8,0:0:0:0:
256,192,41672,1,0,0:0:0:0:
256,192,41747,1,8,0:0:0:0:
256,192,41896,1,0,0:0:0:0:
256,192,42046,1,8,0:0:0:0:
256,192,42121,1,8,0:0:0:0:
256,192,42195,1,0,0:0:0:0:
256,192,42345,1,0,0:0:0:0:
256,192,42494,1,8,0:0:0:0:
256,192,42643,1,0,0:0:0:0:
256,192,42718,1,0,0:0:0:0:
256,192,42793,1,8,0:0:0:0:
256,192,42942,1,8,0:0:0:0:
256,192,43091,1,0,0:0:0:0:
256,192,43241,1,8,0:0:0:0:
256,192,43316,1,8,0:0:0:0:
256,192,43390,1,0,0:0:0:0:
256,192,43540,1,8,0:0:0:0:
256,192,43614,1,8,0:0:0:0:
256,192,43689,1,0,0:0:0:0:
256,192,43838,1,8,0:0:0:0:
256,192,43913,1,8,0:0:0:0:
256,192,43988,1,8,0:0:0:0:
256,192,44137,1,8,0:0:0:0:
256,192,44286,1,8,0:0:0:0:
256,192,44436,1,0,0:0:0:0:
256,192,44585,1,8,0:0:0:0:
256,192,44735,1,0,0:0:0:0:
256,192,44809,1,0,0:0:0:0:
256,192,44884,1,8,0:0:0:0:
256,192,45033,1,0,0:0:0:0:
256,192,45183,1,8,0:0:0:0:
256,192,45332,1,8,0:0:0:0:
256,192,45407,1,8,0:0:0:0:
256,192,45481,1,0,0:0:0:0:
256,192,45631,1,0,0:0:0:0:
256,192,45780,1,8,0:0:0:0:
256,192,45930,1,8,0:0:0:0:
256,192,46079,1,0,0:0:0:0:
256,192,46228,1,0,0:0:0:0:
256,192,46303,1,0,0:0:0:0:
256,192,46378,1,8,0:0:0:0:
256,192,46452,1,0,0:0:0:0:
256,192,46527,1,8,0:0:0:0:
256,192,46676,1,0,0:0:0:0:
256,192,46826,1,8,0:0:0:0:
256,192,46901,1,8,0:0:0:0:
256,192,46975,1,0,0:0:0:0:
256,192,47125,1,0,0:0:0:0:
256,192,47274,1,8,0:0:0:0:
256,192,47423,1,0,0:0:0:0:
256,192,47498,1,0,0:0:0:0:
256,192,47573,1,8,0:0:0:0:
256,192,47722,1,8,0:0:0:0:
256,192,47871,1,0,0:0:0:0:
256,192,48021,1,8,0:0:0:0:
256,192,48096,1,8,0:0:0:0:
256,192,48170,1,0,0:0:0:0:
256,192,48320,1,8,0:0:0:0:
256,192,48394,1,8,0:0:0:0:
256,192,48469,1,0,0:0:0:0:
256,192,48618,1,8,0:0:0:0:
256,192,48693,1,8,0:0:0:0:
256,192,48768,1,8,0:0:0:0:
256,192,48917,1,8,0:0:0:0:
256,192,48992,1,8,0:0:0:0:
256,192,49066,1,0,0:0:0:0:
256,192,49141,1,0,0:0:0:0:
256,192,49216,1,0,0:0:0:0:
256,192,49291,1,0,0:0:0:0:
256,192,49365,1,8,0:0:0:0:
256,192,49515,1,8,0:0:0:0:
256,192,49664,1,0,0:0:0:0:
256,192,49813,1,0,0:0:0:0:
256,192,49963,1,8,0:0:0:0:
256,192,50112,1,8,0:0:0:0:
256,192,50261,1,0,0:0:0:0:
256,192,50411,1,8,0:0:0:0:
256,192,50560,1,0,0:0:0:0:
256,192,50710,1,8,0:0:0:0:
256,192,50859,1,0,0:0:0:0:
256,192,51008,1,0,0:0:0:0:
256,192,51158,1,8,0:0:0:0:
256,192,51307,1,8,0:0:0:0:
256,192,51456,1,0,0:0:0:0:
256,192,51606,1,0,0:0:0:0:
256,192,51681,1,0,0:0:0:0:
256,192,51755,1,8,0:0:0:0:
256,192,51905,1,8,0:0:0:0:
256,192,52054,1,0,0:0:0:0:
256,192,52203,1,8,0:0:0:0:
256,192,52353,1,8,0:0:0:0:
256,192,52502,1,0,0:0:0:0:
256,192,52651,1,0,0:0:0:0:
256,192,52801,1,0,0:0:0:0:
256,192,52950,1,8,0:0:0:0:
256,192,53100,1,0,0:0:0:0:
256,192,53174,1,0,0:0:0:0:
256,192,53249,1,0,0:0:0:0:
256,192,53398,1,0,0:0:0:0:
256,192,53548,1,8,0:0:0:0:
256,192,53622,1,8,0:0:0:0:
256,192,53697,1,0,0:0:0:0:
256,192,53772,1,0,0:0:0:0:
256,192,53846,1,0,0:0:0:0:
256,192,53921,1,0,0:0:0:0:
256,192,53996,1,0,0:0:0:0:
256,192,54071,1,0,0:0:0:0:
256,192,54145,1,8,0:0:0:0:
256,192,54295,1,0,0:0:0:0:
256,192,54369,1,0,0:0:0:0:
256,192,54444,1,0,0:0:0:0:
256,192,54593,1,0,0:0:0:0:
256,192,54743,1,8,0:0:0:0:
256,192,54892,1,0,0:0:0:0:
256,192,55041,1,0,0:0:0:0:
256,192,55191,1,0,0:0:0:0:
256,192,55340,1,8,0:0:0:0:
256,192,55490,1,0,0:0:0:0:
256,192,55639,1,0,0:0:0:0:
256,192,55788,1,0,0:0:0:0:
256,192,55938,1,8,0:0:0:0:
256,192,56087,1,0,0:0:0:0:
256,192,56236,1,0,0:0:0:0:
256,192,56311,1,0,0:0:0:0:
256,192,56386,1,0,0:0:0:0:
256,192,56461,1,0,0:0:0:0:
256,192,56535,1,8,0:0:0:0:
256,192,56610,1,8,0:0:0:0:
256,192,56685,1,8,0:0:0:0:
256,192,56759,1,8,0:0:0:0:
256,192,56834,1,0,0:0:0:0:
256,192,56909,1,0,0:0:0:0:
256,192,56983,1,0,0:0:0:0:
256,192,57058,1,0,0:0:0:0:
256,192,57133,1,8,0:0:0:0:
256,192,57207,1,8,0:0:0:0:
256,192,57282,1,8,0:0:0:0:
256,192,57357,1,8,0:0:0:0:
256,192,57431,1,0,0:0:0:0:
256,192,57506,1,0,0:0:0:0:
256,192,57581,1,0,0:0:0:0:
256,192,57656,1,0,0:0:0:0:
256,192,57730,1,8,0:0:0:0:
256,192,57805,1,8,0:0:0:0:
256,192,57880,1,8,0:0:0:0:
256,192,57954,1,8,0:0:0:0:
256,192,58029,1,0,0:0:0:0:
256,192,58104,1,0,0:0:0:0:
256,192,58178,1,0,0:0:0:0:
256,192,58253,1,0,0:0:0:0:
256,192,58328,1,8,0:0:0:0:
256,192,58402,1,8,0:0:0:0:
256,192,58477,1,8,0:0:0:0:
256,192,58552,1,8,0:0:0:0:
256,192,58626,1,0,0:0:0:0:
