osu file format v12

[General]
AudioFilename: 10 SPF 420.mp3
AudioLeadIn: 1985
PreviewTime: 7856
Countdown: 0
SampleSet: Soft
StackLeniency: 0.7
Mode: 0
LetterboxInBreaks: 0
WidescreenStoryboard: 1

[Editor]
Bookmarks: 14236,47192
DistanceSpacing: 1
BeatDivisor: 2
GridSize: 4

[Metadata]
Title:SPF 420
TitleUnicode:SPF 420
Artist:Anamanaguchi
ArtistUnicode:Anamanaguchi
Creator:Sushi
Version:Normal
Source:
Tags:Endless Fantasy
BeatmapID:295622
BeatmapSetID:109024

[Difficulty]
HPDrainRate:3
CircleSize:3
OverallDifficulty:3
ApproachRate:6
SliderMultiplier:1.2
SliderTickRate:2

[Events]
//Background and Video events
0,0,"Endless Fantasy.jpg",0,0
//Break Periods
//Storyboard Layer 0 (Background)
//Storyboard Layer 1 (Fail)
//Storyboard Layer 2 (Pass)
//Storyboard Layer 3 (Foreground)
//Storyboard Sound Samples
//Background Colour Transformations
3,100,0,0,0

[TimingPoints]
16,326.441784548422,4,2,1,100,1,0
2627,-100,4,2,1,100,0,1
13073,-100,4,2,1,100,0,0
26784,-133.333333333333,4,2,1,100,0,0
28742,-100,4,2,1,100,0,0
33965,-100,4,2,1,100,0,1
44412,-100,4,2,1,100,0,0
49635,-133.333333333333,4,2,1,100,0,0
53552,-100,4,2,1,100,0,0
58122,-133.333333333333,4,2,1,100,0,0
59918,-100,4,2,1,100,0,0
63345,-133.333333333333,4,2,1,100,0,0
65141,-100,4,2,1,100,0,0
68568,-133.333333333333,4,2,1,100,0,0
70364,-100,4,2,1,100,0,0
77056,-133.333333333333,4,2,1,100,0,0
77709,-125,4,2,1,100,0,0
78362,-125,4,1,1,100,0,0
88808,-100,4,1,1,100,0,0
98438,-100,4,2,1,100,0,0
99254,-100,4,2,1,100,0,1
120309,-100,4,2,1,100,0,0

[Colours]
Combo1 : 106,106,255
Combo2 : 255,102,255
Combo3 : 0,249,249
Combo4 : 255,145,34

[HitObjects]
104,304,16,5,0,0:0:0:0:
192,384,342,1,0,0:0:0:0:
320,384,668,1,0,0:0:0:0:
408,304,995,2,0,L|456:268,2,60,0|0|8,0:0|0:0|0:0,0:0:0:0:
328,216,1648,5,0,0:0:0:0:
296,164,1811,1,0,0:0:0:0:
252,124,1974,2,0,P|208:96|144:108,1,120,2|2,0:0|0:0,0:0:0:0:
68,196,2627,5,0,0:0:0:0:
52,252,2790,1,2,0:0:0:0:
60,312,2953,2,0,P|120:368|172:356,1,120,8|2,0:0|0:0,0:0:0:0:
204,332,3443,1,0,0:0:0:0:
264,328,3606,2,0,P|320:336|392:300,2,120,8|2|8,0:0|0:0|0:0,0:0:0:0:
180,212,4586,5,6,0:0:0:0:
260,92,4912,1,12,0:3:0:0:
376,176,5239,2,0,P|364:272|278:289,1,180,4|0,0:3|0:0,0:0:0:0:
308,216,5891,2,0,P|212:204|195:118,1,180,2|0,0:0|0:0,0:0:0:0:
268,148,6544,6,0,P|280:52|366:35,1,180,0|2,0:0|0:0,0:0:0:0:
336,108,7197,2,0,P|432:120|452:168,1,120,0|8,0:0|0:0,0:0:0:0:
452,252,7850,5,6,0:0:0:0:
408,292,8013,1,0,0:0:0:0:
352,316,8177,2,0,P|276:320|228:296,1,120,8|2,0:0|0:0,0:0:0:0:
184,272,8666,1,0,0:0:0:0:
136,236,8829,2,0,P|84:208|8:216,2,120,8|2|8,0:0|0:0|0:0,0:0:0:0:
256,216,9809,5,6,0:0:0:0:
380,140,10135,1,12,0:3:0:0:
256,64,10462,2,0,P|160:76|143:162,1,180,4|2,0:0|0:0,0:0:0:0:
216,132,11115,2,0,P|228:228|314:245,1,180,0|0,0:0|0:0,0:0:0:0:
284,172,11767,6,0,P|380:160|397:74,1,180,0|2,0:0|0:0,0:0:0:0:
324,104,12420,2,0,P|312:8|264:-12,1,120,0|8,0:0|0:0,0:0:0:0:
160,32,13073,5,4,0:0:0:0:
104,48,13236,1,0,0:0:0:0:
52,80,13400,2,0,P|0:152|36:228,1,180,10|2,0:0|0:0,0:0:0:0:
124,308,14216,6,0,P|184:328|236:308,1,120,2|2,0:0|0:0,0:0:0:0:
272,260,14705,1,8,0:0:0:0:
328,152,15032,1,2,0:0:0:0:
268,48,15358,1,8,0:0:0:0:
148,56,15685,6,2,L|80:32,2,60,2|2|14,0:0|0:0|0:0,0:0:0:0:
56,132,16338,2,0,P|24:192|40:264,1,120,0|14,0:0|0:0,0:0:0:0:
116,324,16990,6,0,L|96:380,2,60,0|2|14,0:0|0:0|0:3,0:0:0:0:
136,268,17480,2,0,P|188:216|252:284,1,180,0|12,0:0|0:0,0:0:0:0:
368,312,18296,5,0,0:0:0:0:
412,272,18459,1,0,0:0:0:0:
432,216,18623,2,0,P|436:148|344:100,1,180,10|2,0:0|0:0,0:0:0:0:
332,220,19439,6,0,P|276:264|224:264,1,120,2|2,0:0|0:0,0:0:0:0:
176,240,19928,1,8,0:0:0:0:
80,168,20255,1,2,0:0:0:0:
104,52,20581,1,8,0:0:0:0:
224,44,20908,6,2,L|268:124,2,60,2|2|14,0:0|0:0|0:0,0:0:0:0:
340,68,21561,2,0,P|392:88|416:152,1,120,0|14,0:0|0:0,0:0:0:0:
368,252,22214,6,0,L|404:332,2,60,0|2|12,0:0|0:0|0:3,0:0:0:0:
340,200,22703,2,0,P|224:200|220:256,1,180,0|12,0:0|0:0,0:0:0:0:
112,296,23519,6,0,L|148:348,2,60,2|0|10,0:0|0:0|0:0,0:0:0:0:
80,244,24009,1,0,0:0:0:0:
52,192,24172,2,0,P|52:112|96:92,2,120,2|10|2,0:0|0:0|0:0,0:0:0:0:
112,180,24988,5,0,0:0:0:0:
172,168,25152,2,0,P|236:160|288:180,1,120,10|2,0:0|0:0,0:0:0:0:
336,216,25641,1,2,0:0:0:0:
276,320,25968,2,0,P|156:336|112:296,1,180,4|8,0:3|0:0,0:0:0:0:
128,168,26784,6,0,P|144:100|244:80,2,180.000006866455,2|2|2,0:0|0:0|0:0,0:0:0:0:
256,328,28742,5,4,0:0:0:0:
312,300,28906,1,0,0:0:0:0:
372,304,29069,2,0,P|456:312|464:224,1,180,10|2,0:0|0:0,0:0:0:0:
372,168,29885,6,0,L|252:168,1,120,2|0,0:0|0:0,0:0:0:0:
192,168,30375,2,0,P|140:148|120:88,2,120,10|0|10,0:0|0:0|0:0,0:0:0:0:
256,68,31354,2,2,L|272:8,2,60,2|2|14,0:0|0:0|0:0,0:0:0:0:
372,40,32007,2,0,P|440:40|472:88,1,120,0|14,0:0|0:0,0:0:0:0:
424,188,32660,6,0,L|476:244,2,60,0|2|12,0:0|0:0|0:3,0:0:0:0:
380,148,33149,2,0,P|280:144|256:212,1,180,0|8,0:0|0:0,0:0:0:0:
184,332,33965,5,2,0:0:0:0:
124,340,34129,1,0,0:0:0:0:
72,312,34292,2,0,P|24:244|24:204,1,120,8|2,0:0|0:0,0:0:0:0:
24,148,34782,1,0,0:0:0:0:
48,92,34945,2,0,P|91:53|152:56,2,120,8|2|8,0:0|0:0|0:0,0:0:0:0:
132,176,35924,5,6,0:0:0:0:
236,276,36251,1,12,0:3:0:0:
300,152,36577,2,0,P|374:95|451:150,1,180,4|2,0:3|0:0,0:0:0:0:
376,176,37230,2,0,P|302:233|225:178,1,180,0|0,0:0|0:0,0:0:0:0:
216,128,37883,6,0,P|142:71|65:126,1,180,0|2,0:0|0:0,0:0:0:0:
140,152,38536,2,0,P|108:216|132:272,1,120,0|10,0:0|0:0,0:0:0:0:
232,348,39189,5,6,0:0:0:0:
288,364,39352,1,0,0:0:0:0:
344,340,39515,2,0,P|392:300|404:240,1,120,8|2,0:0|0:0,0:0:0:0:
400,184,40005,1,0,0:0:0:0:
376,128,40168,2,0,P|352:88|276:68,2,120,8|2|8,0:0|0:0|0:0,0:0:0:0:
272,188,41147,5,6,0:0:0:0:
144,252,41474,1,12,0:3:0:0:
80,124,41800,2,0,P|154:66|231:122,1,180,4|2,0:0|0:0,0:0:0:0:
156,148,42453,2,0,P|243:179|300:103,1,180,0|0,0:0|0:0,0:0:0:0:
333,60,43106,6,0,P|407:2|484:57,1,180,0|2,0:0|0:0,0:0:0:0:
409,84,43759,2,0,P|440:148|417:203,1,120,0|8,0:0|0:0,0:0:0:0:
340,276,44412,5,4,0:0:0:0:
284,296,44575,1,0,0:0:0:0:
224,292,44738,2,0,P|160:272|132:172,1,180,10|2,0:0|0:0,0:0:0:0:
216,84,45554,6,0,P|288:136|336:108,1,120,2|0,0:0|0:0,0:0:0:0:
364,100,46044,1,10,0:0:0:0:
472,156,46370,1,2,0:0:0:0:
456,276,46697,1,8,0:0:0:0:
344,312,47023,6,2,L|324:368,2,60,2|2|10,0:0|0:0|0:0,0:0:0:0:
224,336,47676,2,0,P|136:352|96:352,1,120,0|10,0:0|0:0,0:0:0:0:
24,264,48329,6,0,L|-40:276,2,60,0|0|8,0:0|0:0|0:0,0:0:0:0:
84,252,48819,2,0,P|196:224|260:192,1,180,0|8,0:0|0:0,0:0:0:0:
384,116,49635,6,0,P|428:108|480:132,2,90.0000034332277,4|2|2,0:3|0:0|0:0,0:0:0:0:
404,204,50614,1,0,0:0:0:0:
412,248,50777,2,0,P|412:312|352:336,1,135.000005149841,2|0,0:0|0:0,0:0:0:0:
264,336,51593,1,2,0:0:0:0:
172,336,51920,1,2,0:0:0:0:
116,264,52246,6,0,P|80:196|80:168,2,90.0000034332277,2|0|2,0:0|0:0|0:0,0:0:0:0:
180,200,53226,1,0,0:0:0:0:
240,136,53552,6,0,L|288:80,2,60,8|0|0,0:0|0:0|0:0,0:0:0:0:
332,160,54205,2,0,L|400:136,2,60,0|0|0,0:0|0:0|0:0,0:0:0:0:
304,200,54694,1,0,0:0:0:0:
300,248,54858,5,6,0:0:0:0:
232,348,55184,2,0,P|132:328|116:296,1,120,10|2,0:0|0:0,0:0:0:0:
172,208,55837,2,0,P|124:173|66:180,1,120,10|2,0:0|0:0,0:0:0:0:
56,60,56490,6,0,P|157:59|179:31,1,120,10|2,0:0|0:0,0:0:0:0:
208,12,56980,1,2,0:0:0:0:
320,48,57306,2,0,P|376:80|396:200,1,180,4|8,0:3|0:0,0:0:0:0:
304,316,58122,6,0,P|212:328|176:256,2,180.000006866455,2|2|2,0:0|0:0|0:0,0:0:0:0:
316,164,60081,6,0,P|391:152|428:201,2,120,6|10|2,0:0|0:0|0:0,0:0:0:0:
300,224,60897,1,0,0:0:0:0:
268,272,61060,6,0,P|210:321|153:299,2,120,10|2|10,0:0|0:0|0:0,0:0:0:0:
228,224,61876,1,0,0:0:0:0:
176,196,62039,6,0,L|112:164,1,60,2|2,0:0|0:0,0:0:0:0:
40,84,62529,2,0,P|124:40|204:64,1,180,4|8,0:3|0:0,0:0:0:0:
356,80,63345,6,0,P|424:92|432:196,2,180.000006866455,2|2|2,0:0|0:0|0:0,0:0:0:0:
220,280,65304,6,0,P|128:300|92:252,1,120,6|10,0:0|0:0,0:0:0:0:
80,240,65794,1,0,0:0:0:0:
100,184,65957,2,0,P|150:155|206:174,1,120,2|10,0:0|0:0,0:0:0:0:
244,220,66446,1,0,0:0:0:0:
284,264,66610,6,0,P|339:282|390:254,1,120,2|10,0:0|0:0,0:0:0:0:
420,204,67099,1,0,0:0:0:0:
424,144,67263,2,0,P|416:112|392:84,1,60,2|2,0:0|0:0,0:0:0:0:
296,32,67752,2,0,P|212:40|216:136,1,180,4|8,0:3|0:0,0:0:0:0:
148,268,68568,6,0,P|184:336|284:336,2,180.000006866455,2|2|2,0:0|0:0|0:0,0:0:0:0:
248,52,70527,5,4,0:0:0:0:
308,44,70690,1,0,0:0:0:0:
364,64,70853,2,0,P|424:96|404:196,1,180,10|2,0:0|0:0,0:0:0:0:
336,276,71669,6,0,P|276:292|212:268,1,120,2|0,0:0|0:0,0:0:0:0:
168,252,72159,2,0,P|111:235|54:251,2,120,10|2|8,0:0|0:0|0:0,0:0:0:0:
268,184,73138,6,2,L|336:212,2,60,2|2|14,0:0|0:0|0:0,0:0:0:0:
372,128,73791,2,0,P|424:120|444:188,1,120,0|14,0:0|0:3,0:0:0:0:
444,292,74444,6,0,L|508:336,2,60,0|2|12,0:0|0:0|0:0,0:0:0:0:
392,260,74934,2,0,P|336:248|280:340,1,180,0|12,0:0|0:0,0:0:0:0:
148,356,75750,6,0,L|60:356,2,60,2|0|8,0:0|0:0|0:0,0:0:0:0:
200,324,76240,1,0,0:0:0:0:
248,288,76403,2,0,L|332:288,2,60,2|0|8,0:0|0:0|0:0,0:0:0:0:
200,252,76893,1,0,0:0:0:0:
152,212,77056,6,0,P|104:160|168:88,1,180.000006866455,2|0,0:0|0:0,0:0:0:0:
260,76,78035,1,8,0:0:0:0:
356,88,78362,6,0,P|400:156|384:224,1,144,2|0,0:0|0:0,0:0:0:0:
368,256,79014,1,0,0:0:0:0:
280,292,79341,1,10,0:0:0:0:
184,292,79667,2,0,P|72:264|76:148,1,240,0|2,0:0|0:0,0:0:0:0:
100,116,80647,5,8,0:0:0:0:
176,56,80973,1,4,0:2:0:0:
344,144,81626,1,4,0:3:0:0:
332,240,81952,1,8,0:0:0:0:
252,292,82279,2,0,P|183:317|106:283,2,144,4|8|8,0:2|0:0|0:0,0:0:0:0:
184,212,83585,5,4,0:3:0:0:
88,192,83911,1,8,0:0:0:0:
60,100,84237,1,0,0:0:0:0:
80,56,84401,2,0,P|109:29|189:28,2,96,2|0|2,0:0|0:0|0:0,0:0:0:0:
152,116,85380,5,0,0:0:0:0:
192,140,85543,1,2,0:0:0:0:
240,136,85706,1,2,0:0:0:0:
328,96,86033,2,0,P|436:72|456:96,2,144,4|8|2,0:2|0:0|0:0,0:0:0:0:
340,144,87175,2,0,P|380:200|328:268,1,144,8|0,0:0|0:0,0:0:0:0:
304,276,87828,5,8,0:0:0:0:
208,292,88155,1,8,0:0:0:0:
116,264,88481,1,8,0:0:0:0:
72,176,88808,6,0,P|84:88|160:96,1,180,6|2,0:2|0:0,0:0:0:0:
208,124,89461,1,0,0:0:0:0:
324,92,89787,1,10,0:0:0:0:
428,156,90113,2,0,P|476:256|320:328,1,300,0|0,0:0|0:0,0:0:0:0:
288,308,91093,5,10,0:0:0:0:
228,296,91256,1,0,0:0:0:0:
168,300,91419,2,0,P|64:320|48:312,1,120,4|8,0:3|0:0,0:0:0:0:
96,204,92072,2,0,P|200:184|216:192,1,120,4|8,0:3|0:0,0:0:0:0:
320,236,92725,6,0,P|378:245|431:219,1,120,4|8,0:2|0:0,0:0:0:0:
448,160,93215,1,2,0:0:0:0:
372,68,93541,1,0,0:0:0:0:
256,192,94031,12,0,95826,0:0:0:0:
68,240,96479,6,0,P|257:366|444:240,1,480,2|2,0:2|0:0,0:0:0:0:
456,180,97948,1,0,0:0:0:0:
400,72,98274,5,8,0:0:0:0:
348,40,98438,1,2,0:0:0:0:
292,24,98601,2,0,P|204:24|168:48,1,120,8|8,0:0|0:0,0:0:0:0:
88,120,99254,5,4,0:3:0:0:
72,176,99417,1,0,0:0:0:0:
60,236,99580,2,0,P|92:300|136:308,1,120,8|2,0:0|0:0,0:0:0:0:
192,292,100070,1,0,0:0:0:0:
248,268,100233,2,0,P|304:252|380:276,2,120,8|2|8,0:0|0:0|0:0,0:0:0:0:
152,196,101212,5,6,0:0:0:0:
204,64,101539,1,12,0:3:0:0:
340,112,101865,2,0,P|389:195|332:261,1,180,4|2,0:3|0:0,0:0:0:0:
311,185,102518,2,0,P|227:234|161:177,1,180,0|0,0:0|0:0,0:0:0:0:
237,156,103171,6,0,P|187:72|196:48,1,120,0|8,0:0|0:0,0:0:0:0:
304,16,103824,2,0,P|340:12|376:16,2,60,8|0|8,0:0|0:0|0:0,0:0:0:0:
368,116,104477,5,6,0:0:0:0:
392,172,104640,1,0,0:0:0:0:
376,228,104803,2,0,P|352:280|272:296,1,120,8|2,0:0|0:0,0:0:0:0:
236,288,105293,1,0,0:0:0:0:
176,272,105456,2,0,P|124:272|72:332,2,120,8|2|8,0:0|0:0|0:0,0:0:0:0:
272,196,106436,5,4,0:0:0:0:
364,84,106762,1,12,0:3:0:0:
224,48,107088,2,0,P|130:45|100:135,1,180,4|2,0:3|0:0,0:0:0:0:
176,112,107741,2,0,P|133:185|48:178,1,180,0|0,0:0|0:0,0:0:0:0:
0,232,108394,6,0,P|-8:308|32:340,1,120,0|8,0:0|0:0,0:0:0:0:
136,300,109047,2,0,L|164:228,2,60,0|0|8,0:0|0:0|0:0,0:0:0:0:
256,316,109700,5,4,0:0:0:0:
312,292,109863,1,0,0:0:0:0:
368,268,110026,2,0,P|416:224|416:168,1,120,8|2,0:0|0:0,0:0:0:0:
396,116,110516,1,0,0:0:0:0:
356,68,110679,2,0,P|312:44|240:52,2,120,8|2|8,0:0|0:0|0:0,0:0:0:0:
304,176,111659,5,6,0:0:0:0:
232,300,111985,1,12,0:3:0:0:
108,228,112311,2,0,P|59:145|116:79,1,180,4|0,0:3|0:0,0:0:0:0:
137,155,112964,2,0,P|221:106|287:163,1,180,0|0,0:0|0:0,0:0:0:0:
211,184,113617,6,0,P|261:268|252:292,1,120,0|8,0:0|0:0,0:0:0:0:
164,356,114270,2,0,P|132:380|88:388,2,60,0|0|8,0:0|0:0|0:0,0:0:0:0:
60,308,114923,5,4,0:0:0:0:
40,252,115086,1,0,0:0:0:0:
56,196,115249,2,0,P|80:144|160:144,1,120,8|2,0:0|0:0,0:0:0:0:
192,156,115739,1,0,0:0:0:0:
244,184,115902,2,0,P|296:200|372:164,2,120,8|2|8,0:0|0:0|0:0,0:0:0:0:
128,100,116882,5,6,0:0:0:0:
60,228,117208,1,12,0:3:0:0:
188,292,117535,2,0,P|282:295|312:205,1,180,4|2,0:3|0:0,0:0:0:0:
236,228,118187,2,0,P|279:155|364:162,1,180,0|0,0:0|0:0,0:0:0:0:
436,168,118840,6,0,P|444:92|404:60,1,120,0|8,0:0|0:0,0:0:0:0:
300,40,119493,1,0,0:0:0:0:
288,100,119656,1,0,0:0:0:0:
276,160,119820,1,8,0:0:0:0:
256,280,120146,6,4,L|256:352,1,60
