osu file format v12

[General]
AudioFilename: 10 SPF 420.mp3
AudioLeadIn: 0
PreviewTime: 7856
Countdown: 0
SampleSet: Normal
StackLeniency: 0.7
Mode: 1
LetterboxInBreaks: 0
WidescreenStoryboard: 1

[Editor]
Bookmarks: 14236
DistanceSpacing: 0.7
BeatDivisor: 2
GridSize: 8

[Metadata]
Title:SPF 420
TitleUnicode:SPF 420
Artist:Anamanaguchi
ArtistUnicode:Anamanaguchi
Creator:Sushi
Version:Kantan
Source:
Tags:Endless Fantasy
BeatmapID:287996
BeatmapSetID:109024

[Difficulty]
HPDrainRate:4
CircleSize:5
OverallDifficulty:3
ApproachRate:5
SliderMultiplier:1.2
SliderTickRate:1

[Events]
//Background and Video events
0,0,"Endless Fantasy.jpg",0,0
//Break Periods
//Storyboard Layer 0 (Background)
//Storyboard Layer 1 (Fail)
//Storyboard Layer 2 (Pass)
//Storyboard Layer 3 (Foreground)
//Storyboard Sound Samples
//Background Colour Transformations
3,100,163,162,255

[TimingPoints]
16,326.441784548422,4,1,0,100,1,0
99254,-100,4,1,0,100,0,1
120309,-100,4,1,0,100,0,0

[HitObjects]
264,200,16,1,8,0:0:0:0:
264,200,668,1,8,0:0:0:0:
264,200,1321,1,12,0:0:0:0:
264,200,2627,1,4,0:0:0:0:
264,200,3280,1,0,0:0:0:0:
264,200,3933,1,0,0:0:0:0:
264,200,4586,1,4,0:0:0:0:
264,200,4912,1,4,0:0:0:0:
264,200,5239,1,4,0:0:0:0:
264,200,5891,1,0,0:0:0:0:
264,200,6544,1,0,0:0:0:0:
264,200,7197,1,0,0:0:0:0:
264,200,7524,1,0,0:0:0:0:
264,200,7850,1,0,0:0:0:0:
264,200,8503,1,0,0:0:0:0:
264,200,9156,1,0,0:0:0:0:
264,200,9809,1,4,0:0:0:0:
264,200,10135,1,4,0:0:0:0:
264,200,10462,1,4,0:0:0:0:
264,200,11115,1,0,0:0:0:0:
264,200,11767,1,0,0:0:0:0:
264,200,12420,1,0,0:0:0:0:
264,200,12747,1,0,0:0:0:0:
264,200,13073,1,0,0:0:0:0:
264,200,13400,1,8,0:0:0:0:
264,200,14052,1,8,0:0:0:0:
264,200,14705,1,8,0:0:0:0:
264,200,15358,1,8,0:0:0:0:
264,200,15685,1,0,0:0:0:0:
264,200,16011,1,12,0:0:0:0:
264,200,16664,1,12,0:0:0:0:
264,200,17317,1,12,0:0:0:0:
264,200,17970,1,8,0:0:0:0:
264,200,18296,1,0,0:0:0:0:
264,200,18623,1,8,0:0:0:0:
264,200,19276,1,8,0:0:0:0:
264,200,19928,1,8,0:0:0:0:
264,200,20581,1,8,0:0:0:0:
264,200,20908,1,0,0:0:0:0:
264,200,21234,1,12,0:0:0:0:
264,200,21887,1,12,0:0:0:0:
264,200,22540,1,12,0:0:0:0:
264,200,23193,1,8,0:0:0:0:
264,200,23519,1,0,0:0:0:0:
264,200,24172,1,0,0:0:0:0:
264,200,24825,1,0,0:0:0:0:
264,200,25478,1,0,0:0:0:0:
264,200,25968,1,4,0:0:0:0:
264,200,26784,1,8,0:0:0:0:
264,200,27437,1,8,0:0:0:0:
264,200,28089,1,8,0:0:0:0:
264,200,28742,1,0,0:0:0:0:
264,200,29395,1,0,0:0:0:0:
264,200,29885,1,8,0:0:0:0:
264,200,30375,1,0,0:0:0:0:
264,200,30701,1,0,0:0:0:0:
264,200,31027,1,0,0:0:0:0:
264,200,31680,1,12,0:0:0:0:
264,200,32333,1,12,0:0:0:0:
264,200,32986,1,12,0:0:0:0:
264,200,33639,1,8,0:0:0:0:
264,200,33965,1,0,0:0:0:0:
296,176,34618,1,0,0:0:0:0:
296,176,35271,1,0,0:0:0:0:
296,176,35924,1,4,0:0:0:0:
296,176,36251,1,4,0:0:0:0:
296,176,36577,1,4,0:0:0:0:
296,176,37230,1,0,0:0:0:0:
296,176,37883,1,0,0:0:0:0:
296,176,38536,1,0,0:0:0:0:
296,176,38862,1,0,0:0:0:0:
296,176,39189,1,0,0:0:0:0:
296,176,39841,1,0,0:0:0:0:
296,176,40494,1,0,0:0:0:0:
296,176,41147,1,4,0:0:0:0:
296,176,41474,1,4,0:0:0:0:
296,176,41800,1,4,0:0:0:0:
296,176,42453,1,0,0:0:0:0:
296,176,43106,1,0,0:0:0:0:
296,176,43759,1,0,0:0:0:0:
296,176,44085,1,8,0:0:0:0:
296,176,44412,1,0,0:0:0:0:
296,176,44738,1,8,0:0:0:0:
296,176,45391,1,0,0:0:0:0:
296,176,46044,1,8,0:0:0:0:
296,176,46697,1,8,0:0:0:0:
296,176,47350,1,0,0:0:0:0:
296,176,48002,1,0,0:0:0:0:
296,176,48655,1,8,0:0:0:0:
296,176,49308,1,8,0:0:0:0:
296,176,49635,1,0,0:0:0:0:
296,176,49961,1,8,0:0:0:0:
296,176,50614,1,8,0:0:0:0:
296,176,51267,1,8,0:0:0:0:
296,176,51920,1,8,0:0:0:0:
296,176,52246,1,0,0:0:0:0:
296,176,52573,1,8,0:0:0:0:
296,176,53226,1,8,0:0:0:0:
296,176,53552,2,0,P|193:251|144:152,1,240
296,176,54858,1,0,0:0:0:0:
296,176,55511,1,0,0:0:0:0:
296,176,56163,1,0,0:0:0:0:
296,176,56490,1,0,0:0:0:0:
296,176,56816,1,0,0:0:0:0:
296,176,57306,1,4,0:0:0:0:
296,176,58122,1,8,0:0:0:0:
296,176,58775,1,8,0:0:0:0:
296,176,59428,1,8,0:0:0:0:
296,176,60081,1,0,0:0:0:0:
296,176,60407,1,0,0:0:0:0:
296,176,60734,1,0,0:0:0:0:
296,176,61387,1,0,0:0:0:0:
296,176,61713,1,0,0:0:0:0:
296,176,62039,1,0,0:0:0:0:
296,176,62529,1,4,0:0:0:0:
296,176,63345,1,8,0:0:0:0:
296,176,63998,1,8,0:0:0:0:
296,176,64651,1,8,0:0:0:0:
296,176,65304,1,0,0:0:0:0:
296,176,65630,1,0,0:0:0:0:
296,176,65957,1,0,0:0:0:0:
296,176,66283,1,0,0:0:0:0:
296,176,66610,1,0,0:0:0:0:
296,176,66936,1,0,0:0:0:0:
296,176,67263,1,0,0:0:0:0:
296,176,67752,1,4,0:0:0:0:
296,176,68568,1,8,0:0:0:0:
296,176,69221,1,8,0:0:0:0:
296,176,69874,1,8,0:0:0:0:
264,200,70527,1,0,0:0:0:0:
264,200,71180,1,0,0:0:0:0:
264,200,71669,1,8,0:0:0:0:
264,200,72159,1,0,0:0:0:0:
264,200,72486,1,0,0:0:0:0:
264,200,72812,1,0,0:0:0:0:
264,200,73465,1,12,0:0:0:0:
264,200,74118,1,12,0:0:0:0:
264,200,74771,1,12,0:0:0:0:
264,200,75424,1,8,0:0:0:0:
264,200,75750,1,0,0:0:0:0:
264,200,76076,1,8,0:0:0:0:
264,200,76403,1,0,0:0:0:0:
264,200,76729,1,8,0:0:0:0:
264,200,77056,2,0,P|232:80|120:104,1,240
232,208,78362,1,0,0:0:0:0:
232,208,79014,1,0,0:0:0:0:
232,208,79667,1,8,0:0:0:0:
232,208,80647,1,0,0:0:0:0:
232,208,80973,1,4,0:0:0:0:
232,208,81626,1,4,0:0:0:0:
232,208,82279,1,4,0:0:0:0:
232,208,83258,1,8,0:0:0:0:
232,208,83585,1,0,0:0:0:0:
232,208,84237,1,0,0:0:0:0:
232,208,84564,1,8,0:0:0:0:
232,208,84890,1,0,0:0:0:0:
232,208,85543,1,0,0:0:0:0:
232,208,86033,1,0,0:0:0:0:
232,208,86523,1,0,0:0:0:0:
232,208,87175,1,0,0:0:0:0:
232,208,87828,1,8,0:0:0:0:
232,208,88155,1,8,0:0:0:0:
232,208,88481,1,8,0:0:0:0:
232,208,88808,1,0,0:0:0:0:
232,208,89461,1,0,0:0:0:0:
232,208,89787,1,8,0:0:0:0:
232,208,90113,1,0,0:0:0:0:
232,208,90766,1,0,0:0:0:0:
232,208,91419,1,4,0:0:0:0:
232,208,92072,1,4,0:0:0:0:
232,208,92725,1,4,0:0:0:0:
232,208,93215,1,0,0:0:0:0:
232,208,93541,1,0,0:0:0:0:
232,208,94031,1,0,0:0:0:0:
232,208,94684,1,8,0:0:0:0:
232,208,95337,1,0,0:0:0:0:
232,208,95989,1,8,0:0:0:0:
272,176,96316,1,8,0:0:0:0:
272,176,96642,1,0,0:0:0:0:
232,208,97295,1,8,0:0:0:0:
232,208,97948,1,0,0:0:0:0:
232,208,98601,1,0,0:0:0:0:
264,200,99254,1,0,0:0:0:0:
264,200,99907,1,0,0:0:0:0:
264,200,100560,1,0,0:0:0:0:
264,200,101212,1,4,0:0:0:0:
264,200,101539,1,4,0:0:0:0:
264,200,101865,1,4,0:0:0:0:
264,200,102518,1,0,0:0:0:0:
264,200,103171,1,0,0:0:0:0:
264,200,103824,1,8,0:0:0:0:
264,200,104150,1,8,0:0:0:0:
264,200,104477,1,0,0:0:0:0:
264,200,105130,1,0,0:0:0:0:
264,200,105783,1,0,0:0:0:0:
264,200,106436,1,4,0:0:0:0:
264,200,106762,1,4,0:0:0:0:
264,200,107088,1,4,0:0:0:0:
264,200,107741,1,0,0:0:0:0:
264,200,108394,1,0,0:0:0:0:
264,200,109047,1,0,0:0:0:0:
264,200,109373,1,8,0:0:0:0:
264,200,109700,1,0,0:0:0:0:
264,200,110353,1,0,0:0:0:0:
264,200,110679,1,8,0:0:0:0:
264,200,111006,1,0,0:0:0:0:
264,200,111659,1,4,0:0:0:0:
264,200,111985,1,4,0:0:0:0:
264,200,112311,1,4,0:0:0:0:
264,200,112964,1,0,0:0:0:0:
264,200,113617,1,0,0:0:0:0:
264,200,114270,1,0,0:0:0:0:
264,200,114597,1,8,0:0:0:0:
264,200,114923,1,0,0:0:0:0:
264,200,115576,1,0,0:0:0:0:
264,200,115902,1,8,0:0:0:0:
264,200,116229,1,0,0:0:0:0:
264,200,116882,1,4,0:0:0:0:
264,200,117208,1,4,0:0:0:0:
264,200,117535,1,4,0:0:0:0:
264,200,118187,1,0,0:0:0:0:
264,200,118840,1,0,0:0:0:0:
264,200,119493,1,0,0:0:0:0:
264,200,119820,1,0,0:0:0:0:
264,200,120146,1,4,0:0:0:0:
