osu file format v7

[General]
AudioFilename: 01 My Skateboard Will Go On.mp3
AudioLeadIn: 1985
PreviewTime: 41008
Countdown: 0
SampleSet: Soft
StackLeniency: 0.7
Mode: 0
LetterboxInBreaks: 0

[Editor]
Bookmarks: 90071,99133
DistanceSpacing: 1
BeatDivisor: 4
GridSize: 8

[Metadata]
Title:My Skateboard Will Go On
Artist:Anamanaguchi
Creator:Sushi
Version:Insane
Source:
Tags:chiptune 8-bits

[Difficulty]
HPDrainRate:7
CircleSize:4
OverallDifficulty:8
SliderMultiplier:1.6
SliderTickRate:2

[Events]
//Background and Video events
0,0,"BG.png"
//Break Periods
2,90276,98388
//Storyboard Layer 0 (Background)
//Storyboard Layer 1 (Fail)
//Storyboard Layer 2 (Pass)
//Storyboard Layer 3 (Foreground)
//Storyboard Sound Samples
//Background Colour Transformations
3,100,0,139,194

[TimingPoints]
76,625,4,2,0,100,1,0
2725,-100,4,2,0,80,0,0
3037,-100,4,2,0,60,0,0
3350,-100,4,2,0,40,0,0
3662,-100,4,2,0,100,0,0
3975,-100,4,2,0,80,0,0
4287,-100,4,2,0,60,0,0
4600,-100,4,2,0,40,0,0
4912,-100,4,2,0,100,0,0
9912,-100,4,1,1,60,0,0
10076,312.5,4,1,1,59,1,0
10656,-100,4,1,1,85,0,0
10852,-100,4,2,1,100,0,0
11750,-100,4,1,1,100,0,0
14914,-100,4,1,1,59,0,0
15656,-100,4,1,1,86,0,0
15852,-100,4,2,0,100,0,0
16750,-100,4,1,1,100,0,0
20076,-100,4,1,1,100,0,1
29914,-100,4,1,1,59,0,0
30656,-100,4,1,1,85,0,0
30852,-100,4,2,1,100,0,0
31750,-100,4,1,1,100,0,0
35031,-100,4,1,1,58,0,0
35656,-100,4,1,1,100,0,0
35852,-100,4,1,1,69,0,0
36750,-100,4,1,1,100,0,0
39914,-100,4,1,1,59,0,0
40656,-100,4,1,1,85,0,0
40852,-100,4,2,1,100,0,0
41750,-100,4,1,1,100,0,0
45031,-100,4,1,1,60,0,0
45656,-100,4,1,1,86,0,0
45852,-100,4,1,1,59,0,0
46750,-100,4,1,1,100,0,0
50076,-100,4,1,1,100,0,1
59914,-100,4,1,1,64,0,0
61008,-200,4,2,1,100,0,0
62531,-200,4,1,1,64,0,0
63508,-200,4,2,1,100,0,0
65031,-200,4,1,1,66,0,0
65852,-200,4,2,1,100,0,0
66750,-100,4,1,1,100,0,0
78821,-100,4,2,1,100,0,0
79836,-100,4,2,1,20,0,0
80031,-100,4,1,1,100,0,0
98899,-100,4,2,1,100,0,0
100031,-100,4,1,1,100,0,0
104524,-100,4,2,1,100,0,0
104992,-100,4,1,1,100,0,0
109758,-100,4,1,1,58,0,0
111750,-100,4,1,1,100,0,0
115031,-200,4,1,1,60,0,0
115656,-200,4,1,1,85,0,0
115852,-200,4,1,1,57,0,0
116750,-100,4,1,1,100,0,0
119914,-100,4,1,1,59,0,0
121711,-100,4,1,1,100,0,0
140031,-200,4,1,1,100,0,0
141008,-200,4,2,1,100,0,0
142531,-200,4,1,1,100,0,0
143508,-200,4,2,1,100,0,0
145031,-200,4,1,1,100,0,0
145930,-200,4,2,1,100,0,0
146750,-100,4,1,1,100,0,0
158821,-100,4,2,1,100,0,0
159563,-100,4,1,1,100,0,0
170076,-100,4,1,1,100,0,1
179919,-100,4,1,1,100,0,0
180076,-100,4,1,1,100,0,1
191242,-100,4,2,1,9,0,0

[Colours]
Combo1 : 255,0,128
Combo2 : 0,0,255
Combo3 : 255,255,0
Combo4 : 0,0,64

[HitObjects]
192,280,76,2,0,B|256:376|320:280,1,160,2|0
360,248,1013,1,0
320,208,1326,2,0,B|256:112|192:208,2,160,2|0|2
352,160,2888,5,0
384,112,3201,1,2
416,64,3513,1,0
288,64,3826,5,2
320,112,4138,1,0
352,160,4451,1,2
384,208,4763,1,0
328,320,5076,6,0,B|256:255|184:320,1,160,2|0
136,296,6013,1,0
112,248,6326,2,0,B|175:177|111:105,1,160,2|0
256,192,7576,12,4,9451
256,72,10076,5,0
272,88,10232,1,0
288,104,10388,1,0
304,120,10544,1,0
320,136,10701,1,4
504,192,11013,5,2
456,272,11169,2,0,B|488:304,2,40,0|0|2
384,320,11482,1,2
304,352,11638,1,0
216,352,11794,5,0
104,48,12107,5,0
392,192,12419,6,0,B|208:192,1,160,4|0
136,192,12888,1,8
64,248,13044,1,0
136,312,13201,2,0,B|240:312,1,80
312,312,13513,1,8
408,312,13669,6,0,B|488:312|376:192|464:192,1,160
504,104,14138,1,8
424,56,14294,2,0,B|369:-6|352:156|300:96,1,160,0|8
302,98,14763,1,8
152,152,15076,5,0
136,168,15232,1,0
120,184,15388,1,0
104,200,15544,1,0
88,216,15701,1,4
256,304,16013,5,2
352,304,16169,2,0,B|376:368,2,40,0|0|2
424,240,16482,1,2
328,232,16638,1,0
296,144,16794,5,0
56,360,17107,5,0
104,40,17419,6,0,B|40:104|104:192,1,160,4|0
152,264,17888,1,8
240,304,18044,1,0
336,304,18201,1,0
424,264,18357,1,0
448,168,18513,1,8
408,80,18669,6,0,B|360:32|312:32|264:80,1,160,0|0
336,144,19138,1,8
408,208,19294,2,0,B|360:256|312:256|264:208,1,160,0|8
200,144,19763,1,8
416,376,20076,6,2,B|352:312,1,80,2|0
280,368,20388,2,0,B|280:272,1,80,8|0
184,272,20701,1,0
296,120,21013,2,0,B|232:40|160:128,2,160,8|0|8
112,64,21951,2,0,B|32:128|120:200,1,160,0|8
408,56,22576,6,0,B|456:136,1,80,2|0
353,124,22888,2,0,B|305:204,1,80,8|0
408,192,23201,1,0
256,312,23513,2,0,B|152:312|152:216,1,160,8|0
248,213,23982,1,0
344,208,24138,2,0,B|344:114|240:114,1,160,8|0
144,114,24607,1,8
48,114,24763,1,8
256,360,25076,5,2
352,360,25232,1,0
440,320,25388,1,8
472,232,25544,1,0
480,136,25701,1,0
288,136,26013,2,0,B|352:184|352:216|288:264,2,160,8|0|8
96,136,26951,1,0
24,200,27107,1,0
96,264,27263,1,8
304,16,27576,5,2
232,80,27732,1,0
304,144,27888,1,8
232,208,28044,1,0
304,272,28201,1,0
392,104,28513,2,0,B|480:120|480:168|392:184,1,160,8|0
304,208,28982,1,0
224,264,29138,2,0,B|160:336|80:336|64:240|112:168,1,240,8|8
96,198,29763,1,8
384,56,30076,5,0
400,72,30232,1,0
416,88,30388,1,0
432,104,30544,1,0
448,120,30701,1,4
456,312,31013,6,2,B|288:312,1,160
200,312,31482,1,0
112,272,31638,1,2
200,240,31794,5,0
464,56,32107,5,0
160,144,32419,6,0,B|64:160|32:272,1,160,4|0
24,336,32888,2,0,B|112:328|144:240,1,160,8|0
160,144,33357,1,0
184,48,33513,1,8
256,112,33669,5,0
336,56,33826,2,0,B|392:136,1,80
480,120,34138,2,0,B|464:224,1,80,8|0
496,288,34451,2,0,B|416:344|312:328,1,160,8|8
345,331,34919,1,0
248,328,35076,5,0
224,328,35232,1,0
200,328,35388,1,0
176,328,35544,1,0
152,328,35701,1,0
24,192,36013,1,0
48,184,36169,1,0
72,192,36326,1,0
96,184,36482,1,0
120,192,36638,1,0
144,184,36794,5,0
440,56,37107,5,0
264,320,37419,6,0,B|192:376|112:320,1,160,4|0
32,272,37888,2,0,B|104:216|184:272,1,160,8|0
264,320,38357,1,0
344,272,38513,1,8
408,200,38669,6,0,B|384:120|304:112|272:136,1,160
200,184,39138,1,8
120,240,39294,1,0
48,64,39607,1,8
144,64,39763,1,8
456,136,40076,5,0
440,152,40232,1,0
424,168,40388,1,0
408,184,40544,1,0
392,200,40701,1,4
256,336,41013,6,2,B|160:336|120:264,1,160
80,176,41482,1,0
80,80,41638,1,2
160,32,41794,5,0
416,192,42107,5,0
160,352,42419,6,0,B|160:176,1,160,4|0
64,192,42888,2,0,B|64:144|96:88|168:88,2,160,8|0|8
64,288,43669,5,0
160,288,43826,2,0,B|256:288,1,80,0|0
320,232,44138,2,0,B|232:184,1,80,8|0
168,136,44451,2,0,B|312:24,1,160,8|8
294,37,44919,1,0
392,40,45076,5,0
392,64,45232,1,0
392,88,45388,1,0
392,112,45544,1,0
392,136,45701,1,8
264,280,46013,1,0
256,256,46169,1,0
264,232,46326,1,0
256,208,46482,1,0
256,184,46638,1,0
264,160,46794,5,0
384,384,47107,5,0
128,384,47419,6,0,B|64:336|104:304|136:280|96:240,1,160,4|0
40,160,47888,2,0,B|16:112|24:64|56:40|112:48,1,160,8|0
192,48,48357,5,0
280,80,48513,1,8
368,112,48669,2,0,B|472:176|368:232,1,160
280,264,49138,1,8
192,304,49294,2,0,B|104:344|72:280|96:224,1,160,0|8
90,239,49763,1,8
408,192,50076,6,0,B|456:232|424:272,2,80,2|0|8
344,120,50544,1,0
264,64,50701,2,0,B|200:40|152:56|120:120,2,160,0|8|0
224,152,51482,1,0
144,200,51638,1,8
336,192,51951,2,0,B|248:208|248:320,1,160,0|8
72,40,52576,6,0,B|24:40|16:88,2,80,2|0|8
152,96,53044,1,0
72,152,53201,2,0,B|32:208|64:272|136:248,2,160,0|8|0
152,96,53982,1,0
248,80,54138,2,0,B|336:80|384:176,1,160,8|0
416,248,54607,1,8
440,336,54763,1,8
152,200,55076,5,2
73,154,55232,1,0
164,144,55388,1,8
96,205,55544,1,0
116,116,55701,2,0,B|136:56|224:56|248:120,1,160,0|8
416,120,56326,1,0
440,200,56482,1,0
416,280,56638,1,8
264,192,56951,2,0,B|208:272|272:352,1,160,0|8
494,126,57576,5,2
440,200,57732,1,0
438,108,57888,1,8
493,182,58044,1,0
406,153,58201,2,0,B|334:150|334:86|262:86,1,160,0|8
80,24,58826,1,0
80,120,58982,1,0
80,216,59138,2,0,B|88:312|240:312|248:216,1,240,8|8
247,220,59763,1,8
256,56,60076,5,0
256,56,60701,1,0
64,296,61326,6,0,B|48:248,1,40,2|2
48,208,61638,1,0
72,168,61794,1,0
112,144,61951,1,2
160,152,62107,1,0
200,184,62263,1,2
224,224,62419,1,0
256,328,62576,5,0
256,328,63201,1,0
368,40,63826,6,2,B|400:104|336:152,1,120,2|0
296,168,64451,1,2
248,152,64607,1,0
200,168,64763,1,2
152,152,64919,1,0
48,192,65076,5,0
48,192,65701,1,0
168,248,66013,5,0
208,272,66169,2,2,B|248:304|288:288,1,80
328,272,66638,1,0
400,208,66794,5,0
120,56,67107,5,0
240,352,67419,6,0,B|320:392|408:352,1,160,4|0
472,304,67888,1,8
504,216,68044,1,0
472,128,68201,1,0
392,80,68357,1,0
296,104,68513,1,8
40,304,68826,5,8
128,272,68982,1,0
40,240,69138,1,8
128,208,69294,1,0
40,176,69451,1,8
128,144,69607,1,0
40,112,69763,1,8
128,80,69919,1,8
168,64,69997,1,8
216,48,70076,6,0,B|320:48|320:144,2,160,2|8|0
216,144,70857,1,0
216,240,71013,1,8
408,272,71326,2,0,B|408:176|304:176,1,160,0|8
304,272,71794,2,0,B|304:368|200:368,1,160,0|0
105,367,72263,1,8
48,184,72576,6,0,B|176:56,1,160,2|8
464,200,73201,2,0,B|336:328,1,160,0|8
280,384,73669,2,0,B|216:320|280:224,1,160
320,152,74138,1,8
344,56,74294,1,8
256,8,74451,1,0
168,56,74607,1,0
192,152,74763,1,8
456,336,75076,6,0,B|272:336,2,160,2|8|0
456,336,75857,1,8
272,272,76169,2,0,B|440:272,1,160
504,208,76638,1,8
408,208,76794,1,0
480,144,76951,2,0,B|304:144,1,160,0|8
256,192,77419,12,4,78669
256,40,78982,5,2
256,136,79138,1,2
216,224,79294,2,0,B|216:304|296:304|296:216,2,160,0|2|0
128,88,80076,6,0,B|80:48|0:128|56:176,2,160,2|8|0
200,152,80857,1,0
248,232,81013,1,8
424,152,81326,2,0,B|472:240|384:304,1,160,0|8
328,352,81794,2,0,B|288:256|368:200,1,160
357,207,82263,1,8
256,40,82576,6,0,B|120:176,1,160,2|8
256,344,83201,2,0,B|392:208,1,160,0|8
256,40,83826,2,0,B|312:112|256:192,1,160,0|8
200,112,84294,2,0,B|144:184|200:264,1,160,0|8
197,260,84763,1,8
440,48,85076,6,0,B|480:136|400:192,2,160,2|8|0
440,48,85857,1,8
312,192,86169,2,0,B|236:244|276:332,1,160,0|0
275,332,86638,1,8
144,192,86951,2,0,B|144:80|256:80,1,160,0|8
256,192,87419,12,0,88826
256,32,89138,5,8
208,112,89294,1,0
304,112,89451,1,0
256,192,89607,1,8
208,272,89763,1,0
304,272,89919,1,8
256,352,90076,1,4
256,336,99138,5,0
344,304,99294,1,0
416,240,99451,1,2
440,144,99607,1,0
416,48,99763,1,2
328,16,99919,1,0
232,16,100076,6,0,B|128:32|160:160,1,160,2|8
344,104,100701,2,0,B|370:204|266:220,1,160,0|8
96,296,101326,1,0
184,344,101482,1,0
280,344,101638,1,8
440,240,101951,1,0
488,160,102107,1,0
472,64,102263,1,8
280,64,102576,6,0,B|168:64|200:168,3,160,0|8|0|8
360,264,103826,2,0,B|390:363|278:363,2,160,0|8|0
304,192,104607,1,2
240,112,104763,1,0
144,96,104919,1,2
48,96,105076,6,0,B|48:280,1,160,2|8
232,312,105701,2,0,B|112:192,1,160,0|8
256,64,106326,1,0
344,32,106482,1,0
432,64,106638,1,8
432,256,106951,1,0
344,288,107107,1,0
256,256,107263,1,8
256,192,107576,12,4,109451
64,192,110076,5,0
128,256,110232,2,0,B|192:320,2,80
64,192,110701,1,8
256,192,111013,1,8
448,192,111326,2,0,B|392:128,1,80
336,56,111638,1,0
256,0,111794,5,0
96,272,112107,5,0
416,272,112419,6,0,B|376:192|280:192,1,160,4|0
192,192,112888,2,0,B|88:192|88:96,2,160,8|0|8
256,120,113669,5,0
352,120,113826,2,0,B|424:192,1,80,0|0
480,240,114138,2,0,B|416:304,1,80,8|0
352,368,114451,2,0,B|160:368,1,160,0|8
192,368,114919,1,0
96,368,115076,6,0,L|48:368,4,40,0|0|0|0|4
96,272,116013,1,0
96,224,116169,1,0
96,176,116326,2,0,L|48:176,2,40
144,176,116794,5,0
440,48,117107,5,0
272,320,117419,6,0,L|88:320,1,160,4|0
16,320,117888,2,0,B|16:256|40:232|72:208|128:208,1,160,8|0
200,208,118357,5,0
296,208,118513,1,8
392,208,118669,2,0,B|464:208|464:112|392:112,1,160
296,112,119138,1,8
200,112,119294,1,0
24,32,119607,1,8
120,32,119763,1,8
256,320,120076,5,0
352,320,120232,2,0,B|400:320|424:272,1,80
448,192,120544,1,0
448,96,120701,1,0
448,96,121013,1,0
256,96,121326,2,0,B|320:176,2,80
160,96,121794,5,0
424,280,122107,5,0
104,248,122419,6,0,B|192:248|248:168,1,160,4|0
288,264,122888,2,0,B|239:334|151:334,2,160,8|0|8
336,176,123669,5,0
352,80,123826,2,0,B|264:48,1,80
184,16,124138,1,8
104,64,124294,1,0
8,72,124451,2,0,B|24:160|72:112|96:232,1,160,0|8
120,296,124919,6,0,B|176:376|280:376|320:288,1,240,0|8
316,295,125544,1,0
40,136,125857,1,8
344,232,126169,1,0
64,72,126482,5,0
152,40,126638,1,8
248,24,126794,2,0,B|336:16|400:80,1,160
440,160,127263,1,8
456,256,127419,2,0,B|480:344|320:384|296:288,1,240,0|8
224,112,128201,1,0
128,136,128357,1,8
88,224,128513,1,8
256,192,128669,12,4,130076
256,40,130388,5,8
440,96,130701,1,0
440,288,131013,1,8
256,344,131326,1,0
72,288,131638,1,8
72,96,131950,1,0
256,152,132263,2,0,B|256:328,1,160,8|2
352,312,132732,5,0
352,216,132888,1,8
352,120,133044,1,0
352,24,133201,2,0,B|256:0|176:24,2,160,0|8|0
176,96,134138,1,8
88,48,134294,1,8
8,96,134451,2,0,B|8:208|88:224,2,160,0|8|4
256,296,135388,6,0,B|424:296,1,160,8|0
232,232,136013,2,0,B|400:232,1,160,8|0
208,168,136638,1,8
400,176,136951,1,0
208,168,137263,1,8
80,312,137576,5,0
256,40,137888,1,8
256,40,138044,1,0
432,312,138357,1,8
432,312,138669,2,0,B|256:312,1,160
208,384,139138,2,0,B|136:312|208:240,1,160,8|8
296,224,139607,1,0
280,128,139763,1,8
184,152,139919,1,0
24,192,140076,5,0
24,192,140701,1,0
144,48,141326,2,2,B|192:80,1,40
224,80,141638,1,0
256,120,141794,1,0
304,120,141951,1,2
336,160,142107,1,0
384,160,142263,1,2
416,200,142419,1,0
448,296,142576,5,0
448,296,143201,1,0
32,192,143826,6,2,B|32:264|80:280|112:248,1,120,2|0
136,224,144451,1,2
176,200,144607,1,0
224,208,144763,1,2
264,232,144919,1,2
400,248,145076,5,0
400,248,145701,1,0
440,112,146013,5,0
400,80,146169,2,2,B|344:48|312:48,1,80
280,48,146638,1,0
232,48,146794,5,0
64,320,147107,5,0
368,224,147419,6,0,B|416:176|488:240|432:296,1,160,4|0
352,336,147888,1,8
256,352,148044,1,0
160,336,148201,1,0
104,256,148357,1,0
256,192,148513,12,4,149451
312,192,150076,6,0,B|296:280|200:192|192:296,1,160,2|8
24,184,150701,1,0
64,96,150857,1,0
160,72,151013,1,8
312,192,151326,2,0,B|328:280|424:192|432:296,1,160,0|8
429,276,151794,1,0
429,84,152107,1,0
429,84,152263,6,0,B|336:40|264:120,2,160,8|2|8
336,256,153201,1,0
144,256,153513,1,8
144,256,153669,2,0,B|80:184|144:104,2,160,0|8|0
216,320,154451,1,0
144,384,154607,1,0
72,320,154763,1,8
256,56,155076,6,0,B|368:88|304:176,2,160,2|8|0
256,56,155857,1,8
448,56,156169,2,0,B|560:88|496:176,1,160
408,208,156638,1,8
440,296,156794,1,0
352,336,156951,2,0,B|272:376|184:336,1,160,0|8
256,192,157419,12,4,158669
256,344,158982,5,2
256,248,159138,1,2
216,160,159294,2,0,B|216:80|296:80|296:168,1,160
295,162,159763,1,8
80,328,160076,6,0,B|24:256|80:176,1,160,2|8
192,328,160701,1,0
128,256,160857,1,0
192,184,161013,1,8
320,328,161326,2,0,B|376:256|320:176,1,160,0|8
322,179,161794,1,0
192,40,162107,1,0
192,40,162263,6,0,B|136:112|192:192,2,160,8|2|8
376,88,163201,2,0,B|480:104|440:224,1,160,0|8
304,336,163826,1,0
112,336,164138,1,8
112,336,164294,1,0
112,144,164607,1,0
112,144,164763,1,8
416,48,165076,6,0,B|504:96|456:184,2,160,2|8|0
384,136,165857,2,0,B|337:221|425:269,1,160,8|0
256,368,166482,1,0
256,272,166638,1,8
192,88,166951,2,0,B|256:-8|320:88,1,160,0|8
256,192,167419,12,0,168826
256,128,169138,5,8
328,192,169294,1,0
256,256,169451,1,0
184,192,169607,1,8
112,128,169763,1,0
40,192,169919,1,8
112,256,170076,6,0,B|176:328,2,80,2|0|8
112,256,170544,1,0
112,256,170701,1,0
184,80,171013,2,0,B|256:8|328:80,1,160,8|0
184,208,171638,2,0,B|255:279|323:210,1,160,8|0
323,211,172107,1,0
323,211,172263,1,8
8,144,172576,6,0,B|8:240,1,80,2|0
48,312,172888,1,8
136,352,173045,2,0,B|248:352,1,80
144,176,173513,2,0,B|144:288|272:256,2,160,8|0|8
160,80,174294,1,0
240,32,174451,1,0
320,80,174607,1,8
376,160,174763,1,8
88,296,175076,5,2
132,216,175232,1,0
144,307,175388,1,8
82,240,175544,1,0
171,258,175701,1,0
336,352,176013,2,0,B|400:312|360:264|432:224,2,160,8|0|8
384,168,176951,1,0
448,96,177107,1,0
512,168,177263,1,8
208,48,177576,5,2
288,104,177732,1,0
248,192,177888,1,8
288,280,178044,1,0
208,336,178201,1,0
32,264,178513,2,0,B|32:88,1,160,8|0
128,104,178982,1,0
223,104,179138,1,8
223,104,179294,1,8
319,104,179451,1,0
319,104,179607,1,8
414,104,179763,1,8
216,352,180076,6,0,B|120:336,1,80,2|0
40,352,180388,2,0,B|16:256,1,80,8|0
56,184,180701,2,0,B|96:264|192:264,1,160,0|8
280,256,181169,1,0
376,304,181326,6,0,B|432:232,1,80,2|0
504,176,181638,2,0,B|464:88,1,80,8|0
384,48,181951,2,0,B|408:168|320:192,1,160,8|8
48,48,182576,6,0,B|128:16,2,80,2|0|8
48,144,183044,1,0
48,240,183201,2,0,B|208:304,1,160,0|8
296,304,183669,1,0
392,304,183826,6,0,B|472:344,1,80,2|0
488,248,184138,2,0,B|480:152|328:152|320:248,1,240,8|0
320,243,184763,1,8
72,40,185076,5,2
160,72,185232,1,0
72,104,185388,1,8
160,136,185544,1,0
72,168,185701,2,0,B|72:256|136:240|136:320,2,160,0|8|2
160,136,186482,5,0
248,168,186638,1,8
336,136,186794,1,0
424,168,186951,2,0,B|504:208|504:232|424:272,2,160,8|8|2
336,136,187732,5,0
248,168,187888,1,8
336,200,188044,1,0
424,168,188201,2,0,B|480:168|480:48|424:48,1,160,0|8
328,48,188669,5,0
232,48,188826,1,2
136,48,188982,1,0
40,48,189138,2,0,B|0:128|40:216,1,160,8|2
34,202,189607,1,0
34,202,189763,1,8
256,192,190076,12,0,191326
