osu file format v7

[General]
AudioFilename: 01 My Skateboard Will Go On.mp3
AudioLeadIn: 1985
PreviewTime: 41008
Countdown: 0
SampleSet: Soft
StackLeniency: 0.7
Mode: 0
LetterboxInBreaks: 0

[Editor]
Bookmarks: 90071,99133
DistanceSpacing: 1.10000002384186
BeatDivisor: 2
GridSize: 8

[Metadata]
Title:My Skateboard Will Go On
Artist:Anamanaguchi
Creator:Sushi
Version:Hard
Source:
Tags:chiptune 8-bits

[Difficulty]
HPDrainRate:5
CircleSize:4
OverallDifficulty:7
SliderMultiplier:1.4
SliderTickRate:2

[Events]
//Background and Video events
0,0,"BG.png"
//Break Periods
2,90276,98238
//Storyboard Layer 0 (Background)
//Storyboard Layer 1 (Fail)
//Storyboard Layer 2 (Pass)
//Storyboard Layer 3 (Foreground)
//Storyboard Sound Samples
//Background Colour Transformations
3,100,0,139,194

[TimingPoints]
76,625,4,2,0,100,1,0
2725,-100,4,2,0,80,0,0
3037,-100,4,2,0,60,0,0
3350,-100,4,2,0,40,0,0
3662,-100,4,2,0,100,0,0
3975,-100,4,2,0,80,0,0
4287,-100,4,2,0,60,0,0
4600,-100,4,2,0,40,0,0
4912,-100,4,2,0,100,0,0
9912,-100,4,1,1,60,0,0
10076,312.5,4,1,1,59,1,0
10656,-100,4,1,1,85,0,0
10852,-100,4,2,1,100,0,0
11750,-100,4,1,1,100,0,0
14914,-100,4,1,1,59,0,0
15656,-100,4,1,1,86,0,0
15852,-100,4,2,0,100,0,0
16750,-100,4,1,1,100,0,0
20076,-100,4,1,1,100,0,1
29914,-100,4,1,1,59,0,0
30656,-100,4,1,1,85,0,0
30852,-100,4,2,1,100,0,0
31750,-100,4,1,1,100,0,0
35656,-100,4,1,1,100,0,0
35852,-100,4,1,1,69,0,0
36750,-100,4,1,1,100,0,0
39914,-100,4,1,1,59,0,0
40656,-100,4,1,1,85,0,0
40852,-100,4,2,1,100,0,0
41750,-100,4,1,1,100,0,0
45656,-100,4,1,1,86,0,0
45852,-100,4,1,1,59,0,0
46750,-100,4,1,1,100,0,0
50076,-100,4,1,1,100,0,1
59914,-100,4,1,1,64,0,0
61008,-200,4,2,1,100,0,0
62531,-200,4,1,1,64,0,0
63508,-200,4,2,1,100,0,0
65031,-200,4,1,1,66,0,0
65852,-200,4,2,1,100,0,0
66750,-100,4,1,1,100,0,0
78821,-100,4,2,1,100,0,0
79836,-100,4,2,1,20,0,0
80031,-100,4,1,1,100,0,0
98899,-100,4,2,1,100,0,0
100031,-100,4,1,1,100,0,0
104524,-100,4,2,1,100,0,0
104992,-100,4,1,1,100,0,0
109758,-100,4,1,1,58,0,0
111750,-100,4,1,1,100,0,0
115656,-200,4,1,1,85,0,0
115852,-200,4,1,1,57,0,0
116750,-100,4,1,1,100,0,0
119914,-100,4,1,1,59,0,0
121711,-100,4,1,1,100,0,0
140031,-200,4,1,1,100,0,0
141008,-200,4,2,1,100,0,0
142531,-200,4,1,1,100,0,0
143508,-200,4,2,1,100,0,0
145031,-200,4,1,1,100,0,0
145930,-200,4,2,1,100,0,0
146750,-100,4,1,1,100,0,0
158821,-100,4,2,1,100,0,0
159563,-100,4,1,1,100,0,0
170076,-100,4,1,1,100,0,1
179919,-100,4,1,1,100,0,0
180076,-100,4,1,1,100,0,1
191242,-100,4,2,1,9,0,0

[Colours]
Combo1 : 255,0,128
Combo2 : 0,0,255
Combo3 : 255,255,0
Combo4 : 0,0,64

[HitObjects]
184,176,76,2,0,B|328:176,1,140,2|0
192,256,1326,2,0,B|256:312|320:256,1,140,2|0
464,200,2576,6,0,B|464:280,1,70,2|0
456,336,3201,2,0,B|368:336,1,70,2|0
312,336,3826,2,0,B|216:336,3,70,2|0|2|0
168,336,5076,6,0,B|88:336|64:248,1,140,2|0
216,272,6326,2,0,B|194:192|114:192,1,140,2|0
256,192,7576,12,4,9451
256,48,10076,6,0,B|336:48,4,70,0|0|0|0|4
104,72,11013,2,0,B|-16:192|104:320,1,280,2|2
102,318,11794,5,0
256,168,12107,5,0
408,320,12419,6,0,B|480:256|440:176,1,140,4|0
416,128,12888,1,8
296,32,13201,1,0
144,32,13513,1,8
144,32,13669,2,0,B|144:104|232:128,2,140
80,168,14607,1,0
80,168,14763,1,8
80,320,15076,6,0,B|136:368,4,70,0|0|0|0|4
136,176,16013,2,0,B|256:312|376:176,1,280,2|2
373,179,16794,5,0
256,8,17107,5,0
136,176,17419,6,0,B|72:248|144:304,1,140,4|0
200,336,17888,1,8
352,336,18201,1,0
232,240,18513,1,8
312,240,18669,2,0,B|392:240|376:176|328:152,2,140
152,240,19607,1,8
152,240,19763,1,8
256,128,20076,6,0,B|296:64|384:64,2,140,2|8|0
104,128,21013,1,8
40,264,21326,2,0,B|64:368|224:368|272:272,1,280
360,168,22263,1,8
488,256,22576,6,0,B|488:352|384:352,2,140,2|8|0
488,104,23513,1,8
352,24,23826,1,0
272,24,23982,1,0
192,24,24138,2,0,B|64:24|64:160,1,210,8|8
64,155,24763,1,8
256,248,25076,6,0,B|328:304|256:368,2,140,2|8|0
112,304,26013,1,8
176,160,26326,2,0,B|256:72|376:240|440:152,1,280
336,40,27263,1,8
184,40,27576,6,0,B|104:40|136:88|24:88,2,140,2|8|0
304,136,28513,1,8
256,280,28826,1,0
216,344,28982,1,0
296,344,29138,2,0,B|424:344|424:208,1,210,8|8
423,212,29763,1,8
256,88,30076,6,0,B|256:16,4,70,0|0|0|0|0
104,88,31013,2,0,B|40:152|88:248,1,140,2|2
112,280,31482,1,0
176,320,31638,1,0
256,328,31794,5,0
416,192,32107,5,0
256,56,32419,6,0,B|144:56|176:144,1,140,4|0
200,208,32888,1,8
304,320,33201,1,0
408,208,33513,1,8
408,128,33669,5,0
344,80,33825,2,0,B|256:80,2,70,0|0|8
408,40,34294,1,0
472,88,34451,2,0,B|472:240,1,140,0|8
448,304,34919,6,0,B|384:384|200:384|128:304,1,350,0|4
24,192,36013,2,0,B|0:152|24:112,2,70
88,240,36482,1,0
152,192,36638,1,0
216,240,36794,5,0
416,304,37107,5,0
368,96,37419,6,0,B|288:48|224:80,1,140,4|0
160,104,37888,1,8
280,192,38201,1,0
360,192,38357,1,0
432,224,38513,1,8
456,296,38669,2,0,B|480:344|440:376|392:368|376:320,2,140,0|8|0
304,256,39607,1,0
304,256,39763,1,8
104,192,40076,6,0,B|24:192,4,70,0|0|0|0|4
184,56,41013,2,2,B|256:16|320:40,1,140
376,88,41482,1,0
424,144,41638,1,0
432,224,41794,5,0
256,336,42107,5,0
80,224,42419,6,0,B|16:160|80:96,1,140,4|0
136,48,42888,1,8
184,192,43201,1,0
232,48,43513,1,8
248,120,43669,5,0
296,184,43826,2,0,B|384:136,2,70,0|0|8
296,264,44294,1,0
248,328,44451,2,0,B|80:328,1,140,0|8
48,280,44919,6,0,B|128:88|248:280|320:72,1,350,0|0
432,192,46013,2,0,B|496:128,2,70
384,248,46482,1,0
328,296,46638,1,0
256,328,46794,5,0
96,192,47107,5,0
256,56,47419,6,0,B|344:56|400:112|320:192,2,210,4|8|0
176,56,48513,1,8
96,56,48669,2,0,B|0:56|0:184|96:200,1,210,0|8
152,224,49294,2,0,B|240:240|240:336,1,140,0|0
239,318,49763,1,8
408,192,50076,6,0,B|456:120|408:56,2,140,2|8|0
328,64,51013,1,8
176,64,51326,2,0,B|64:64|64:256|176:256,1,280
323,255,52263,1,8
464,192,52576,6,0,B|512:256|464:336,2,140,2|8|0
376,64,53513,1,8
224,64,53826,1,0
144,64,53982,1,0
64,64,54138,2,8,B|-16:72|-16:208|64:216,1,210
60,215,54763,1,8
256,128,55076,6,0,B|312:192|256:256,2,140,2|8|0
168,256,56013,1,8
312,312,56326,2,0,B|448:192|312:72,1,280
168,128,57263,1,8
32,192,57576,6,0,B|32:280|120:320,2,140,2|8|0
32,40,58513,1,8
184,40,58826,1,0
264,40,58982,1,0
344,40,59138,2,0,B|464:40|464:176|392:176,1,210,8|8
405,174,59763,1,8
256,192,60076,5,0
256,192,60701,1,0
104,192,61326,6,0,B|80:152,2,35,2|0|0
120,224,61794,1,0
136,256,61951,1,2
152,288,62107,1,0
168,320,62263,1,2
200,336,62419,1,2
240,336,62576,5,0
240,336,63201,1,0
344,224,63826,6,2,B|320:112|264:104,1,140
200,96,64763,1,0
160,96,64919,1,2
120,104,65076,5,0
120,104,65701,1,0
88,176,66013,5,0
72,208,66169,2,2,B|48:248|80:280,1,70
104,304,66638,1,0
184,312,66794,5,0
360,192,67107,5,0
184,72,67419,6,0,B|96:72|72:144,1,140,4|0
64,216,67888,1,8
192,296,68201,1,0
256,192,68513,12,4,69450
256,24,70076,6,0,B|376:24|424:168|296:208,2,280,0|8|0
104,24,71638,1,8
48,72,71794,2,0,B|16:160|64:224,1,140
88,280,72263,5,8
296,328,72576,1,0
128,208,72888,1,8
336,256,73201,1,0
160,136,73513,1,8
160,136,73669,2,0,B|272:96|360:192,1,210,0|8
192,320,74451,1,8
192,320,74763,1,8
344,344,75076,6,0,B|456:344|504:224|368:168,1,280
370,168,75857,1,8
224,120,76169,2,0,B|128:96|96:184,1,140
64,232,76638,1,8
80,304,76794,1,0
144,344,76951,2,0,B|240:352|264:256,1,140,8|8
256,192,77419,12,0,78669
256,64,78982,5,2
256,144,79138,1,0
256,224,79294,1,0
200,368,79607,2,0,B|256:288|312:368,1,140,2|0
400,312,80076,6,0,B|536:192|400:72,2,280,0|8|0
304,192,81638,1,8
224,192,81794,2,0,B|80:192,1,140
8,192,82263,1,8
96,312,82576,6,0,B|256:312,1,140,0|8
376,256,83201,2,0,B|224:256,1,140,0|8
96,200,83826,2,0,B|272:200,1,140,0|8
312,200,84294,2,0,B|464:200,1,140,0|8
452,200,84763,1,8
360,80,85076,6,0,B|296:32|224:80,2,140,0|8|0
416,128,85857,1,8
280,192,86169,2,0,B|184:264|80:192,1,210,0|8
32,48,86951,1,0
184,48,87263,1,8
256,192,87419,12,0,88826
232,96,89138,6,0,B|200:168,1,70,8|0
280,168,89451,2,0,B|312:240,1,70,0|8
232,248,89763,2,0,B|200:320,1,70,0|8
280,336,90076,1,4
280,288,99138,6,0,B|312:216,1,70
232,216,99451,2,2,B|200:144,1,70
280,136,99763,2,0,B|312:64,1,70,0|2
232,48,100076,1,0
80,48,100388,5,8
24,192,100701,1,0
80,336,101013,1,8
232,336,101326,2,0,B|384:336,2,140,0|8|0
176,192,102263,1,8
224,48,102576,2,0,B|400:48|400:224,2,280,0|8|0
72,48,104138,1,8
72,48,104451,1,0
72,128,104607,5,2
72,208,104763,1,0
72,288,104919,1,2
72,368,105076,1,0
200,280,105388,5,8
328,200,105701,1,0
176,216,106013,1,8
320,264,106326,1,0
208,160,106638,1,8
272,304,106951,1,0
272,152,107263,1,8
256,192,107576,12,4,109451
256,48,110076,6,0,B|256:144,1,70
256,192,110388,1,0
256,272,110544,2,0,B|256:352,1,70,0|8
256,342,111013,1,8
104,344,111326,2,0,B|16:344|32:240,1,140
80,192,111794,5,0
256,80,112107,5,0
432,192,112419,6,0,B|432:344,1,140,4|0
368,376,112888,1,8
216,376,113201,1,0
320,264,113513,1,8
240,264,113669,5,0
160,264,113826,2,0,B|120:264|80:232,1,70
40,184,114138,2,0,B|16:144|32:104,1,70,8|0
56,40,114451,2,0,B|104:-16|128:96|184:40,1,140,0|8
256,24,114919,6,0,B|384:-24|496:144|360:240,1,350
224,288,116013,5,0
184,296,116169,1,0
144,304,116326,2,0,B|96:312,2,35,0|0|0
144,304,116794,5,0
256,128,117107,5,0
368,304,117419,6,0,B|440:264|440:176,1,140
440,112,117888,1,8
312,24,118201,1,0
232,24,118357,5,0
152,24,118513,1,8
72,24,118669,2,0,B|-8:80|72:136,1,140
128,80,119138,2,0,B|192:184|128:280,1,210,8|8
129,277,119763,1,8
256,368,120076,6,0,B|352:368|368:296,1,140
376,224,120544,1,0
376,144,120701,1,8
376,144,121013,1,8
256,48,121326,6,0,B|176:48|176:144,1,140
176,140,121794,5,0
256,336,122107,5,0
336,144,122419,6,0,B|392:72|456:144,1,140,4|0
400,192,122888,1,8
408,344,123201,1,0
256,336,123513,1,8
184,304,123669,5,0
128,248,123826,2,0,B|96:168,1,70
32,160,124138,2,0,B|80:88,1,70,8|0
24,40,124451,2,0,B|176:16,1,140,0|8
240,8,124919,6,0,B|360:40|368:168,1,210
367,156,125544,1,8
160,144,125857,1,8
352,232,126169,1,0
200,80,126482,5,0
200,80,126638,1,8
200,80,126794,1,0
120,208,127107,1,0
120,208,127263,1,8
120,208,127419,6,0,B|80:296|216:312,1,140
192,232,127888,2,0,B|293:242|253:330,1,140,8|0
328,344,128357,1,8
328,344,128513,1,8
256,192,128669,12,4,130076
280,32,130388,6,0,B|360:48|376:128,1,140,8|0
220,122,131013,2,0,B|140:138|124:218,1,140,8|0
279,212,131638,2,0,B|359:228|375:308,1,140,8|0
219,302,132263,2,0,B|200:384|88:384|56:304,1,210,8|0
32,240,132888,5,8
24,160,133044,1,0
64,88,133201,2,0,B|120:24|192:64,2,140,0|8|0
157,214,134138,2,0,B|101:278|29:238,2,140,8|0|0
157,214,135076,1,4
256,96,135388,5,8
408,96,135701,1,0
280,184,136013,1,8
432,184,136326,1,0
304,272,136638,2,0,B|344:336|400:240|440:312,2,140,8|0|8
104,336,137576,5,0
256,192,137888,1,8
256,192,138044,1,0
104,48,138357,2,0,B|104:192,1,140,8|0
304,72,139138,6,0,B|392:112|352:192,1,140,8|8
312,248,139607,1,0
240,280,139763,1,8
160,288,139919,1,8
88,264,140076,5,0
88,264,140701,1,0
160,128,141326,6,0,B|160:80,2,35,2|0|2
160,168,141794,1,0
176,200,141951,1,2
208,216,142107,1,0
248,224,142263,1,0
288,224,142419,1,2
328,224,142576,5,0
328,224,143201,1,0
376,80,143826,6,2,B|312:40|256:80,1,105,2|0
240,88,144451,1,2
208,104,144607,1,0
168,112,144763,1,2
128,104,144919,1,0
96,88,145076,5,0
96,88,145701,1,0
64,160,146013,5,0
48,192,146169,2,2,B|24:272|56:288,1,70
48,296,146638,1,0
96,352,146794,5,0
256,216,147107,5,0
336,24,147419,6,0,B|296:104|352:160,1,140
432,88,147888,2,0,B|480:160|432:248,1,140,8|0
256,192,148513,12,0,149451
376,296,150076,6,0,B|256:432|136:296,2,280,0|8|0
296,164,151638,1,8
216,164,151794,2,0,B|31:164,1,140
80,88,152263,5,8
280,24,152576,1,0
464,120,152888,1,8
360,304,153201,1,0
152,280,153513,1,8
152,280,153669,2,0,B|200:144|240:272|288:136,1,210,0|8
88,72,154451,1,8
88,72,154763,1,8
24,216,155076,6,0,B|24:304|64:352|152:352|240:352,1,280
304,352,155857,1,8
448,304,156169,2,0,B|496:232|440:168,1,140,0|0
392,120,156638,1,8
336,64,156794,1,0
264,32,156951,2,0,B|184:0|120:72,1,140,8|8
256,192,157419,12,0,158669
256,352,158982,5,2
256,272,159138,1,0
256,192,159294,1,0
296,40,159607,1,0
216,40,159763,1,8
64,40,160076,6,0,B|64:232|152:96|152:320,2,280,0|8|0
216,40,161638,1,8
296,40,161794,2,0,B|384:40|384:128,1,140
384,200,162263,1,8
256,288,162576,6,0,B|96:232,1,140,0|8
72,96,163201,2,0,B|200:32,1,140,0|8
344,80,163826,2,0,B|400:240,1,140,0|8
312,200,164294,2,0,B|360:344,1,140
416,280,164763,1,8
248,256,165076,6,0,B|184:208|104:256,2,140,0|8|0
248,256,165857,1,8
129,137,166169,2,0,B|193:185|273:137,1,140
260,143,166638,1,8
408,64,166951,1,0
472,224,167263,1,8
256,192,167419,12,0,168826
304,280,169138,6,0,B|384:312,2,70,8|0|0
208,280,169607,2,0,B|128:312,2,70,8|0|8
256,216,170076,6,0,B|288:152|384:152,2,140,2|8|0
112,256,171013,1,8
0,152,171326,2,0,B|-16:46|131:-13|212:57,1,280
288,128,172263,1,8
400,184,172576,6,0,B|448:248|400:328,2,140,2|8|0
264,256,173513,1,8
112,256,173826,1,0
64,192,173982,1,0
144,184,174138,2,8,B|224:192|224:328|144:336,1,210
147,335,174763,1,8
296,296,175076,6,0,B|256:232|296:160,2,140,2|8|0
448,296,176013,1,8
392,152,176326,2,0,B|392:40|200:40|200:152,1,280
200,300,177263,1,8
128,160,177576,6,0,B|136:72|48:56,2,140,2|8|0
64,296,178513,1,8
200,376,178826,1,0
280,376,178982,1,0
360,376,179138,2,0,B|488:376|488:240,1,210,8|8
488,245,179763,1,8
408,48,180076,6,0,B|304:64,1,70,2|0
272,16,180388,2,0,B|216:80,1,70,8|0
152,40,180701,2,0,B|152:200,1,140,0|8
304,152,181326,6,0,B|240:216,1,70,2|0
296,264,181639,2,0,B|192:272,1,70,8|0
184,320,181951,2,8,B|64:224,1,140
256,128,182576,6,0,B|328:80,1,70,2|0
320,168,182888,2,0,B|392:120,1,70,8|0
384,208,183201,2,0,B|528:104,2,140,0|8|2
320,248,183982,5,0
256,288,184138,2,0,B|168:336|96:304|88:192,1,210,8|0
93,227,184763,1,8
208,120,185076,5,2
272,80,185232,1,0
336,128,185388,1,8
392,272,185701,2,0,B|320:296|272:192,2,140,0|8|2
456,232,186482,5,0
464,152,186638,1,8
320,88,186951,2,0,B|232:40|192:128,2,140,8|8|2
368,144,187732,5,0
400,216,187888,1,8
368,288,188044,1,0
304,328,188201,2,0,B|240:384|176:336,1,140,0|8
72,224,188826,5,2
72,144,188982,1,0
72,64,189138,2,0,B|184:64|224:192,1,210,8|0
222,187,189763,1,8
256,192,190076,12,0,191326
