osu file format v6

[General]
AudioFilename: Anamanaguchi-Power_Supply.mp3
AudioLeadIn: 0
PreviewTime: 67007
Countdown: 1
SampleSet: Normal
StackLeniency: 0.7
Mode: 0
LetterboxInBreaks: 1

[Editor]
DistanceSpacing: 1.20000004768372
BeatDivisor: 4
GridSize: 8

[Metadata]
Title:Helix Nebula
Artist:Anamanaguchi
Creator:Sushi971
Version:Hard
Source:
Tags:

[Difficulty]
HPDrainRate:6
CircleSize:4
OverallDifficulty:7
SliderMultiplier:1.8
SliderTickRate:1

[Events]
//Background and Video events
0,0,"HelixNebula-HST.jpg"
//Break Periods
2,40207,46907
2,118207,123907
//Storyboard Layer 0 (Background)
//Storyboard Layer 1 (Fail)
//Storyboard Layer 2 (Pass)
//Storyboard Layer 3 (Foreground)
//Storyboard Sound Samples
//Background Colour Transformations
3,100,163,162,255

[TimingPoints]
14407,400,4,1,1,81,1,0
144007,-100,4,1,1,81,0,1
156807,-100,4,1,1,81,0,0

[Colours]
Combo1 : 255,255,0
Combo2 : 255,128,64
Combo3 : 255,255,128
Combo4 : 255,128,0

[HitObjects]
256,192,14207,5,8
256,192,14307,1,8
256,192,14407,1,4
152,192,14607,1,0
48,192,14807,2,0,B|48:272|120:272,2,90,8|0|0
104,96,15407,1,0
208,96,15607,1,8
312,96,15807,6,0,B|384:104|384:152,1,90
272,144,16207,2,0,B|272:208|368:200,2,90,0|8|0
272,48,16807,1,0
376,48,17007,1,0
432,48,17107,1,0
488,48,17207,1,8
488,152,17407,1,8
432,152,17507,1,8
376,152,17607,6,0,B|296:152|296:224,2,90,4|0|8
376,256,18207,1,0
376,368,18407,2,0,B|312:368|288:328,1,90,0|0
224,248,18807,1,8
176,152,19007,6,4,B|128:64|16:112,2,180,4|2|4
288,152,20007,1,0
392,152,20207,1,8
392,256,20407,1,8
288,256,20607,2,4,B|208:336|112:320,2,180,4|2|4
240,144,21607,5,0
240,144,21807,1,0
136,144,22007,1,8
136,144,22207,2,4,B|136:32|264:32,2,180,4|2|4
136,256,23207,1,0
200,344,23407,1,8
304,344,23607,1,8
408,344,23807,1,2
408,240,24007,6,0,B|464:240,3,45,0|0|0|0
456,184,24407,2,8,B|408:144,3,45,8|8|8|8
384,120,24807,2,0,B|328:168,3,45
312,192,25207,1,8
272,224,25307,1,8
216,232,25407,1,8
160,224,25507,1,8
256,192,25607,12,4,26807
256,48,27207,6,0,B|296:112|232:160,1,90
192,216,27607,1,8
258,132,27807,2,0,B|306:84|362:132,1,90
416,192,28207,1,0
416,296,28407,1,8
336,368,28607,6,0,B|272:368|248:312,3,90,0|0|0|8
208,232,29407,1,0
160,136,29607,1,0
88,56,29807,1,0
32,48,29907,1,0
0,96,30007,1,8
0,200,30207,1,8
32,248,30307,1,8
88,240,30407,5,4
192,208,30607,2,0,B|248:184|304:240,1,90,0|8
376,272,31007,1,0
472,328,31207,2,0,B|480:264|464:224,2,90,0|0|8
376,272,31807,6,4,B|296:232|280:160|320:112,2,180,4|2|4
424,176,32807,1,0
448,72,33007,1,8
344,32,33207,1,8
360,136,33407,2,0,B|456:160|456:296,2,180,0|2|0
256,112,34407,5,0
328,192,34607,1,0
256,272,34807,1,8
184,192,35007,2,4,B|80:192|80:352,2,180,4|2|4
288,192,36007,1,0
392,192,36207,1,8
312,264,36407,1,8
416,264,36607,1,0
336,336,36807,5,0
336,336,36907,1,0
336,336,37007,1,0
336,336,37107,1,0
336,336,37207,1,8
232,336,37407,1,0
128,336,37607,2,0,B|48:336|56:272,1,90
32,192,38007,1,8
256,192,38207,12,4,39207
256,192,39607,5,2
256,192,40007,1,4
256,192,47807,6,0,B|336:192|360:120,2,135,0|0|0
144,192,48607,1,8
136,192,48707,1,0
128,192,48807,1,0
120,192,48907,1,0
112,192,49007,1,8
40,272,49207,1,2
104,360,49407,6,0,B|152:296|224:296,2,135,0|0|0
216,360,50207,1,8
224,360,50307,1,0
232,360,50407,1,0
240,360,50507,1,0
248,360,50607,1,8
352,360,50807,1,2
416,272,51007,5,0
416,272,51107,2,0,B|416:216|368:168,1,90,0|8
256,80,51607,1,0
96,80,51907,2,0,B|64:112|56:160,1,90,0|0
56,159,52207,1,8
96,264,52407,1,4
256,264,52707,6,0,B|144:264,1,90,0|8
328,264,53207,1,0
488,264,53507,2,0,B|440:232|400:272,1,90
368,224,53807,1,8
264,200,54007,1,8
224,96,54207,5,0
328,96,54407,2,0,B|416:96|424:160,2,90,0|0|8
224,96,55007,1,0
144,176,55207,2,0,B|136:256|176:280,2,90,0|0|2
256,176,55807,1,2
224,280,56007,6,0,B|328:280,1,90
384,368,56407,1,8
280,368,56607,1,0
224,280,56807,2,0,B|352:280,1,90
384,192,57207,1,2
280,192,57407,1,2
176,192,57607,5,0
104,272,57807,1,0
32,352,58007,2,8,B|408:352,1,360
408,248,59007,5,0
320,192,59207,2,4,B|216:192|160:112,1,180
163,117,59807,2,4,B|128:64|72:56|32:160,1,180
35,152,60407,1,2
200,280,60807,5,0
312,280,61007,1,0
224,216,61207,1,8
336,216,61407,1,8
312,104,61607,1,0
200,104,61807,1,0
288,168,62007,1,2
176,168,62207,1,2
80,120,62407,5,0
72,136,62507,1,0
64,152,62607,1,0
56,168,62707,1,0
48,184,62807,2,0,B|0:280,3,90,8|8|0|0
88,352,63607,1,2
304,352,64007,5,0
200,352,64207,1,0
224,248,64407,2,2,B|248:176|392:176,1,180,8|4
224,24,65207,1,8
224,128,65407,1,8
256,192,65607,12,4,66807
256,192,67207,5,0
152,192,67407,2,0,B|88:192|80:280,2,90,0|8|0
256,192,68007,1,0
368,192,68207,2,0,B|456:192|472:128,1,90,0|8
456,56,68607,6,4,B|400:8|248:8,2,180,4|2|4
368,120,69607,1,0
256,136,69807,1,0
200,136,69907,1,0
144,136,70007,1,8
48,88,70207,1,8
104,88,70307,1,8
160,88,70407,6,0,B|296:88,1,90
360,88,70807,1,8
360,192,71007,2,0,B|224:192,1,90
160,192,71407,1,0
160,192,71607,1,8
56,192,71807,6,4,B|56:320|184:272,1,180,4|2
456,192,72607,2,4,B|456:320|328:272,1,180,4|8
256,208,73207,1,8
256,312,73407,2,0,B|128:312,4,90,0|0|0|8|0
256,192,74407,5,0
256,192,74607,1,0
256,192,74807,1,8
256,192,75007,2,0,B|200:136|312:64|256:8,2,180,0|2|0
184,272,76007,1,0
256,352,76207,1,8
328,272,76407,1,8
256,192,76607,1,0
256,88,76807,6,0,B|128:88,1,90
56,80,77207,1,8
56,96,77307,1,0
56,112,77407,1,8
56,128,77507,1,0
56,144,77607,2,0,B|48:224|104:232,1,90,0|0
168,288,78007,1,8
184,288,78107,1,0
200,288,78207,1,8
216,288,78307,1,0
256,192,78407,12,4,79607
256,312,80007,5,0
152,288,80207,2,0,B|80:256|80:224,1,90,0|8
40,136,80607,1,0
112,56,80807,2,8,B|168:56|184:8,2,90,0|0|8
184,136,81407,6,4,B|272:72|376:72,2,180,4|6|4
184,248,82407,1,0
288,248,82607,1,0
344,240,82707,1,0
376,192,82807,1,8
480,192,83007,1,8
472,248,83107,1,8
432,288,83207,6,0,B|384:320|384:368,2,90,0|0|8
480,192,83807,1,0
472,88,84007,1,0
368,88,84207,2,0,B|272:160,1,90,0|8
256,40,84607,5,4
48,96,85007,2,4,B|48:192|112:280,1,180,2|4
256,112,85807,1,8
256,216,86007,1,8
256,320,86207,2,0,B|368:192|368:32,1,270,0|8
152,80,87207,6,0,B|120:112|112:160,1,90
192,80,87607,2,0,B|224:112|232:160,3,90,8|0|0|0
171,249,88407,1,8
256,312,88607,1,0
368,312,88807,1,0
280,248,89007,1,8
384,248,89207,2,0,B|432:248,2,45,8|0|8
296,184,89607,5,0
296,184,89707,1,0
296,184,89807,1,0
296,184,89907,1,0
296,184,90007,1,8
192,184,90207,1,0
280,120,90407,2,0,B|176:120,1,90,8|0
80,120,90807,1,8
256,192,91007,12,4,92007
256,128,92407,5,8
256,136,92507,1,8
256,144,92607,1,0
192,232,92807,6,0,B|48:232|24:40,2,270,0|2|0
320,56,94407,2,0,B|320:136|424:40|448:176,1,180,0|8
256,264,95207,1,8
256,160,95407,1,0
168,216,95607,5,8
168,320,95807,1,0
80,256,96007,2,4,B|80:64|336:64,2,360
256,128,98007,5,8
464,192,98407,1,8
456,200,98507,1,0
448,208,98607,1,0
440,216,98707,1,0
432,224,98807,1,8
256,352,99207,6,0,B|256:208|384:192|384:112,2,270,0|2|0
256,136,100807,2,0,B|232:176|176:216|176:312,1,180,0|8
32,136,101607,1,8
136,136,101807,1,0
216,56,102007,5,8
320,56,102207,1,0
424,56,102407,2,0,B|352:128,1,90
256,144,102807,2,8,B|336:224,1,90
424,184,103207,1,0
472,280,103407,1,0
368,280,103607,1,8
264,280,103807,1,8
256,192,104007,12,0,105207
64,88,105607,6,0,B|64:200,1,90
64,178,106007,1,8
64,178,106207,1,0
64,178,106407,2,0,B|192:176,1,90
153,176,106807,1,2
153,176,107007,1,2
264,176,107207,6,0,B|264:248|192:248,2,90,0|0|8
264,176,107807,1,0
264,72,108007,2,0,B|336:72|336:144,2,90,0|0|2
264,72,108607,1,2
160,72,108807,5,0
56,72,109007,1,0
56,176,109207,2,8,B|56:368|312:368,1,360
416,368,110207,5,0
416,264,110407,2,4,B|416:176|336:104,1,180
339,107,111007,2,4,B|248:24|152:24,1,180
181,26,111607,1,2
144,240,112007,6,0,B|184:280|224:240,1,90
216,136,112407,2,8,B|256:96|296:136,1,90,8|8
296,240,112807,2,0,B|336:280|376:240,1,90,0|0
312,328,113207,1,2
208,328,113407,1,2
256,232,113607,5,0
248,216,113707,1,0
264,200,113807,1,0
248,184,113907,1,0
256,168,114007,2,0,B|256:64,3,90,8|8|0|0
256,78,114807,1,2
40,80,115207,5,0
144,80,115407,1,0
144,184,115607,2,0,B|144:256|248:336,1,180,8|4
392,192,116407,1,8
288,192,116607,1,8
256,192,116807,12,0,118007
248,80,124807,5,0
352,80,125007,1,0
264,144,125207,1,8
160,144,125407,1,0
206,171,125507,1,0
248,200,125607,1,0
352,200,125807,1,0
264,256,126007,1,8
160,256,126207,6,4,B|32:256|40:120|40:64|104:40,1,270,4|8
296,48,127207,1,8
312,56,127307,1,0
323,68,127407,1,0
331,84,127507,1,0
339,100,127607,1,8
456,280,128007,6,0,B|456:328,4,45,0|0|0|0|8
360,328,128607,2,4,B|232:328|184:264,1,180,4|4
128,192,129207,1,8
256,192,129407,12,4,130807
256,192,131207,5,4
360,192,131407,1,0
464,192,131607,2,0,B|464:112|392:112,2,90,8|0|0
408,288,132207,1,0
304,288,132407,1,8
200,288,132607,6,0,B|128:280|128:232,1,90
240,240,133007,2,0,B|240:176|144:184,2,90,0|8|0
240,336,133607,1,0
136,336,133807,1,0
80,336,133907,1,0
24,336,134007,1,8
24,232,134207,1,8
80,232,134307,1,8
136,232,134407,6,0,B|216:232|216:160,2,90,4|0|8
136,128,135007,1,0
136,16,135207,2,0,B|200:16|224:56,1,90,0|0
288,136,135607,1,8
336,232,135807,6,4,B|384:320|496:272,2,180,4|2|4
224,232,136807,1,0
120,232,137007,1,8
120,128,137207,1,8
224,128,137407,2,4,B|304:48|400:64,2,180,4|2|4
272,240,138407,5,0
272,240,138607,1,0
376,240,138807,1,8
376,240,139007,2,4,B|376:352|248:352,2,180,4|2|4
376,128,140007,1,0
312,40,140207,1,8
208,40,140407,1,8
104,40,140607,1,2
104,144,140807,6,0,B|48:144,3,45,0|0|0|0
56,200,141207,2,8,B|104:240,3,45,8|8|8|8
128,264,141607,2,0,B|184:216,3,45
200,192,142007,1,8
240,160,142107,1,8
296,152,142207,1,8
352,160,142307,1,8
256,192,142407,12,4,143607
448,192,144007,5,0
392,104,144207,2,0,B|312:64|280:128,1,90,0|8
216,160,144607,1,0
128,224,144807,2,0,B|56:256|24:200,2,90,0|0|8
216,160,145407,6,4,B|312:160|312:296,2,180,4|6|4
112,160,146407,1,0
112,48,146607,1,0
168,48,146707,1,0
224,48,146807,1,8
328,48,147007,1,8
384,48,147107,1,8
440,48,147207,5,0
400,152,147407,1,0
296,152,147607,1,8
368,232,147807,1,0
264,232,148007,2,0,B|152:232,1,90
80,280,148407,2,0,B|200:280,1,90,8|0
368,360,149007,6,8,B|416:360|384:304|456:272,2,90,8|0|8
152,360,149807,2,0,B|240:336|248:216,1,180,2|2
247,222,150407,2,4,B|247:15,1,180
360,224,151207,5,0
360,328,151407,1,0
360,224,151607,1,8
360,328,151807,2,0,B|240:328|184:232,4,180,0|2|0|2|0
256,192,153607,12,4,156807
