osu file format v6

[General]
AudioFilename: Anamanaguchi-Power_Supply.mp3
AudioLeadIn: 0
PreviewTime: 67007
Countdown: 1
SampleSet: Normal
StackLeniency: 0.7
Mode: 0
LetterboxInBreaks: 1

[Editor]
DistanceSpacing: 0.699999988079071
BeatDivisor: 4
GridSize: 8

[Metadata]
Title:Helix Nebula
Artist:Anamanaguchi
Creator:Sushi971
Version:Easy
Source:
Tags:

[Difficulty]
HPDrainRate:3
CircleSize:3
OverallDifficulty:4
SliderMultiplier:1
SliderTickRate:1

[Events]
//Background and Video events
0,0,"HelixNebula-HST.jpg"
//Break Periods
2,40206,53087
//Storyboard Layer 0 (Background)
//Storyboard Layer 1 (Fail)
//Storyboard Layer 2 (Pass)
//Storyboard Layer 3 (Foreground)
//Storyboard Sound Samples
//Background Colour Transformations
3,100,163,162,255

[TimingPoints]
14407,400,4,1,1,80,1,0
67207,-100,4,1,1,80,0,1
80002,-100,4,1,1,80,0,0
80007,-100,4,1,1,80,0,1
92807,-100,4,1,1,80,0,0

[Colours]
Combo1 : 255,255,0
Combo2 : 255,128,64
Combo3 : 255,255,128
Combo4 : 255,128,0

[HitObjects]
48,192,14407,1,0
184,192,15207,1,0
328,192,16007,1,0
464,192,16807,1,8
464,56,17607,6,0,B|160:56,1,300,0|0
164,56,19207,2,0,B|160:240|224:320|264:320,1,300,0|0
256,192,20607,12,0,22607
232,192,23207,6,0,B|288:192,2,50,0|8|8
256,192,24007,12,0,26407
256,88,27207,5,0
256,160,27607,1,0
256,232,28007,1,8
392,232,28807,2,0,B|432:216|432:184|376:168|376:136|424:112|424:32,1,200,0|8
280,56,30407,5,0
208,56,30807,1,0
136,56,31207,1,8
136,192,32007,1,0
136,264,32407,1,0
208,264,32807,1,8
208,192,33207,1,8
256,192,33607,12,4,35407
224,192,36007,6,0,B|288:192,2,50,0|8|8
152,192,36807,1,0
152,264,37207,1,0
152,336,37607,1,0
256,336,38207,6,4,B|472:336|472:88|256:88,1,450,0|4
128,152,54407,5,0
200,152,54807,1,8
272,152,55207,2,0,B|392:152,1,100,0|8
376,224,56007,5,0
304,224,56407,1,8
232,224,56807,2,0,B|120:224,1,100,0|2
64,224,57607,1,0
256,192,58007,12,4,60007
256,288,60807,5,0
256,216,61207,1,8
256,144,61607,1,0
256,72,62007,1,8
184,72,62407,6,0,B|112:72,2,50,0|0|8
184,144,63207,1,0
184,216,63607,1,2
184,288,64007,1,0
256,192,64407,12,4,66807
96,192,67207,6,0,B|96:112|200:104,2,150,0|0|8
96,192,68607,1,0
168,192,69007,1,0
240,192,69407,1,0
312,192,69807,1,2
416,192,70407,6,0,B|416:112|312:104,2,150,0|0|8
416,192,71807,1,0
344,192,72207,1,8
272,192,72607,1,0
200,192,73007,1,8
256,192,73407,12,0,75407
256,56,76007,5,0
256,128,76407,1,8
256,200,76807,6,0,B|320:296,1,100,0|8
256,328,77607,2,0,B|192:232,1,100,0|8
256,200,78407,6,0,B|320:104,1,100,0|8
256,72,79207,2,0,B|192:168,1,100,0|4
256,200,80007,6,0,B|384:200,3,100,0|8|0|8
424,200,81607,6,0,B|424:312,1,100,0|8
368,344,82407,2,0,B|264:344,1,100,0|2
200,344,83207,5,0
128,344,83607,1,8
128,272,84007,1,0
56,272,84407,1,8
56,272,84607,6,0,B|56:144|184:136,1,200
240,136,85807,1,8
256,192,86207,12,4,88207
256,272,88807,5,0
256,200,89207,1,8
256,128,89607,2,0,B|256:96,4,25,0|0|0|0|8
328,128,90407,1,0
400,128,90807,1,8
256,192,91007,12,4,92807
