osu file format v13

[General]
AudioFilename: Gideon Wrath, Part II (Gigadeon Graves Boss Theme) - Scott Pilgrim vs. The World- The Game OST(1).mp3
AudioLeadIn: 0
PreviewTime: 44403
Countdown: 1
SampleSet: None
StackLeniency: 0.7
Mode: 0
LetterboxInBreaks: 1
WidescreenStoryboard: 1

[Editor]
Bookmarks: 5237,7320,8153,16070,21737,69987
DistanceSpacing: 1
BeatDivisor: 4
GridSize: 4
TimelineZoom: 1

[Metadata]
Title:Gideon Wrath Part II
TitleUnicode:Gideon Wrath Part II
Artist:Anamanaguchi
ArtistUnicode:Anamanaguchi
Creator:Lazly-kun
Version:Rough and Tough
Source:Scott Pilgrim vs. the World: The Game
Tags:anamanaguchi scott pilgrim chiptune punk rock Lasoki
BeatmapID:613829
BeatmapSetID:269679

[Difficulty]
HPDrainRate:5
CircleSize:3
OverallDifficulty:5
ApproachRate:5
SliderMultiplier:1
SliderTickRate:1

[Events]
//Background and Video events
0,0,"500px-Seven_Evil_Exes_Pic.png",0,0
//Break Periods
2,43270,53870
//Storyboard Layer 0 (Background)
//Storyboard Layer 1 (Fail)
//Storyboard Layer 2 (Pass)
//Storyboard Layer 3 (Foreground)
//Storyboard Sound Samples

[TimingPoints]
404,333.333333333333,4,1,0,100,1,0
21737,-100,4,1,0,100,0,1
43070,-100,4,1,0,100,0,0

[HitObjects]
72,152,404,5,0,0:0:0:0:
160,64,737,2,0,P|224:48|256:72,1,100
288,96,1237,1,0,0:0:0:0:
328,136,1403,1,0,0:0:0:0:
344,240,1737,6,0,P|296:272|240:272,1,100,0|0,0:0|0:0,0:0:0:0:
160,240,2403,1,0,0:0:0:0:
136,200,2569,1,0,0:0:0:0:
136,152,2737,1,0,0:0:0:0:
72,232,3070,5,0,0:0:0:0:
160,320,3403,2,0,P|224:336|256:312,1,100
288,288,3903,1,0,0:0:0:0:
328,248,4069,1,0,0:0:0:0:
368,152,4403,5,0,0:0:0:0:
280,88,4737,1,0,0:0:0:0:
176,88,5070,2,0,L|136:112,4,25,0|0|0|0|0,0:0|0:0|0:0|0:0|0:0,0:0:0:0:
88,136,5737,5,0,0:0:0:0:
128,232,6070,1,0,0:0:0:0:
224,256,6403,1,0,0:0:0:0:
264,280,6570,1,0,0:0:0:0:
312,272,6737,1,0,0:0:0:0:
368,216,7070,5,0,0:0:0:0:
320,128,7403,1,0,0:0:0:0:
228,88,7737,2,0,P|188:64|172:60,2,50,0|0|0,0:0|0:0|0:0,0:0:0:0:
128,96,8403,5,0,0:0:0:0:
88,192,8737,1,0,0:0:0:0:
104,288,9070,2,0,P|112:320|144:328,1,50
176,320,9403,1,0,0:0:0:0:
272,288,9737,2,0,P|320:256|344:216,2,100,0|0|0,0:0|0:0|0:0,0:0:0:0:
352,88,11070,5,0,0:0:0:0:
376,176,11403,1,0,0:0:0:0:
328,264,11737,2,0,P|272:288|264:288,2,50,0|0|0,0:0|0:0|0:0,0:0:0:0:
328,168,12403,6,0,P|280:96|264:96,1,100
176,56,13070,1,0,0:0:0:0:
128,64,13237,1,0,0:0:0:0:
88,96,13403,1,0,0:0:0:0:
88,192,13737,5,0,0:0:0:0:
168,256,14070,1,0,0:0:0:0:
264,280,14403,2,0,P|304:272|312:264,2,50,0|0|0,0:0|0:0|0:0,0:0:0:0:
344,208,15070,5,0,0:0:0:0:
304,120,15403,1,0,0:0:0:0:
216,168,15737,2,0,L|176:168,4,25,0|0|0|0|0,0:0|0:0|0:0|0:0|0:0,0:0:0:0:
144,96,16403,5,0,0:0:0:0:
104,192,16737,1,0,0:0:0:0:
160,256,17070,2,0,P|184:280|200:288,4,50,0|0|0|0|0,0:0|0:0|0:0|0:0|0:0,0:0:0:0:
352,192,18403,2,0,P|392:168|392:160,3,50,0|0|0|0,0:0|0:0|0:0|0:0,0:0:0:0:
256,192,19070,12,0,21737,0:0:0:0:
72,96,22403,6,0,P|56:136|80:192,1,100
112,224,22903,1,0,0:0:0:0:
152,248,23070,1,0,0:0:0:0:
352,264,23737,6,0,P|392:280|448:256,1,100
456,200,24237,1,0,0:0:0:0:
440,152,24404,1,0,0:0:0:0:
256,64,25070,5,0,0:0:0:0:
160,48,25403,1,0,0:0:0:0:
120,72,25570,2,0,P|88:88|80:104,1,50
152,240,26070,5,0,0:0:0:0:
256,232,26403,1,0,0:0:0:0:
304,208,26570,1,0,0:0:0:0:
336,168,26736,1,0,0:0:0:0:
56,56,27737,6,0,P|48:80|96:136,1,100
128,160,28237,1,0,0:0:0:0:
176,168,28403,1,0,0:0:0:0:
320,320,29070,6,0,P|344:328|400:280,1,100
432,248,29570,1,0,0:0:0:0:
448,200,29737,1,0,0:0:0:0:
288,96,30403,6,0,P|276:73|203:67,1,100
163,62,30903,1,0,0:0:0:0:
128,96,31070,2,0,P|88:152|96:176,1,100
168,248,31737,1,0,0:0:0:0:
208,280,31903,1,0,0:0:0:0:
256,296,32070,1,0,0:0:0:0:
352,264,32403,6,0,P|408:224|368:104,1,200
296,64,33403,1,0,0:0:0:0:
248,48,33570,1,0,0:0:0:0:
200,56,33737,1,0,0:0:0:0:
120,136,34403,6,0,P|74:169|112:200,1,100
128,232,34903,1,0,0:0:0:0:
176,256,35070,1,0,0:0:0:0:
392,136,35737,6,0,P|438:169|400:200,1,100
384,232,36237,1,0,0:0:0:0:
336,256,36404,1,0,0:0:0:0:
240,264,36737,1,0,0:0:0:0:
168,200,37070,2,0,L|120:200,4,25,0|0|0|0|0,0:0|0:0|0:0|0:0|0:0,0:0:0:0:
360,152,38070,6,0,P|312:96|184:72,1,200
152,104,38903,1,0,0:0:0:0:
120,248,39403,6,0,P|168:304|296:328,1,200
328,296,40236,1,0,0:0:0:0:
440,192,40737,1,0,0:0:0:0:
280,72,41403,2,0,L|232:72,3,25,0|0|0|0,0:0|0:0|0:0|0:0,0:0:0:0:
256,192,41737,12,0,43070,0:0:0:0:
80,136,55070,6,0,P|96:192|128:216,1,100
208,280,55737,1,0,0:0:0:0:
256,296,55903,1,0,0:0:0:0:
304,288,56070,1,0,0:0:0:0:
384,232,56403,6,0,P|368:176|336:152,1,100
256,88,57070,1,0,0:0:0:0:
208,72,57236,1,0,0:0:0:0:
160,80,57403,1,0,0:0:0:0:
96,160,57737,6,0,P|80:240|88:256,1,100
176,288,58403,2,0,P|216:312|232:304,2,50,0|0|0,0:0|0:0|0:0,0:0:0:0:
144,192,59070,1,0,0:0:0:0:
184,104,59403,1,0,0:0:0:0:
272,64,59737,2,0,L|296:64,4,25,0|0|0|0|0,0:0|0:0|0:0|0:0|0:0,0:0:0:0:
352,120,60403,6,0,P|376:200|368:208,1,100
288,256,61070,2,0,P|256:272|240:272,2,50,0|0|0,0:0|0:0|0:0,0:0:0:0:
184,256,61737,2,0,P|144:248|120:192,1,100,0|0,0:0|0:0,0:0:0:0:
104,96,62403,2,0,P|128:80|160:72,2,50,0|0|0,0:0|0:0|0:0,0:0:0:0:
256,192,63070,12,0,65737,0:0:0:0:
112,120,67403,6,0,P|128:200|216:280,1,200
264,280,68237,1,0,0:0:0:0:
392,208,68737,6,0,P|376:128|288:48,1,200
240,48,69571,1,0,0:0:0:0:
200,72,69737,2,0,P|144:104|112:136,1,100
144,224,70403,1,0,0:0:0:0:
192,240,70570,1,0,0:0:0:0:
240,224,70736,1,0,0:0:0:0:
80,272,71737,6,0,P|144:320|184:328,1,100
216,328,72237,1,0,0:0:0:0:
264,320,72403,1,0,0:0:0:0:
384,160,73070,6,0,P|320:112|280:104,1,100
248,104,73570,1,0,0:0:0:0:
200,112,73736,1,0,0:0:0:0:
72,24,74403,6,0,P|24:88|16:128,1,100
16,160,74903,1,0,0:0:0:0:
24,208,75069,1,0,0:0:0:0:
104,272,75403,2,0,P|168:304|192:296,1,100,0|0,0:0|0:0,0:0:0:0:
240,288,75903,1,0,0:0:0:0:
288,264,76070,1,0,0:0:0:0:
432,120,76737,6,0,P|368:80|248:56,1,200
200,56,77570,1,0,0:0:0:0:
120,184,78070,6,0,P|184:224|304:248,1,200
352,248,78903,1,0,0:0:0:0:
328,104,79403,6,0,P|256:72|128:56,1,200
88,64,80237,1,0,0:0:0:0:
56,96,80403,1,0,0:0:0:0:
32,192,80737,1,0,0:0:0:0:
88,272,81070,1,0,0:0:0:0:
136,296,81237,1,0,0:0:0:0:
184,288,81403,1,0,0:0:0:0:
352,184,82070,6,0,P|320:104|200:64,1,200
168,64,82903,1,0,0:0:0:0:
104,200,83403,6,0,P|144:280|264:288,1,200
296,280,84237,1,0,0:0:0:0:
392,168,84737,1,0,0:0:0:0:
280,72,85403,2,0,L|232:72,3,25,0|0|0|0,0:0|0:0|0:0|0:0,0:0:0:0:
256,192,85737,12,0,87070,0:0:0:0:
